  0
SECTION
  2
HEADER
  9
$ACADVER
  1
AC1015
  9
$ACADMAINTVER
 70
     6
  9
$DWGCODEPAGE
  3
ANSI_950
  9
$INSBASE
 10
0.0
 20
0.0
 30
0.0
  9
$EXTMIN
 10
0.0
 20
0.0
 30
0.0
  9
$EXTMAX
 10
297.0
 20
210.0
 30
0.0
  9
$LIMMIN
 10
0.0
 20
0.0
  9
$LIMMAX
 10
297.0
 20
210.0
  9
$ORTHOMODE
 70
     0
  9
$REGENMODE
 70
     1
  9
$FILLMODE
 70
     1
  9
$QTEXTMODE
 70
     0
  9
$MIRRTEXT
 70
     1
  9
$LTSCALE
 40
1.0
  9
$ATTMODE
 70
     1
  9
$TEXTSIZE
 40
2.5
  9
$TRACEWID
 40
1.0
  9
$TEXTSTYLE
  7
Standard
  9
$CLAYER
  8
0
  9
$CELTYPE
  6
ByLayer
  9
$CECOLOR
 62
   256
  9
$CELTSCALE
 40
1.0
  9
$DISPSILH
 70
     0
  9
$DIMSCALE
 40
1.0
  9
$DIMASZ
 40
2.0
  9
$DIMEXO
 40
1.0
  9
$DIMDLI
 40
3.75
  9
$DIMRND
 40
0.0
  9
$DIMDLE
 40
0.0
  9
$DIMEXE
 40
1.0
  9
$DIMTP
 40
0.0
  9
$DIMTM
 40
0.0
  9
$DIMTXT
 40
2.5
  9
$DIMCEN
 40
2.5
  9
$DIMTSZ
 40
0.0
  9
$DIMTOL
 70
     0
  9
$DIMLIM
 70
     0
  9
$DIMTIH
 70
     1
  9
$DIMTOH
 70
     1
  9
$DIMSE1
 70
     0
  9
$DIMSE2
 70
     0
  9
$DIMTAD
 70
     1
  9
$DIMZIN
 70
     0
  9
$DIMBLK
  1

  9
$DIMASO
 70
     1
  9
$DIMSHO
 70
     1
  9
$DIMPOST
  1

  9
$DIMAPOST
  1

  9
$DIMALT
 70
     0
  9
$DIMALTD
 70
     3
  9
$DIMALTF
 40
0.0393700787
  9
$DIMLFAC
 40
1.0
  9
$DIMTOFL
 70
     1
  9
$DIMTVP
 40
0.0
  9
$DIMTIX
 70
     0
  9
$DIMSOXD
 70
     0
  9
$DIMSAH
 70
     0
  9
$DIMBLK1
  1

  9
$DIMBLK2
  1

  9
$DIMSTYLE
  2
ISO-25
  9
$DIMCLRD
 70
     0
  9
$DIMCLRE
 70
     0
  9
$DIMCLRT
 70
     0
  9
$DIMTFAC
 40
1.0
  9
$DIMGAP
 40
1.0
  9
$DIMJUST
 70
     0
  9
$DIMSD1
 70
     0
  9
$DIMSD2
 70
     0
  9
$DIMTOLJ
 70
     0
  9
$DIMTZIN
 70
     0
  9
$DIMALTZ
 70
     0
  9
$DIMALTTZ
 70
     0
  9
$DIMUPT
 70
     0
  9
$DIMDEC
 70
     2
  9
$DIMTDEC
 70
     2
  9
$DIMALTU
 70
     2
  9
$DIMALTTD
 70
     3
  9
$DIMTXSTY
  7
Standard
  9
$DIMAUNIT
 70
     0
  9
$DIMADEC
 70
     1
  9
$DIMALTRND
 40
0.0
  9
$DIMAZIN
 70
     0
  9
$DIMDSEP
 70
    44
  9
$DIMATFIT
 70
     3
  9
$DIMFRAC
 70
     0
  9
$DIMLDRBLK
  1

  9
$DIMLUNIT
 70
     2
  9
$DIMLWD
 70
    -2
  9
$DIMLWE
 70
    -2
  9
$DIMTMOVE
 70
     0
  9
$LUNITS
 70
     2
  9
$LUPREC
 70
     2
  9
$SKETCHINC
 40
1.0
  9
$FILLETRAD
 40
10.0
  9
$AUNITS
 70
     0
  9
$AUPREC
 70
     1
  9
$MENU
  1
.
  9
$ELEVATION
 40
0.0
  9
$PELEVATION
 40
0.0
  9
$THICKNESS
 40
0.0
  9
$LIMCHECK
 70
     0
  9
$CHAMFERA
 40
0.0
  9
$CHAMFERB
 40
0.0
  9
$CHAMFERC
 40
0.0
  9
$CHAMFERD
 40
0.0
  9
$SKPOLY
 70
     0
  9
$TDCREATE
 40
2457463.649233854
  9
$TDUCREATE
 40
2457463.315900521
  9
$TDUPDATE
 40
2457463.649238009
  9
$TDUUPDATE
 40
2457463.315904676
  9
$TDINDWG
 40
0.0000000116
  9
$TDUSRTIMER
 40
0.0000000116
  9
$USRTIMER
 70
     1
  9
$ANGBASE
 50
0.0
  9
$ANGDIR
 70
     0
  9
$PDMODE
 70
     0
  9
$PDSIZE
 40
-1.0
  9
$PLINEWID
 40
0.0
  9
$SPLFRAME
 70
     0
  9
$SPLINETYPE
 70
     6
  9
$SPLINESEGS
 70
     8
  9
$HANDSEED
  5
21F
  9
$SURFTAB1
 70
     6
  9
$SURFTAB2
 70
     6
  9
$SURFTYPE
 70
     6
  9
$SURFU
 70
     6
  9
$SURFV
 70
     6
  9
$UCSBASE
  2

  9
$UCSNAME
  2

  9
$UCSORG
 10
0.0
 20
0.0
 30
0.0
  9
$UCSXDIR
 10
1.0
 20
0.0
 30
0.0
  9
$UCSYDIR
 10
0.0
 20
1.0
 30
0.0
  9
$UCSORTHOREF
  2

  9
$UCSORTHOVIEW
 70
     0
  9
$UCSORGTOP
 10
0.0
 20
0.0
 30
0.0
  9
$UCSORGBOTTOM
 10
0.0
 20
0.0
 30
0.0
  9
$UCSORGLEFT
 10
0.0
 20
0.0
 30
0.0
  9
$UCSORGRIGHT
 10
0.0
 20
0.0
 30
0.0
  9
$UCSORGFRONT
 10
0.0
 20
0.0
 30
0.0
  9
$UCSORGBACK
 10
0.0
 20
0.0
 30
0.0
  9
$PUCSBASE
  2

  9
$PUCSNAME
  2

  9
$PUCSORG
 10
0.0
 20
0.0
 30
0.0
  9
$PUCSXDIR
 10
1.0
 20
0.0
 30
0.0
  9
$PUCSYDIR
 10
0.0
 20
1.0
 30
0.0
  9
$PUCSORTHOREF
  2

  9
$PUCSORTHOVIEW
 70
     0
  9
$PUCSORGTOP
 10
0.0
 20
0.0
 30
0.0
  9
$PUCSORGBOTTOM
 10
0.0
 20
0.0
 30
0.0
  9
$PUCSORGLEFT
 10
0.0
 20
0.0
 30
0.0
  9
$PUCSORGRIGHT
 10
0.0
 20
0.0
 30
0.0
  9
$PUCSORGFRONT
 10
0.0
 20
0.0
 30
0.0
  9
$PUCSORGBACK
 10
0.0
 20
0.0
 30
0.0
  9
$USERI1
 70
     0
  9
$USERI2
 70
     0
  9
$USERI3
 70
     0
  9
$USERI4
 70
     0
  9
$USERI5
 70
     0
  9
$USERR1
 40
0.0
  9
$USERR2
 40
0.0
  9
$USERR3
 40
0.0
  9
$USERR4
 40
0.0
  9
$USERR5
 40
0.0
  9
$WORLDVIEW
 70
     1
  9
$SHADEDGE
 70
     3
  9
$SHADEDIF
 70
    70
  9
$TILEMODE
 70
     1
  9
$MAXACTVP
 70
    64
  9
$PINSBASE
 10
0.0
 20
0.0
 30
0.0
  9
$PLIMCHECK
 70
     0
  9
$PEXTMIN
 10
1.0000000000E+20
 20
1.0000000000E+20
 30
1.0000000000E+20
  9
$PEXTMAX
 10
-1.0000000000E+20
 20
-1.0000000000E+20
 30
-1.0000000000E+20
  9
$PLIMMIN
 10
0.0
 20
0.0
  9
$PLIMMAX
 10
420.0
 20
297.0
  9
$UNITMODE
 70
     0
  9
$VISRETAIN
 70
     1
  9
$PLINEGEN
 70
     0
  9
$PSLTSCALE
 70
     1
  9
$TREEDEPTH
 70
  3020
  9
$CMLSTYLE
  2
Standard
  9
$CMLJUST
 70
     0
  9
$CMLSCALE
 40
20.0
  9
$PROXYGRAPHICS
 70
     1
  9
$MEASUREMENT
 70
     1
  9
$CELWEIGHT
370
    -1
  9
$ENDCAPS
280
     0
  9
$JOINSTYLE
280
     0
  9
$LWDISPLAY
290
     1
  9
$INSUNITS
 70
     4
  9
$HYPERLINKBASE
  1

  9
$STYLESHEET
  1

  9
$XEDIT
290
     1
  9
$CEPSNTYPE
380
     0
  9
$PSTYLEMODE
290
     1
  9
$FINGERPRINTGUID
  2
{2F04D1EC-F499-4B30-BBAB-43CAFB4E1A94}
  9
$VERSIONGUID
  2
{FAEB1C32-E019-11D5-929B-00C0DF256EC4}
  9
$EXTNAMES
290
     1
  9
$PSVPSCALE
 40
0.0
  9
$OLESTARTUP
290
     0
  0
ENDSEC
  0
SECTION
  2
CLASSES
  0
CLASS
  1
ACDBDICTIONARYWDFLT
  2
AcDbDictionaryWithDefault
  3
ObjectDBX Classes
 90
        0
280
     0
281
     0
  0
CLASS
  1
VISUALSTYLE
  2
AcDbVisualStyle
  3
ObjectDBX Classes
 90
     4095
280
     0
281
     0
  0
CLASS
  1
MATERIAL
  2
AcDbMaterial
  3
ObjectDBX Classes
 90
     1153
280
     0
281
     0
  0
CLASS
  1
SCALE
  2
AcDbScale
  3
ObjectDBX Classes
 90
     1153
280
     0
281
     0
  0
CLASS
  1
TABLESTYLE
  2
AcDbTableStyle
  3
ObjectDBX Classes
 90
     4095
280
     0
281
     0
  0
CLASS
  1
MLEADERSTYLE
  2
AcDbMLeaderStyle
  3
ACDB_MLEADERSTYLE_CLASS
 90
     4095
280
     0
281
     0
  0
CLASS
  1
SUN
  2
AcDbSun
  3
SCENEOE
 90
     1153
280
     0
281
     0
  0
CLASS
  1
ACDBPLACEHOLDER
  2
AcDbPlaceHolder
  3
ObjectDBX Classes
 90
        0
280
     0
281
     0
  0
CLASS
  1
LAYOUT
  2
AcDbLayout
  3
ObjectDBX Classes
 90
        0
280
     0
281
     0
  0
ENDSEC
  0
SECTION
  2
TABLES
  0
TABLE
  2
VPORT
  5
8
330
0
100
AcDbSymbolTable
 70
     1
  0
VPORT
  5
29
330
8
100
AcDbSymbolTableRecord
100
AcDbViewportTableRecord
  2
*Active
 70
     0
 10
0.0
 20
0.0
 11
1.0
 21
1.0
 12
148.5
 22
105.0
 13
0.0
 23
0.0
 14
10.0
 24
10.0
 15
10.0
 25
10.0
 16
0.0
 26
0.0
 36
1.0
 17
0.0
 27
0.0
 37
0.0
 40
210.0
 41
1.4142857143
 42
50.0
 43
0.0
 44
0.0
 50
0.0
 51
0.0
 71
     0
 72
  2000
 73
     1
 74
     3
 75
     0
 76
     0
 77
     0
 78
     0
281
     0
 65
     1
110
0.0
120
0.0
130
0.0
111
1.0
121
0.0
131
0.0
112
0.0
122
1.0
132
0.0
 79
     0
146
0.0
  0
ENDTAB
  0
TABLE
  2
LTYPE
  5
5
330
0
100
AcDbSymbolTable
 70
     6
  0
LTYPE
  5
14
330
5
100
AcDbSymbolTableRecord
100
AcDbLinetypeTableRecord
  2
ByBlock
 70
     0
  3

 72
    65
 73
     0
 40
0.0
  0
LTYPE
  5
15
330
5
100
AcDbSymbolTableRecord
100
AcDbLinetypeTableRecord
  2
ByLayer
 70
     0
  3

 72
    65
 73
     0
 40
0.0
  0
LTYPE
  5
16
330
5
100
AcDbSymbolTableRecord
100
AcDbLinetypeTableRecord
  2
Continuous
 70
     0
  3
Solid line
 72
    65
 73
     0
 40
0.0
  0
LTYPE
  5
6E
330
5
100
AcDbSymbolTableRecord
100
AcDbLinetypeTableRecord
  2
HIDDEN
 70
     0
  3
Hidden __ __ __ __ __ __ __ __ __ __ __ __ __ __
 72
    65
 73
     2
 40
1.905
 49
1.27
 74
     0
 49
-0.635
 74
     0
  0
LTYPE
  5
6F
330
5
100
AcDbSymbolTableRecord
100
AcDbLinetypeTableRecord
  2
PHANTOM
 70
     0
  3
Phantom ______  __  __  ______  __  __  ______
 72
    65
 73
     6
 40
12.7
 49
6.35
 74
     0
 49
-1.27
 74
     0
 49
1.27
 74
     0
 49
-1.27
 74
     0
 49
1.27
 74
     0
 49
-1.27
 74
     0
  0
LTYPE
  5
70
330
5
100
AcDbSymbolTableRecord
100
AcDbLinetypeTableRecord
  2
CENTER
 70
     0
  3
Center ____ _ ____ _ ____ _ ____ _ ____ _ ____
 72
    65
 73
     4
 40
10.16
 49
6.35
 74
     0
 49
-1.27
 74
     0
 49
1.27
 74
     0
 49
-1.27
 74
     0
  0
LTYPE
  5
71
330
5
100
AcDbSymbolTableRecord
100
AcDbLinetypeTableRecord
  2
CENTERX2
 70
     0
  3
Center (2x) ________  __  ________  __  _____
 72
    65
 73
     4
 40
20.32
 49
12.7
 74
     0
 49
-2.54
 74
     0
 49
2.54
 74
     0
 49
-2.54
 74
     0
  0
LTYPE
  5
72
330
5
100
AcDbSymbolTableRecord
100
AcDbLinetypeTableRecord
  2
DOT2
 70
     0
  3
Dot (.5x) ........................................
 72
    65
 73
     2
 40
0.635
 49
0.0
 74
     0
 49
-0.635
 74
     0
  0
ENDTAB
  0
TABLE
  2
LAYER
  5
2
330
0
100
AcDbSymbolTable
 70
     3
  0
LAYER
  5
10
330
2
100
AcDbSymbolTableRecord
100
AcDbLayerTableRecord
  2
0
 70
     0
 62
     7
  6
Continuous
370
    -3
390
F
  0
LAYER
  5
73
330
2
100
AcDbSymbolTableRecord
100
AcDbLayerTableRecord
  2
SLD-0
 70
     0
 62
   179
  6
Continuous
370
    15
390
F
  0
LAYER
  5
74
330
2
100
AcDbSymbolTableRecord
100
AcDbLayerTableRecord
  2
DIM
 70
     0
 62
     7
  6
Continuous
370
    -3
390
F
  0
ENDTAB
  0
TABLE
  2
STYLE
  5
3
330
0
100
AcDbSymbolTable
 70
     3
  0
STYLE
  5
11
330
3
100
AcDbSymbolTableRecord
100
AcDbTextStyleTableRecord
  2
Standard
 70
     0
 40
0.0
 41
1.0
 50
0.0
 71
     0
 42
2.5
  3
txt
  4

  0
STYLE
  5
C5
330
3
100
AcDbSymbolTableRecord
100
AcDbTextStyleTableRecord
  2
SLDTEXTSTYLE0
 70
     0
 40
0.0
 41
0.605
 50
0.0
 71
     0
 42
2.5
  3
TXT
  4

  0
STYLE
  5
CE
330
3
100
AcDbSymbolTableRecord
100
AcDbTextStyleTableRecord
  2
SLDTEXTSTYLE1
 70
     0
 40
0.0
 41
0.7
 50
0.0
 71
     0
 42
2.5
  3
TXT
  4

  0
ENDTAB
  0
TABLE
  2
VIEW
  5
6
330
0
100
AcDbSymbolTable
 70
     0
  0
ENDTAB
  0
TABLE
  2
UCS
  5
7
330
0
100
AcDbSymbolTable
 70
     0
  0
ENDTAB
  0
TABLE
  2
APPID
  5
9
330
0
100
AcDbSymbolTable
 70
     1
  0
APPID
  5
12
330
9
100
AcDbSymbolTableRecord
100
AcDbRegAppTableRecord
  2
ACAD
 70
     0
  0
ENDTAB
  0
TABLE
  2
DIMSTYLE
  5
A
330
0
100
AcDbSymbolTable
 70
     5
100
AcDbDimStyleTable
  0
DIMSTYLE
105
27
330
A
100
AcDbSymbolTableRecord
100
AcDbDimStyleTableRecord
  2
ISO-25
 70
     0
 41
2.5
 42
0.625
 43
3.75
 44
1.25
 73
     0
 74
     0
 77
     1
 78
     8
140
2.5
141
2.5
143
0.0393700787
147
0.625
171
     3
172
     1
178
     0
271
     2
272
     2
274
     3
278
    44
283
     0
284
     8
340
11
  0
DIMSTYLE
105
14A
102
{ACAD_REACTORS
330
149
102
}
330
A
100
AcDbSymbolTableRecord
100
AcDbDimStyleTableRecord
  2
SLDDIMSTYLE0
 70
     0
 41
2.0
 44
0.0
 45
0.000000001
 78
    12
 79
     3
140
2.5
141
0.0
147
0.625
173
     1
178
     0
271
     2
272
     2
276
     2
284
    12
340
C5
  0
DIMSTYLE
105
155
102
{ACAD_REACTORS
330
154
330
15F
330
169
330
19D
102
}
330
A
100
AcDbSymbolTableRecord
100
AcDbDimStyleTableRecord
  2
SLDDIMSTYLE1
 70
     0
 41
2.0
 44
0.0
 45
0.000000001
 73
     0
 74
     0
 77
     1
 78
    12
 79
     3
140
2.5
147
0.625
173
     1
178
     0
271
     2
272
     2
276
     2
284
    12
340
C5
  0
DIMSTYLE
105
1A8
102
{ACAD_REACTORS
330
1A7
102
}
330
A
100
AcDbSymbolTableRecord
100
AcDbDimStyleTableRecord
  2
SLDDIMSTYLE2
 70
     0
 41
2.0
 44
0.0
 45
0.000000001
 73
     0
 74
     0
 77
     1
 78
    12
 79
     3
140
2.5
147
0.625
172
     1
173
     1
178
     0
271
     2
272
     2
276
     2
284
    12
289
     0
340
C5
  0
DIMSTYLE
105
1C0
330
A
100
AcDbSymbolTableRecord
100
AcDbDimStyleTableRecord
  2
SLDDIMSTYLE3
 70
     0
 41
2.0
 44
0.0
 45
0.000000001
146
2.0
147
0.0
173
     1
178
     0
271
     0
272
     0
276
     2
340
11
  0
ENDTAB
  0
TABLE
  2
BLOCK_RECORD
  5
1
330
0
100
AcDbSymbolTable
 70
    11
  0
BLOCK_RECORD
  5
1F
330
1
100
AcDbSymbolTableRecord
100
AcDbBlockTableRecord
  2
*Model_Space
340
22
  0
BLOCK_RECORD
  5
1B
330
1
100
AcDbSymbolTableRecord
100
AcDbBlockTableRecord
  2
*Paper_Space
340
1E
  0
BLOCK_RECORD
  5
23
330
1
100
AcDbSymbolTableRecord
100
AcDbBlockTableRecord
  2
*Paper_Space0
340
26
  0
BLOCK_RECORD
  5
C7
330
1
100
AcDbSymbolTableRecord
100
AcDbBlockTableRecord
  2
SW_NOTE_0
340
0
102
{BLKREFS
331
CD
102
}
  0
BLOCK_RECORD
  5
FE
330
1
100
AcDbSymbolTableRecord
100
AcDbBlockTableRecord
  2
SW_NOTE_1
340
0
102
{BLKREFS
331
103
102
}
  0
BLOCK_RECORD
  5
14B
330
1
100
AcDbSymbolTableRecord
100
AcDbBlockTableRecord
  2
_D
340
0
  0
BLOCK_RECORD
  5
156
330
1
100
AcDbSymbolTableRecord
100
AcDbBlockTableRecord
  2
_D_1
340
0
  0
BLOCK_RECORD
  5
160
330
1
100
AcDbSymbolTableRecord
100
AcDbBlockTableRecord
  2
_D_2
340
0
  0
BLOCK_RECORD
  5
16A
330
1
100
AcDbSymbolTableRecord
100
AcDbBlockTableRecord
  2
_D_3
340
0
  0
BLOCK_RECORD
  5
173
330
1
100
AcDbSymbolTableRecord
100
AcDbBlockTableRecord
  2
SW_CENTERMARKSYMBOL_0
340
0
102
{BLKREFS
331
17E
102
}
  0
BLOCK_RECORD
  5
19E
330
1
100
AcDbSymbolTableRecord
100
AcDbBlockTableRecord
  2
_D_4
340
0
  0
BLOCK_RECORD
  5
1A9
330
1
100
AcDbSymbolTableRecord
100
AcDbBlockTableRecord
  2
_D_5
340
0
  0
BLOCK_RECORD
  5
1B4
330
1
100
AcDbSymbolTableRecord
100
AcDbBlockTableRecord
  2
SW_NOTE_2
340
0
102
{BLKREFS
331
1BF
102
}
  0
ENDTAB
  0
ENDSEC
  0
SECTION
  2
BLOCKS
  0
BLOCK
  5
20
330
1F
100
AcDbEntity
  8
0
100
AcDbBlockBegin
  2
*Model_Space
 70
     0
 10
0.0
 20
0.0
 30
0.0
  3
*Model_Space
  1

  0
ENDBLK
  5
21
330
1F
100
AcDbEntity
  8
0
100
AcDbBlockEnd
  0
BLOCK
  5
1C
330
1B
100
AcDbEntity
 67
     1
  8
0
100
AcDbBlockBegin
  2
*Paper_Space
 70
     0
 10
0.0
 20
0.0
 30
0.0
  3
*Paper_Space
  1

  0
ENDBLK
  5
1D
330
1B
100
AcDbEntity
 67
     1
  8
0
100
AcDbBlockEnd
  0
BLOCK
  5
24
330
23
100
AcDbEntity
  8
0
100
AcDbBlockBegin
  2
*Paper_Space0
 70
     0
 10
0.0
 20
0.0
 30
0.0
  3
*Paper_Space0
  1

  0
ENDBLK
  5
25
330
23
100
AcDbEntity
  8
0
100
AcDbBlockEnd
  0
BLOCK
  5
C8
330
C7
100
AcDbEntity
  8
0
100
AcDbBlockBegin
  2
SW_NOTE_0
 70
     0
 10
0.0
 20
0.0
 30
0.0
  3
SW_NOTE_0
  1

  0
MTEXT
  5
CA
330
C7
100
AcDbEntity
  8
0
  6
Continuous
 62
     0
370
     0
100
AcDbMText
 10
0.0
 20
3.4106583948
 30
0.0
 40
2.6458333333
 41
0.0
 71
     1
 72
     1
  1
PROPRIETARY AND CONFIDENTIAL
  7
SLDTEXTSTYLE0
 73
     1
 44
1.0
  0
MTEXT
  5
CB
330
C7
100
AcDbEntity
  8
0
  6
Continuous
 62
     0
370
     0
100
AcDbMText
 10
0.0
 20
-0.08198348
 30
0.0
 40
1.8520833333
 41
0.0
 71
     1
 72
     1
  1
THE INFORMATION CONTAINED IN THIS DRAWING IS THE SOLE PROPERTY OF UNICE E-O SERVICES INC. ANY REPRODUCTION IN PART OR AS A WHOLE WITHOUT THE WRITTEN PERMISSION OF UNICE E-O SERVICES INC IS
  7
SLDTEXTSTYLE0
 73
     1
 44
1.0
  0
MTEXT
  5
CC
330
C7
100
AcDbEntity
  8
0
  6
Continuous
 62
     0
370
     0
100
AcDbMText
 10
0.0
 20
-2.5514278946
 30
0.0
 40
1.8520833333
 41
0.0
 71
     1
 72
     1
  1
PROHIBITED.
  7
SLDTEXTSTYLE0
 73
     1
 44
1.0
  0
ENDBLK
  5
C9
330
C7
100
AcDbEntity
  8
0
100
AcDbBlockEnd
  0
BLOCK
  5
FF
330
FE
100
AcDbEntity
  8
0
100
AcDbBlockBegin
  2
SW_NOTE_1
 70
     0
 10
0.0
 20
0.0
 30
0.0
  3
SW_NOTE_1
  1

  0
MTEXT
  5
101
330
FE
100
AcDbEntity
  8
SLD-0
 62
     0
100
AcDbMText
 10
0.0
 20
2.3874608764
 30
0.0
 40
1.8520833333
 41
0.0
 71
     1
 72
     1
  1
No.5, Andong Rd., Chung Li District,
  7
SLDTEXTSTYLE1
 73
     1
 44
1.0
  0
MTEXT
  5
102
330
FE
100
AcDbEntity
  8
SLD-0
 62
     0
100
AcDbMText
 10
0.0
 20
-0.0819835382
 30
0.0
 40
1.8520833333
 41
0.0
 71
     1
 72
     1
  1
Taoyuan City 32063, Taiwan, R.O.C.
  7
SLDTEXTSTYLE1
 73
     1
 44
1.0
  0
ENDBLK
  5
100
330
FE
100
AcDbEntity
  8
0
100
AcDbBlockEnd
  0
BLOCK
  5
14C
330
14B
100
AcDbEntity
  8
0
100
AcDbBlockBegin
  2
_D
 70
     0
 10
0.0
 20
0.0
 30
0.0
  3
_D
  1

  0
SOLID
  5
14E
330
14B
100
AcDbEntity
  8
SLD-0
 62
     7
100
AcDbTrace
 10
62.0382321439
 20
126.5411800824
 30
0.0
 11
61.0046332827
 21
128.2715480763
 31
0.0
 12
60.6104995876
 22
127.9638816491
 32
0.0
 13
60.6104995876
 23
127.9638816491
 33
0.0
  0
LINE
  5
14F
330
14B
100
AcDbEntity
  8
SLD-0
 62
     7
100
AcDbLine
 10
62.0382321439
 20
126.5411800824
 30
0.0
 11
52.0810714374
 21
139.296723733
 31
0.0
  0
LINE
  5
150
330
14B
100
AcDbEntity
  8
SLD-0
 62
     7
100
AcDbLine
 10
52.0810714374
 20
139.296723733
 30
0.0
 11
30.3180491189
 21
139.296723733
 31
0.0
  0
MTEXT
  5
151
330
14B
100
AcDbEntity
  8
SLD-0
 62
     7
100
AcDbMText
 10
30.3180491189
 20
146.3631432468
 30
0.0
 40
2.5
 41
0.0
 71
     1
 72
     1
  1
ACCEPTS
  7
SLDTEXTSTYLE0
 73
     1
 44
1.0
  0
MTEXT
  5
152
330
14B
100
AcDbEntity
  8
SLD-0
 62
     7
100
AcDbMText
 10
30.3180491189
 20
142.5193933152
 30
0.0
 40
2.5
 41
0.0
 71
     1
 72
     1
  1
%%c
  7
SLDTEXTSTYLE0
 73
     1
 44
1.0
  0
MTEXT
  5
153
330
14B
100
AcDbEntity
  8
SLD-0
 62
     7
100
AcDbMText
 10
33.9630144751
 20
142.5263377802
 30
0.0
 40
2.5
 41
0.0
 71
     1
 72
     1
  1
2" OPTICS
  7
SLDTEXTSTYLE0
 73
     1
 44
1.0
  0
ENDBLK
  5
14D
330
14B
100
AcDbEntity
  8
0
100
AcDbBlockEnd
  0
BLOCK
  5
157
330
156
100
AcDbEntity
  8
0
100
AcDbBlockBegin
  2
_D_1
 70
     0
 10
0.0
 20
0.0
 30
0.0
  3
_D_1
  1

  0
SOLID
  5
159
330
156
100
AcDbEntity
  8
SLD-0
 62
     7
100
AcDbTrace
 10
109.1676866444
 20
57.2094479653
 30
0.0
 11
107.1676866444
 21
57.4594479653
 31
0.0
 12
107.1676866444
 22
56.9594479653
 32
0.0
 13
107.1676866444
 23
56.9594479653
 33
0.0
  0
SOLID
  5
15A
330
156
100
AcDbEntity
  8
SLD-0
 62
     7
100
AcDbTrace
 10
46.1676866444
 20
57.2094479653
 30
0.0
 11
48.1676866444
 21
56.9594479653
 31
0.0
 12
48.1676866444
 22
57.4594479653
 32
0.0
 13
48.1676866444
 23
57.4594479653
 33
0.0
  0
LINE
  5
15B
330
156
100
AcDbEntity
  8
SLD-0
 62
     7
100
AcDbLine
 10
109.1676866444
 20
105.5191883729
 30
0.0
 11
109.1676866444
 21
56.2094479653
 31
0.0
  0
LINE
  5
15C
330
156
100
AcDbEntity
  8
SLD-0
 62
     7
100
AcDbLine
 10
46.1676866444
 20
105.5191883729
 30
0.0
 11
46.1676866444
 21
56.2094479653
 31
0.0
  0
LINE
  5
15D
330
156
100
AcDbEntity
  8
SLD-0
 62
     7
100
AcDbLine
 10
109.1676866444
 20
57.2094479653
 30
0.0
 11
46.1676866444
 21
57.2094479653
 31
0.0
  0
MTEXT
  5
15E
330
156
100
AcDbEntity
  8
SLD-0
 62
     7
100
AcDbMText
 10
75.7579644196
 20
60.4321171402
 30
0.0
 40
2.5
 41
0.0
 71
     1
 72
     1
  1
63
  7
SLDTEXTSTYLE0
 73
     1
 44
1.0
  0
ENDBLK
  5
158
330
156
100
AcDbEntity
  8
0
100
AcDbBlockEnd
  0
BLOCK
  5
161
330
160
100
AcDbEntity
  8
0
100
AcDbBlockBegin
  2
_D_2
 70
     0
 10
0.0
 20
0.0
 30
0.0
  3
_D_2
  1

  0
SOLID
  5
163
330
160
100
AcDbEntity
  8
SLD-0
100
AcDbTrace
 10
118.3226841993
 20
70.0191883729
 30
0.0
 11
118.5726841993
 21
72.0191883729
 31
0.0
 12
118.0726841993
 22
72.0191883729
 32
0.0
 13
118.0726841993
 23
72.0191883729
 33
0.0
  0
SOLID
  5
164
330
160
100
AcDbEntity
  8
SLD-0
100
AcDbTrace
 10
118.3226841993
 20
106.5191883729
 30
0.0
 11
118.0726841993
 21
104.5191883729
 31
0.0
 12
118.5726841993
 22
104.5191883729
 32
0.0
 13
118.5726841993
 23
104.5191883729
 33
0.0
  0
LINE
  5
165
330
160
100
AcDbEntity
  8
SLD-0
100
AcDbLine
 10
86.9040878395
 20
70.0191883729
 30
0.0
 11
119.3226841993
 21
70.0191883729
 31
0.0
  0
LINE
  5
166
330
160
100
AcDbEntity
  8
SLD-0
100
AcDbLine
 10
106.5676866444
 20
106.5191883729
 30
0.0
 11
119.3226841993
 21
106.5191883729
 31
0.0
  0
LINE
  5
167
330
160
100
AcDbEntity
  8
SLD-0
100
AcDbLine
 10
118.3226841993
 20
70.0191883729
 30
0.0
 11
118.3226841993
 21
106.5191883729
 31
0.0
  0
MTEXT
  5
168
330
160
100
AcDbEntity
  8
SLD-0
100
AcDbMText
 10
115.1000150245
 20
84.9271745668
 30
0.0
 40
2.5
 41
0.0
 71
     1
 72
     1
  1
36.5
  7
SLDTEXTSTYLE0
 11
6.123233995736766E-17
 21
1.0
 31
0.0
 73
     1
 44
1.0
  0
ENDBLK
  5
162
330
160
100
AcDbEntity
  8
0
100
AcDbBlockEnd
  0
BLOCK
  5
16B
330
16A
100
AcDbEntity
  8
0
100
AcDbBlockBegin
  2
_D_3
 70
     0
 10
0.0
 20
0.0
 30
0.0
  3
_D_3
  1

  0
SOLID
  5
16D
330
16A
100
AcDbEntity
  8
SLD-0
100
AcDbTrace
 10
127.012916298
 20
137.0191883729
 30
0.0
 11
126.762916298
 21
135.0191883729
 31
0.0
 12
127.262916298
 22
135.0191883729
 32
0.0
 13
127.262916298
 23
135.0191883729
 33
0.0
  0
SOLID
  5
16E
330
16A
100
AcDbEntity
  8
SLD-0
100
AcDbTrace
 10
127.012916298
 20
70.0191883729
 30
0.0
 11
127.262916298
 21
72.0191883729
 31
0.0
 12
126.762916298
 22
72.0191883729
 32
0.0
 13
126.762916298
 23
72.0191883729
 33
0.0
  0
LINE
  5
16F
330
16A
100
AcDbEntity
  8
SLD-0
100
AcDbLine
 10
86.5416945184
 20
137.0191883729
 30
0.0
 11
128.012916298
 21
137.0191883729
 31
0.0
  0
LINE
  5
170
330
16A
100
AcDbEntity
  8
SLD-0
100
AcDbLine
 10
86.9040878395
 20
70.0191883729
 30
0.0
 11
128.012916298
 21
70.0191883729
 31
0.0
  0
LINE
  5
171
330
16A
100
AcDbEntity
  8
SLD-0
100
AcDbLine
 10
127.012916298
 20
137.0191883729
 30
0.0
 11
127.012916298
 21
70.0191883729
 31
0.0
  0
MTEXT
  5
172
330
16A
100
AcDbEntity
  8
SLD-0
100
AcDbMText
 10
123.7902471232
 20
101.6094661481
 30
0.0
 40
2.5
 41
0.0
 71
     1
 72
     1
  1
67
  7
SLDTEXTSTYLE0
 11
-7.044195017643634E-15
 21
1.0
 31
0.0
 73
     1
 44
1.0
  0
ENDBLK
  5
16C
330
16A
100
AcDbEntity
  8
0
100
AcDbBlockEnd
  0
BLOCK
  5
174
330
173
100
AcDbEntity
  8
0
100
AcDbBlockBegin
  2
SW_CENTERMARKSYMBOL_0
 70
     0
 10
0.0
 20
0.0
 30
0.0
  3
SW_CENTERMARKSYMBOL_0
  1

  0
LINE
  5
176
330
173
100
AcDbEntity
  8
SLD-0
 62
     0
100
AcDbLine
 10
0.0
 20
0.0
 30
0.0
 11
0.0
 21
1.0
 31
0.0
  0
LINE
  5
177
330
173
100
AcDbEntity
  8
SLD-0
 62
     0
100
AcDbLine
 10
0.0
 20
0.0
 30
0.0
 11
-1.0
 21
0.0
 31
0.0
  0
LINE
  5
178
330
173
100
AcDbEntity
  8
SLD-0
 62
     0
100
AcDbLine
 10
0.0
 20
0.0
 30
0.0
 11
0.0
 21
-1.0
 31
0.0
  0
LINE
  5
179
330
173
100
AcDbEntity
  8
SLD-0
 62
     0
100
AcDbLine
 10
0.0
 20
0.0
 30
0.0
 11
1.0
 21
0.0
 31
0.0
  0
LINE
  5
17A
330
173
100
AcDbEntity
  8
SLD-0
 62
     0
100
AcDbLine
 10
0.0
 20
2.0
 30
0.0
 11
0.0
 21
27.9
 31
0.0
  0
LINE
  5
17B
330
173
100
AcDbEntity
  8
SLD-0
 62
     0
100
AcDbLine
 10
-2.0
 20
0.0
 30
0.0
 11
-27.9
 21
0.0
 31
0.0
  0
LINE
  5
17C
330
173
100
AcDbEntity
  8
SLD-0
 62
     0
100
AcDbLine
 10
0.0
 20
-2.0
 30
0.0
 11
0.0
 21
-39.21486247
 31
0.0
  0
LINE
  5
17D
330
173
100
AcDbEntity
  8
SLD-0
 62
     0
100
AcDbLine
 10
2.0
 20
0.0
 30
0.0
 11
27.9
 21
0.0
 31
0.0
  0
ENDBLK
  5
175
330
173
100
AcDbEntity
  8
0
100
AcDbBlockEnd
  0
BLOCK
  5
19F
330
19E
100
AcDbEntity
  8
0
100
AcDbBlockBegin
  2
_D_4
 70
     0
 10
0.0
 20
0.0
 30
0.0
  3
_D_4
  1

  0
SOLID
  5
1A1
330
19E
100
AcDbEntity
  8
SLD-0
 62
     7
100
AcDbTrace
 10
152.8100554235
 20
56.6363014116
 30
0.0
 11
154.8100554235
 21
56.3863014116
 31
0.0
 12
154.8100554235
 22
56.8863014116
 32
0.0
 13
154.8100554235
 23
56.8863014116
 33
0.0
  0
SOLID
  5
1A2
330
19E
100
AcDbEntity
  8
SLD-0
 62
     7
100
AcDbTrace
 10
161.8100554235
 20
56.6363014116
 30
0.0
 11
159.8100554235
 21
56.8863014116
 31
0.0
 12
159.8100554235
 22
56.3863014116
 32
0.0
 13
159.8100554235
 23
56.3863014116
 33
0.0
  0
LINE
  5
1A3
330
19E
100
AcDbEntity
  8
SLD-0
 62
     7
100
AcDbLine
 10
152.8100554235
 20
69.5191883729
 30
0.0
 11
152.8100554235
 21
55.6363014116
 31
0.0
  0
LINE
  5
1A4
330
19E
100
AcDbEntity
  8
SLD-0
 62
     7
100
AcDbLine
 10
161.8100554235
 20
69.5191883729
 30
0.0
 11
161.8100554235
 21
55.6363014116
 31
0.0
  0
LINE
  5
1A5
330
19E
100
AcDbEntity
  8
SLD-0
 62
     7
100
AcDbLine
 10
152.8100554235
 20
56.6363014116
 30
0.0
 11
161.8100554235
 21
56.6363014116
 31
0.0
  0
MTEXT
  5
1A6
330
19E
100
AcDbEntity
  8
SLD-0
 62
     7
100
AcDbMText
 10
156.3551943111
 20
59.8589705864
 30
0.0
 40
2.5
 41
0.0
 71
     1
 72
     1
  1
9
  7
SLDTEXTSTYLE0
 73
     1
 44
1.0
  0
ENDBLK
  5
1A0
330
19E
100
AcDbEntity
  8
0
100
AcDbBlockEnd
  0
BLOCK
  5
1AA
330
1A9
100
AcDbEntity
  8
0
100
AcDbBlockBegin
  2
_D_5
 70
     0
 10
0.0
 20
0.0
 30
0.0
  3
_D_5
  1

  0
SOLID
  5
1AC
330
1A9
100
AcDbEntity
  8
SLD-0
 62
     7
100
AcDbTrace
 10
152.8100554235
 20
63.0191883729
 30
0.0
 11
150.8100554235
 21
63.2691883729
 31
0.0
 12
150.8100554235
 22
62.7691883729
 32
0.0
 13
150.8100554235
 23
62.7691883729
 33
0.0
  0
SOLID
  5
1AD
330
1A9
100
AcDbEntity
  8
SLD-0
 62
     7
100
AcDbTrace
 10
157.3100554235
 20
63.0191883729
 30
0.0
 11
159.3100554235
 21
62.7691883729
 31
0.0
 12
159.3100554235
 22
63.2691883729
 32
0.0
 13
159.3100554235
 23
63.2691883729
 33
0.0
  0
LINE
  5
1AE
330
1A9
100
AcDbEntity
  8
SLD-0
 62
     7
100
AcDbLine
 10
152.8100554235
 20
69.5191883729
 30
0.0
 11
152.8100554235
 21
62.0191883729
 31
0.0
  0
LINE
  5
1AF
330
1A9
100
AcDbEntity
  8
SLD-0
 62
     7
100
AcDbLine
 10
157.3100554235
 20
67.5191883729
 30
0.0
 11
157.3100554235
 21
62.0191883729
 31
0.0
  0
LINE
  5
1B0
330
1A9
100
AcDbEntity
  8
SLD-0
 62
     7
100
AcDbLine
 10
152.8100554235
 20
63.0191883729
 30
0.0
 11
146.357456657
 21
63.0191883729
 31
0.0
  0
LINE
  5
1B1
330
1A9
100
AcDbEntity
  8
SLD-0
 62
     7
100
AcDbLine
 10
152.8100554235
 20
63.0191883729
 30
0.0
 11
157.3100554235
 21
63.0191883729
 31
0.0
  0
LINE
  5
1B2
330
1A9
100
AcDbEntity
  8
SLD-0
 62
     7
100
AcDbLine
 10
157.3100554235
 20
63.0191883729
 30
0.0
 11
160.3100554235
 21
63.0191883729
 31
0.0
  0
MTEXT
  5
1B3
330
1A9
100
AcDbEntity
  8
SLD-0
 62
     7
100
AcDbMText
 10
146.357456657
 20
66.2418575477
 30
0.0
 40
2.5
 41
0.0
 71
     1
 72
     1
  1
4.5
  7
SLDTEXTSTYLE0
 73
     1
 44
1.0
  0
ENDBLK
  5
1AB
330
1A9
100
AcDbEntity
  8
0
100
AcDbBlockEnd
  0
BLOCK
  5
1B5
330
1B4
100
AcDbEntity
  8
0
100
AcDbBlockBegin
  2
SW_NOTE_2
 70
     0
 10
0.0
 20
0.0
 30
0.0
  3
SW_NOTE_2
  1

  0
LINE
  5
1B7
330
1B4
100
AcDbEntity
  8
SLD-0
 62
     0
100
AcDbLine
 10
0.0
 20
0.0
 30
0.0
 11
13.2211538462
 21
0.0
 31
0.0
  0
LINE
  5
1B8
330
1B4
100
AcDbEntity
  8
SLD-0
 62
     0
100
AcDbLine
 10
13.2211538462
 20
0.0
 30
0.0
 11
0.0
 21
0.0
 31
0.0
  0
LINE
  5
1B9
330
1B4
100
AcDbEntity
  8
SLD-0
 62
     0
100
AcDbLine
 10
0.0
 20
0.0
 30
0.0
 11
13.2211538462
 21
0.0
 31
0.0
  0
LINE
  5
1BA
330
1B4
100
AcDbEntity
  8
SLD-0
 62
     0
100
AcDbLine
 10
13.2211538462
 20
0.0
 30
0.0
 11
0.0
 21
0.0
 31
0.0
  0
LINE
  5
1BB
330
1B4
100
AcDbEntity
  8
SLD-0
 62
     0
100
AcDbLine
 10
0.0
 20
0.0
 30
0.0
 11
13.2211538462
 21
0.0
 31
0.0
  0
LINE
  5
1BC
330
1B4
100
AcDbEntity
  8
SLD-0
 62
     0
100
AcDbLine
 10
13.2211538462
 20
0.0
 30
0.0
 11
0.0
 21
0.0
 31
0.0
  0
MTEXT
  5
1BD
330
1B4
100
AcDbEntity
  8
SLD-0
 62
     0
100
AcDbMText
 10
0.0926219904
 20
6.6201885818
 30
0.0
 40
2.5
 41
0.0
 71
     1
 72
     1
  1
1 HOLE,
  7
SLDTEXTSTYLE0
 73
     1
 44
1.0
  0
MTEXT
  5
1BE
330
1B4
100
AcDbEntity
  8
SLD-0
 62
     0
100
AcDbMText
 10
1.0301219904
 20
3.1201884738
 30
0.0
 40
2.5
 41
0.0
 71
     1
 72
     1
  1
M6
  7
SLDTEXTSTYLE0
 73
     1
 44
1.0
  0
ENDBLK
  5
1B6
330
1B4
100
AcDbEntity
  8
0
100
AcDbBlockEnd
  0
ENDSEC
  0
SECTION
  2
ENTITIES
  0
HATCH
  5
75
330
1F
100
AcDbEntity
  8
DIM
 62
     7
100
AcDbHatch
 10
0.0
 20
0.0
 30
0.0
210
0.0
220
0.0
230
1.0
  2
SOLID
 70
     1
 71
     0
 91
        1
 92
        0
 93
       10
 72
     2
 10
192.0465231337125
 20
35.66925760464289
 40
3.045751395731247
 50
249.2112209143416
 51
308.9221353953371
 73
     1
 72
     1
 10
193.9600580949471
 20
33.29966153848901
 11
194.9248777561642
 21
32.45237475484667
 72
     1
 10
194.9248777561642
 20
32.45237475484667
 11
191.7147377830084
 21
29.33533504208425
 72
     1
 10
191.7147377830084
 20
29.33533504208425
 11
190.7739373275144
 21
30.14533211219425
 72
     1
 10
190.7739373275144
 20
30.14533211219425
 11
191.4049892479296
 21
30.76123250266528
 72
     1
 10
191.4049892479296
 20
30.76123250266528
 11
187.395786937734
 21
34.24583634293997
 72
     2
 10
188.4107283672747
 20
35.39339671870048
 40
1.531992467805808
 50
131.4906380929588
 51
229.7089352075133
 73
     0
 72
     1
 10
187.4200335197592
 20
36.56195336710052
 11
188.7266617746408
 21
37.82354044360804
 72
     1
 10
188.7266617746408
 20
37.82354044360804
 11
189.7418556220433
 21
36.92800854279025
 72
     2
 10
191.715125925416
 20
35.28061585539547
 40
2.570544369711283
 50
140.1430462780656
 51
253.045252507401
 73
     1
 97
        0
 75
     0
 76
     1
 98
        1
 10
0.0
 20
0.0
  0
HATCH
  5
76
330
1F
100
AcDbEntity
  8
DIM
 62
     1
100
AcDbHatch
 10
0.0
 20
0.0
 30
0.0
210
0.0
220
0.0
230
1.0
  2
SOLID
 70
     1
 71
     0
 91
        1
 92
        0
 93
       10
 72
     2
 10
192.1796885726764
 20
34.91505796594084
 40
3.18163670452787
 50
234.1674444878508
 51
314.4407074583994
 73
     0
 72
     2
 10
192.4973448634009
 20
35.45587977141902
 40
2.57756748834625
 50
317.8184992995785
 51
398.0564711573082
 73
     0
 72
     1
 10
194.5269307064484
 20
33.86696962207737
 11
195.5123795994312
 21
33.00827268218788
 72
     1
 10
195.5123795994312
 20
33.00827268218788
 11
196.7540609142249
 21
34.21270562459511
 72
     2
 10
195.8606685885628
 20
35.44065235641604
 40
1.518552937418266
 50
306.0377529468137
 51
403.4396461533865
 73
     1
 72
     1
 10
196.9632884532351
 20
36.48479432845416
 11
192.8365325948918
 21
40.07397059708813
 72
     1
 10
192.8365325948918
 20
40.07397059708813
 11
193.4607838968191
 21
40.68302902792545
 72
     1
 10
193.4607838968191
 20
40.68302902792545
 11
192.530277386635
 21
41.51322124776999
 72
     1
 10
192.530277386635
 20
41.51322124776999
 11
189.2946919382252
 21
38.38630100115588
 72
     1
 10
189.2946919382252
 20
38.38630100115588
 11
190.3170998155737
 21
37.49451047403507
 97
        0
 75
     0
 76
     1
 98
        1
 10
0.0
 20
0.0
  0
LINE
  5
77
330
1F
100
AcDbEntity
  8
0
  6
Continuous
 62
     7
370
     0
100
AcDbLine
 10
167.8593775185
 20
17.7745192513
 30
0.0
 11
168.8593775185
 21
17.7745192513
 31
0.0
  0
LINE
  5
78
330
1F
100
AcDbEntity
  8
0
  6
Continuous
 62
     7
370
     0
100
AcDbLine
 10
164.8593775185
 20
17.7745192513
 30
0.0
 11
167.3593775185
 21
17.7745192513
 31
0.0
  0
LINE
  5
79
330
1F
100
AcDbEntity
  8
0
  6
Continuous
 62
     7
370
     0
100
AcDbLine
 10
181.3593775185
 20
15.2745192513
 30
0.0
 11
181.3593775185
 21
20.2745192513
 31
0.0
  0
LINE
  5
7A
330
1F
100
AcDbEntity
  8
0
  6
Continuous
 62
     7
370
     0
100
AcDbLine
 10
174.3593775185
 20
16.2745192513
 30
0.0
 11
181.3593775185
 21
15.2745192513
 31
0.0
  0
LINE
  5
7B
330
1F
100
AcDbEntity
  8
0
  6
Continuous
 62
     7
370
     0
100
AcDbLine
 10
168.3593775185
 20
16.7745192513
 30
0.0
 11
168.3593775185
 21
14.2745192513
 31
0.0
  0
LINE
  5
7C
330
1F
100
AcDbEntity
  8
0
  6
Continuous
 62
     7
370
     0
100
AcDbLine
 10
181.3593775185
 20
20.2745192513
 30
0.0
 11
174.3593775185
 21
19.2745192513
 31
0.0
  0
LINE
  5
7D
330
1F
100
AcDbEntity
  8
0
  6
Continuous
 62
     7
370
     0
100
AcDbLine
 10
173.3593775185
 20
17.7745192513
 30
0.0
 11
182.3593775185
 21
17.7745192513
 31
0.0
  0
LINE
  5
7E
330
1F
100
AcDbEntity
  8
0
  6
Continuous
 62
     7
370
     0
100
AcDbLine
 10
168.3593775185
 20
18.2745192513
 30
0.0
 11
168.3593775185
 21
17.2745192513
 31
0.0
  0
LINE
  5
7F
330
1F
100
AcDbEntity
  8
0
  6
Continuous
 62
     7
370
     0
100
AcDbLine
 10
169.3593775185
 20
17.7745192513
 30
0.0
 11
171.8593775185
 21
17.7745192513
 31
0.0
  0
LINE
  5
80
330
1F
100
AcDbEntity
  8
0
  6
Continuous
 62
     7
370
     0
100
AcDbLine
 10
168.3593775185
 20
21.2745192513
 30
0.0
 11
168.3593775185
 21
18.7745192513
 31
0.0
  0
LINE
  5
81
330
1F
100
AcDbEntity
  8
0
  6
Continuous
 62
     7
370
     0
100
AcDbLine
 10
174.3593775185
 20
19.2745192513
 30
0.0
 11
174.3593775185
 21
16.2745192513
 31
0.0
  0
LINE
  5
82
330
1F
100
AcDbEntity
  8
0
370
     0
100
AcDbLine
 10
194.9248777562
 20
32.4523747548
 30
0.0
 11
191.714737783
 21
29.3353350421
 31
0.0
  0
LINE
  5
83
330
1F
100
AcDbEntity
  8
0
370
     0
100
AcDbLine
 10
191.714737783
 20
29.3353350421
 30
0.0
 11
190.7739373275
 21
30.1453321122
 31
0.0
  0
LINE
  5
84
330
1F
100
AcDbEntity
  8
0
370
     0
100
AcDbLine
 10
190.7739373275
 20
30.1453321122
 30
0.0
 11
191.4049892479
 21
30.7612325027
 31
0.0
  0
LINE
  5
85
330
1F
100
AcDbEntity
  8
0
370
     0
100
AcDbLine
 10
187.3957869377
 20
34.2458363429
 30
0.0
 11
191.4049892479
 21
30.7612325027
 31
0.0
  0
LINE
  5
86
330
1F
100
AcDbEntity
  8
0
370
     0
100
AcDbLine
 10
188.7266617746
 20
37.8235404436
 30
0.0
 11
187.4200335198
 21
36.5619533671
 31
0.0
  0
LINE
  5
87
330
1F
100
AcDbEntity
  8
0
370
     0
100
AcDbLine
 10
188.7266617746
 20
37.8235404436
 30
0.0
 11
189.741855622
 21
36.9280085428
 31
0.0
  0
LINE
  5
88
330
1F
100
AcDbEntity
  8
0
370
     0
100
AcDbLine
 10
193.9600580949
 20
33.2996615385
 30
0.0
 11
194.9248777562
 21
32.4523747548
 31
0.0
  0
LINE
  5
89
330
1F
100
AcDbEntity
  8
0
 62
     1
370
     0
100
AcDbLine
 10
190.3170998156
 20
37.494510474
 30
0.0
 11
189.2946919382
 21
38.3863010012
 31
0.0
  0
LINE
  5
8A
330
1F
100
AcDbEntity
  8
0
 62
     1
370
     0
100
AcDbLine
 10
189.2946919382
 20
38.3863010012
 30
0.0
 11
192.5302773866
 21
41.5132212478
 31
0.0
  0
LINE
  5
8B
330
1F
100
AcDbEntity
  8
0
 62
     1
370
     0
100
AcDbLine
 10
192.5302773866
 20
41.5132212478
 30
0.0
 11
193.4607838968
 21
40.6830290279
 31
0.0
  0
LINE
  5
8C
330
1F
100
AcDbEntity
  8
0
 62
     1
370
     0
100
AcDbLine
 10
193.4607838968
 20
40.6830290279
 30
0.0
 11
192.8365325949
 21
40.0739705971
 31
0.0
  0
LINE
  5
8D
330
1F
100
AcDbEntity
  8
0
 62
     1
370
     0
100
AcDbLine
 10
192.8365325949
 20
40.0739705971
 30
0.0
 11
196.9632884532
 21
36.4847943285
 31
0.0
  0
LINE
  5
8E
330
1F
100
AcDbEntity
  8
0
 62
     1
370
     0
100
AcDbLine
 10
194.5269307064
 20
33.8669696221
 30
0.0
 11
195.5123795994
 21
33.0082726822
 31
0.0
  0
LINE
  5
8F
330
1F
100
AcDbEntity
  8
0
 62
     1
370
     0
100
AcDbLine
 10
195.5123795994
 20
33.0082726822
 30
0.0
 11
196.7540609142
 21
34.2127056246
 31
0.0
  0
LINE
  5
90
330
1F
100
AcDbEntity
  8
0
  6
Continuous
 62
     7
370
     0
100
AcDbLine
 10
185.6907965209
 20
13.1152464079
 30
0.0
 11
285.6907965209
 21
13.1152464079
 31
0.0
  0
LINE
  5
91
330
1F
100
AcDbEntity
  8
0
  6
Continuous
 62
     7
370
     0
100
AcDbLine
 10
185.6907965209
 20
18.1152464079
 30
0.0
 11
235.6907965209
 21
18.1152464079
 31
0.0
  0
LINE
  5
92
330
1F
100
AcDbEntity
  8
0
  6
Continuous
 62
     7
370
     0
100
AcDbLine
 10
185.6907965209
 20
23.1152464079
 30
0.0
 11
235.6907965209
 21
23.1152464079
 31
0.0
  0
LINE
  5
93
330
1F
100
AcDbEntity
  8
0
  6
Continuous
 62
     7
370
     0
100
AcDbLine
 10
185.6907965209
 20
28.1152464079
 30
0.0
 11
285.6907965209
 21
28.1152464079
 31
0.0
  0
LINE
  5
94
330
1F
100
AcDbEntity
  8
0
  6
Continuous
 62
     7
370
     0
100
AcDbLine
 10
235.6907965209
 20
33.1152464079
 30
0.0
 11
285.6907965209
 21
33.1152464079
 31
0.0
  0
LINE
  5
95
330
1F
100
AcDbEntity
  8
0
  6
Continuous
 62
     7
370
    15
100
AcDbLine
 10
235.6907965209
 20
18.1152464079
 30
0.0
 11
285.6907965209
 21
18.1152464079
 31
0.0
  0
LINE
  5
96
330
1F
100
AcDbEntity
  8
0
  6
Continuous
 62
     7
370
     0
100
AcDbLine
 10
185.6907965209
 20
43.1152464079
 30
0.0
 11
285.6907965209
 21
43.1152464079
 31
0.0
  0
LINE
  5
97
330
1F
100
AcDbEntity
  8
0
  6
Continuous
 62
     7
370
     0
100
AcDbLine
 10
251.237217675
 20
8.1152464079
 30
0.0
 11
251.237217675
 21
18.1152464079
 31
0.0
  0
LINE
  5
98
330
1F
100
AcDbEntity
  8
0
  6
Continuous
 62
     7
370
     0
100
AcDbLine
 10
235.6907965209
 20
8.1152464079
 30
0.0
 11
235.6907965209
 21
43.1152464079
 31
0.0
  0
LINE
  5
99
330
1F
100
AcDbEntity
  8
0
  6
Continuous
 62
     7
370
     0
100
AcDbLine
 10
251.237217675
 20
28.1152464079
 30
0.0
 11
251.237217675
 21
33.1152464079
 31
0.0
  0
LINE
  5
9A
330
1F
100
AcDbEntity
  8
0
  6
Continuous
 62
     7
370
     0
100
AcDbLine
 10
214.4164086353
 20
8.1152464079
 30
0.0
 11
214.4164086353
 21
28.1152464079
 31
0.0
  0
LINE
  5
9B
330
1F
100
AcDbEntity
  8
0
  6
Continuous
 62
     7
370
     0
100
AcDbLine
 10
199.7785887506
 20
8.1152464079
 30
0.0
 11
199.7785887506
 21
28.1152464079
 31
0.0
  0
LINE
  5
9C
330
1F
100
AcDbEntity
  8
0
  6
Continuous
 62
     7
370
     0
100
AcDbLine
 10
185.6907965209
 20
8.1152464079
 30
0.0
 11
185.6907965209
 21
43.1152464079
 31
0.0
  0
LINE
  5
9D
330
1F
100
AcDbEntity
  8
0
  6
Continuous
 62
     7
370
    15
100
AcDbLine
 10
8.6907965209
 20
104.7436369915
 30
0.0
 11
14.6907965209
 21
104.7436369915
 31
0.0
  0
LINE
  5
9E
330
1F
100
AcDbEntity
  8
0
  6
Continuous
 62
     7
370
    15
100
AcDbLine
 10
285.6907965209
 20
104.7436369915
 30
0.0
 11
279.6907965209
 21
104.7436369915
 31
0.0
  0
LINE
  5
9F
330
1F
100
AcDbEntity
  8
0
  6
Continuous
 62
     7
370
    15
100
AcDbLine
 10
147.1907965209
 20
8.1152464079
 30
0.0
 11
147.1907965209
 21
14.1152464079
 31
0.0
  0
LINE
  5
A0
330
1F
100
AcDbEntity
  8
0
  6
Continuous
 62
     7
370
    15
100
AcDbLine
 10
147.1907965209
 20
201.3720275751
 30
0.0
 11
147.1907965209
 21
195.3720275751
 31
0.0
  0
LINE
  5
A1
330
1F
100
AcDbEntity
  8
0
  6
Continuous
 62
     7
370
    15
100
AcDbLine
 10
43.3207965209
 20
201.3720275751
 30
0.0
 11
43.3207965209
 21
202.8720275751
 31
0.0
  0
LINE
  5
A2
330
1F
100
AcDbEntity
  8
0
  6
Continuous
 62
     7
370
    15
100
AcDbLine
 10
77.9507965209
 20
201.3720275751
 30
0.0
 11
77.9507965209
 21
202.8720275751
 31
0.0
  0
LINE
  5
A3
330
1F
100
AcDbEntity
  8
0
  6
Continuous
 62
     7
370
    15
100
AcDbLine
 10
112.5807965209
 20
201.3720275751
 30
0.0
 11
112.5807965209
 21
202.8720275751
 31
0.0
  0
LINE
  5
A4
330
1F
100
AcDbEntity
  8
0
  6
Continuous
 62
     7
370
    15
100
AcDbLine
 10
147.2107965209
 20
201.3720275751
 30
0.0
 11
147.2107965209
 21
202.8720275751
 31
0.0
  0
LINE
  5
A5
330
1F
100
AcDbEntity
  8
0
  6
Continuous
 62
     7
370
    15
100
AcDbLine
 10
181.8407965209
 20
201.3720275751
 30
0.0
 11
181.8407965209
 21
202.8720275751
 31
0.0
  0
LINE
  5
A6
330
1F
100
AcDbEntity
  8
0
  6
Continuous
 62
     7
370
    15
100
AcDbLine
 10
216.4707965209
 20
201.3720275751
 30
0.0
 11
216.4707965209
 21
202.8720275751
 31
0.0
  0
LINE
  5
A7
330
1F
100
AcDbEntity
  8
0
  6
Continuous
 62
     7
370
    15
100
AcDbLine
 10
251.1007965209
 20
201.3720275751
 30
0.0
 11
251.1007965209
 21
202.8720275751
 31
0.0
  0
LINE
  5
A8
330
1F
100
AcDbEntity
  8
0
  6
Continuous
 62
     7
370
    15
100
AcDbLine
 10
43.3157965209
 20
8.1152464079
 30
0.0
 11
43.3157965209
 21
6.6152464079
 31
0.0
  0
LINE
  5
A9
330
1F
100
AcDbEntity
  8
0
  6
Continuous
 62
     7
370
    15
100
AcDbLine
 10
77.9407965209
 20
8.1152464079
 30
0.0
 11
77.9407965209
 21
6.6152464079
 31
0.0
  0
LINE
  5
AA
330
1F
100
AcDbEntity
  8
0
  6
Continuous
 62
     7
370
    15
100
AcDbLine
 10
112.5657965209
 20
8.1152464079
 30
0.0
 11
112.5657965209
 21
6.6152464079
 31
0.0
  0
LINE
  5
AB
330
1F
100
AcDbEntity
  8
0
  6
Continuous
 62
     7
370
    15
100
AcDbLine
 10
147.1907965209
 20
8.1152464079
 30
0.0
 11
147.1907965209
 21
6.6152464079
 31
0.0
  0
LINE
  5
AC
330
1F
100
AcDbEntity
  8
0
  6
Continuous
 62
     7
370
    15
100
AcDbLine
 10
181.8157965209
 20
8.1152464079
 30
0.0
 11
181.8157965209
 21
6.6152464079
 31
0.0
  0
LINE
  5
AD
330
1F
100
AcDbEntity
  8
0
  6
Continuous
 62
     7
370
    15
100
AcDbLine
 10
216.4407965209
 20
8.1152464079
 30
0.0
 11
216.4407965209
 21
6.6152464079
 31
0.0
  0
LINE
  5
AE
330
1F
100
AcDbEntity
  8
0
  6
Continuous
 62
     7
370
     0
100
AcDbLine
 10
285.6907965209
 20
201.3720275751
 30
0.0
 11
8.6907965209
 21
201.3720275751
 31
0.0
  0
LINE
  5
AF
330
1F
100
AcDbEntity
  8
0
  6
Continuous
 62
     7
370
     0
100
AcDbLine
 10
285.6907965209
 20
8.1152464079
 30
0.0
 11
285.6907965209
 21
201.3720275751
 31
0.0
  0
LINE
  5
B0
330
1F
100
AcDbEntity
  8
0
  6
Continuous
 62
     7
370
     0
100
AcDbLine
 10
8.6907965209
 20
201.3720275751
 30
0.0
 11
8.6907965209
 21
8.1152464079
 31
0.0
  0
LINE
  5
B1
330
1F
100
AcDbEntity
  8
0
  6
Continuous
 62
     7
370
     0
100
AcDbLine
 10
8.6907965209
 20
8.1152464079
 30
0.0
 11
285.6907965209
 21
8.1152464079
 31
0.0
  0
LINE
  5
B2
330
1F
100
AcDbEntity
  8
0
  6
Continuous
 62
     7
370
    15
100
AcDbLine
 10
251.0657965209
 20
8.1152464079
 30
0.0
 11
251.0657965209
 21
6.6152464079
 31
0.0
  0
LINE
  5
B3
330
1F
100
AcDbEntity
  8
0
  6
Continuous
 62
     7
370
    15
100
AcDbLine
 10
8.6907965209
 20
40.3252464079
 30
0.0
 11
7.1907965209
 21
40.3252464079
 31
0.0
  0
LINE
  5
B4
330
1F
100
AcDbEntity
  8
0
  6
Continuous
 62
     7
370
    15
100
AcDbLine
 10
8.6907965209
 20
72.5352464079
 30
0.0
 11
7.1907965209
 21
72.5352464079
 31
0.0
  0
LINE
  5
B5
330
1F
100
AcDbEntity
  8
0
  6
Continuous
 62
     7
370
    15
100
AcDbLine
 10
8.6907965209
 20
104.7452464079
 30
0.0
 11
7.1907965209
 21
104.7452464079
 31
0.0
  0
LINE
  5
B6
330
1F
100
AcDbEntity
  8
0
  6
Continuous
 62
     7
370
    15
100
AcDbLine
 10
8.6907965209
 20
136.9552464079
 30
0.0
 11
7.1907965209
 21
136.9552464079
 31
0.0
  0
LINE
  5
B7
330
1F
100
AcDbEntity
  8
0
  6
Continuous
 62
     7
370
    15
100
AcDbLine
 10
8.6907965209
 20
169.1652464079
 30
0.0
 11
7.1907965209
 21
169.1652464079
 31
0.0
  0
LINE
  5
B8
330
1F
100
AcDbEntity
  8
0
  6
Continuous
 62
     7
370
    15
100
AcDbLine
 10
285.6907965209
 20
40.3252464079
 30
0.0
 11
287.1907965209
 21
40.3252464079
 31
0.0
  0
LINE
  5
B9
330
1F
100
AcDbEntity
  8
0
  6
Continuous
 62
     7
370
    15
100
AcDbLine
 10
285.6907965209
 20
72.5352464079
 30
0.0
 11
287.1907965209
 21
72.5352464079
 31
0.0
  0
LINE
  5
BA
330
1F
100
AcDbEntity
  8
0
  6
Continuous
 62
     7
370
    15
100
AcDbLine
 10
285.6907965209
 20
104.7452464079
 30
0.0
 11
287.1907965209
 21
104.7452464079
 31
0.0
  0
LINE
  5
BB
330
1F
100
AcDbEntity
  8
0
  6
Continuous
 62
     7
370
    15
100
AcDbLine
 10
285.6907965209
 20
136.9552464079
 30
0.0
 11
287.1907965209
 21
136.9552464079
 31
0.0
  0
LINE
  5
BC
330
1F
100
AcDbEntity
  8
0
  6
Continuous
 62
     7
370
    15
100
AcDbLine
 10
285.6907965209
 20
169.1652464079
 30
0.0
 11
287.1907965209
 21
169.1652464079
 31
0.0
  0
CIRCLE
  5
BD
330
1F
100
AcDbEntity
  8
0
  6
Continuous
 62
     7
370
     0
100
AcDbCircle
 10
168.3593775185
 20
17.7745192513
 30
0.0
 40
1.5
  0
CIRCLE
  5
BE
330
1F
100
AcDbEntity
  8
0
  6
Continuous
 62
     7
370
     0
100
AcDbCircle
 10
168.3593775185
 20
17.7745192513
 30
0.0
 40
2.5
  0
ARC
  5
BF
330
1F
100
AcDbEntity
  8
0
370
     0
100
AcDbCircle
 10
188.4107283673
 20
35.3933967187
 30
0.0
 40
1.531992467805816
100
AcDbArc
 50
130.2910647925
 51
228.509361907
  0
ARC
  5
C0
330
1F
100
AcDbEntity
  8
0
370
     0
100
AcDbCircle
 10
191.7151259254
 20
35.2806158554
 30
0.0
 40
2.570544369711286
100
AcDbArc
 50
140.1430462781
 51
253.0452525074
  0
ARC
  5
C1
330
1F
100
AcDbEntity
  8
0
370
     0
100
AcDbCircle
 10
192.0465231337
 20
35.6692576046
 30
0.0
 40
3.045751395731261
100
AcDbArc
 50
249.2112209143
 51
308.9221353953
  0
ARC
  5
C2
330
1F
100
AcDbEntity
  8
0
 62
     1
370
     0
100
AcDbCircle
 10
195.8606685886
 20
35.4406523564
 30
0.0
 40
1.518552937418275
100
AcDbArc
 50
306.0377529468
 51
43.4396461534
  0
ARC
  5
C3
330
1F
100
AcDbEntity
  8
0
 62
     1
370
     0
100
AcDbCircle
 10
192.1796885727
 20
34.9150579659
 30
0.0
 40
3.181636704527891
100
AcDbArc
 50
45.5592925416
 51
125.8325555121
  0
ARC
  5
C4
330
1F
100
AcDbEntity
  8
0
 62
     1
370
     0
100
AcDbCircle
 10
192.4973448634
 20
35.4558797714
 30
0.0
 40
2.577567488346266
100
AcDbArc
 50
321.9435288427
 51
42.1815007004
  0
MTEXT
  5
C6
330
1F
100
AcDbEntity
  8
0
  6
Continuous
 62
     7
370
     0
100
AcDbMText
 10
165.5426850804
 20
13.2208440369
 30
0.0
 40
2.6458333333
 41
0.0
 71
     1
 72
     1
  1
UNIT:m/m
  7
SLDTEXTSTYLE0
 73
     1
 44
1.0
  0
INSERT
  5
CD
330
1F
100
AcDbEntity
  8
0
  6
Continuous
 62
     7
370
     0
100
AcDbBlockReference
  2
SW_NOTE_0
 10
12.2315076053
 20
193.8904304251
 30
0.0
  0
MTEXT
  5
CF
330
1F
100
AcDbEntity
  8
0
  6
Continuous
 62
     7
370
     0
100
AcDbMText
 10
198.7251893935
 20
40.4406774139
 30
0.0
 40
2.38125
 41
0.0
 71
     1
 72
     1
  1
Unice E-O Services Inc.
  7
SLDTEXTSTYLE1
 73
     1
 44
1.0
  0
MTEXT
  5
D0
330
1F
100
AcDbEntity
  8
0
  6
Continuous
 62
     7
370
     0
100
AcDbMText
 10
217.5590538149
 20
21.5867148511
 30
0.0
 40
1.8520833333
 41
0.0
 71
     1
 72
     1
  1
2010/12/30
  7
SLDTEXTSTYLE0
 73
     1
 44
1.0
  0
MTEXT
  5
D1
330
1F
100
AcDbEntity
  8
0
  6
Continuous
 62
     7
370
     0
100
AcDbMText
 10
252.6088982507
 20
16.87117774
 30
0.0
 40
2.5
 41
0.0
 71
     1
 72
     1
  1
1:1
  7
SLDTEXTSTYLE0
 73
     1
 44
1.0
  0
MTEXT
  5
D2
330
1F
100
AcDbEntity
  8
0
  6
Continuous
 62
     7
370
     0
100
AcDbMText
 10
252.3075599985
 20
32.1519195438
 30
0.0
 40
2.5
 41
0.0
 71
     1
 72
     1
  1
04MTE-2M
  7
SLDTEXTSTYLE0
 73
     1
 44
1.0
  0
MTEXT
  5
D3
330
1F
100
AcDbEntity
  8
0
  6
Continuous
 62
     7
370
     0
100
AcDbMText
 10
252.3075599985
 20
38.1082117879
 30
0.0
 40
2.5
 41
0.0
 71
     1
 72
     1
  1
04MTE-2M
  7
SLDTEXTSTYLE0
 73
     1
 44
1.0
  0
MTEXT
  5
D4
330
1F
100
AcDbEntity
  8
0
  6
Continuous
 62
     7
370
     0
100
AcDbMText
 10
236.3921866786
 20
16.5064795728
 30
0.0
 40
2.1166666667
 41
0.0
 71
     1
 72
     1
  1
SCALE:
  7
SLDTEXTSTYLE0
 73
     1
 44
1.0
  0
MTEXT
  5
D5
330
1F
100
AcDbEntity
  8
0
  6
Continuous
 62
     7
370
     0
100
AcDbMText
 10
186.3336086789
 20
21.5867148511
 30
0.0
 40
1.8520833333
 41
0.0
 71
     1
 72
     1
  1
DRAWN
  7
SLDTEXTSTYLE0
 73
     1
 44
1.0
  0
MTEXT
  5
D6
330
1F
100
AcDbEntity
  8
0
  6
Continuous
 62
     7
370
     0
100
AcDbMText
 10
203.2228367937
 20
26.683208308
 30
0.0
 40
1.8520833333
 41
0.0
 71
     1
 72
     1
  1
NAME
  7
SLDTEXTSTYLE0
 73
     1
 44
1.0
  0
MTEXT
  5
D7
330
1F
100
AcDbEntity
  8
0
  6
Continuous
 62
     7
370
     0
100
AcDbMText
 10
220.8710155758
 20
26.683208308
 30
0.0
 40
1.8520833333
 41
0.0
 71
     1
 72
     1
  1
DATE
  7
SLDTEXTSTYLE0
 73
     1
 44
1.0
  0
MTEXT
  5
D8
330
1F
100
AcDbEntity
  8
0
  6
Continuous
 62
     7
370
     0
100
AcDbMText
 10
236.2756316645
 20
31.7872213766
 30
0.0
 40
2.1166666667
 41
0.0
 71
     1
 72
     1
  1
DWG. NO.
  7
SLDTEXTSTYLE0
 73
     1
 44
1.0
  0
MTEXT
  5
D9
330
1F
100
AcDbEntity
  8
0
  6
Continuous
 62
     7
370
     0
100
AcDbMText
 10
236.3629907088
 20
41.8840658243
 30
0.0
 40
2.1166666667
 41
0.0
 71
     1
 72
     1
  1
TITLE:
  7
SLDTEXTSTYLE0
 73
     1
 44
1.0
  0
MTEXT
  5
DA
330
1F
100
AcDbEntity
  8
0
  6
Continuous
 62
     7
370
     0
100
AcDbMText
 10
203.0314209802
 20
16.2403789724
 30
0.0
 40
1.8520833333
 41
0.0
 71
     1
 72
     1
  1
Johnny
  7
SLDTEXTSTYLE0
 73
     1
 44
1.0
  0
MTEXT
  5
DB
330
1F
100
AcDbEntity
  8
0
  6
Continuous
 62
     7
370
     0
100
AcDbMText
 10
217.5590538149
 20
16.2403789724
 30
0.0
 40
1.8520833333
 41
0.0
 71
     1
 72
     1
  1
2010/12/30
  7
SLDTEXTSTYLE0
 73
     1
 44
1.0
  0
MTEXT
  5
DC
330
1F
100
AcDbEntity
  8
0
  6
Continuous
 62
     7
370
     0
100
AcDbMText
 10
186.3336086789
 20
16.2403789724
 30
0.0
 40
1.8520833333
 41
0.0
 71
     1
 72
     1
  1
ENG APPR.
  7
SLDTEXTSTYLE0
 73
     1
 44
1.0
  0
MTEXT
  5
DD
330
1F
100
AcDbEntity
  8
0
  6
Continuous
 62
     7
370
     0
100
AcDbMText
 10
236.3921866786
 20
11.6853389288
 30
0.0
 40
2.1166666667
 41
0.0
 71
     1
 72
     1
  1
REV
  7
SLDTEXTSTYLE0
 73
     1
 44
1.0
  0
MTEXT
  5
DE
330
1F
100
AcDbEntity
  8
0
  6
Continuous
 62
     7
370
     0
100
AcDbMText
 10
236.3629907088
 20
26.9493089085
 30
0.0
 40
2.1166666667
 41
0.0
 71
     1
 72
     1
  1
MATERIAL:
  7
SLDTEXTSTYLE0
 73
     1
 44
1.0
  0
MTEXT
  5
DF
330
1F
100
AcDbEntity
  8
0
  6
Continuous
 62
     7
370
     0
100
AcDbMText
 10
252.6088982507
 20
22.2175136187
 30
0.0
 40
2.5
 41
0.0
 71
     1
 72
     1
  1
N/A
  7
SLDTEXTSTYLE0
 73
     1
 44
1.0
  0
MTEXT
  5
E0
330
1F
100
AcDbEntity
  8
0
  6
Continuous
 62
     7
370
     0
100
AcDbMText
 10
26.6029931533
 20
204.453351657
 30
0.0
 40
2.1166666667
 41
0.0
 71
     1
 72
     1
  1
1
  7
SLDTEXTSTYLE0
 73
     1
 44
1.0
  0
MTEXT
  5
E1
330
1F
100
AcDbEntity
  8
0
  6
Continuous
 62
     7
370
     0
100
AcDbMText
 10
60.7170995724
 20
204.453351657
 30
0.0
 40
2.1166666667
 41
0.0
 71
     1
 72
     1
  1
2
  7
SLDTEXTSTYLE0
 73
     1
 44
1.0
  0
MTEXT
  5
E2
330
1F
100
AcDbEntity
  8
0
  6
Continuous
 62
     7
370
     0
100
AcDbMText
 10
94.9009943906
 20
204.453351657
 30
0.0
 40
2.1166666667
 41
0.0
 71
     1
 72
     1
  1
3
  7
SLDTEXTSTYLE0
 73
     1
 44
1.0
  0
MTEXT
  5
E3
330
1F
100
AcDbEntity
  8
0
  6
Continuous
 62
     7
370
     0
100
AcDbMText
 10
129.2533362851
 20
204.2992584364
 30
0.0
 40
2.1166666667
 41
0.0
 71
     1
 72
     1
  1
4
  7
SLDTEXTSTYLE0
 73
     1
 44
1.0
  0
MTEXT
  5
E4
330
1F
100
AcDbEntity
  8
0
  6
Continuous
 62
     7
370
     0
100
AcDbMText
 10
163.702323464
 20
204.453351657
 30
0.0
 40
2.1166666667
 41
0.0
 71
     1
 72
     1
  1
5
  7
SLDTEXTSTYLE0
 73
     1
 44
1.0
  0
MTEXT
  5
E5
330
1F
100
AcDbEntity
  8
0
  6
Continuous
 62
     7
370
     0
100
AcDbMText
 10
198.6382170415
 20
204.453351657
 30
0.0
 40
2.1166666667
 41
0.0
 71
     1
 72
     1
  1
6
  7
SLDTEXTSTYLE0
 73
     1
 44
1.0
  0
MTEXT
  5
E6
330
1F
100
AcDbEntity
  8
0
  6
Continuous
 62
     7
370
     0
100
AcDbMText
 10
234.3630657407
 20
204.453351657
 30
0.0
 40
2.1166666667
 41
0.0
 71
     1
 72
     1
  1
7
  7
SLDTEXTSTYLE0
 73
     1
 44
1.0
  0
MTEXT
  5
E7
330
1F
100
AcDbEntity
  8
0
  6
Continuous
 62
     7
370
     0
100
AcDbMText
 10
266.2787820494
 20
204.453351657
 30
0.0
 40
2.1166666667
 41
0.0
 71
     1
 72
     1
  1
8
  7
SLDTEXTSTYLE0
 73
     1
 44
1.0
  0
MTEXT
  5
E8
330
1F
100
AcDbEntity
  8
0
  6
Continuous
 62
     7
370
     0
100
AcDbMText
 10
5.3568236555
 20
185.8113022879
 30
0.0
 40
2.1166666667
 41
0.0
 71
     1
 72
     1
  1
A
  7
SLDTEXTSTYLE0
 73
     1
 44
1.0
  0
MTEXT
  5
E9
330
1F
100
AcDbEntity
  8
0
  6
Continuous
 62
     7
370
     0
100
AcDbMText
 10
5.5910431831
 20
154.2993048238
 30
0.0
 40
2.1166666667
 41
0.0
 71
     1
 72
     1
  1
B
  7
SLDTEXTSTYLE0
 73
     1
 44
1.0
  0
MTEXT
  5
EA
330
1F
100
AcDbEntity
  8
0
  6
Continuous
 62
     7
370
     0
100
AcDbMText
 10
5.5910431831
 20
121.274351423
 30
0.0
 40
2.1166666667
 41
0.0
 71
     1
 72
     1
  1
C
  7
SLDTEXTSTYLE0
 73
     1
 44
1.0
  0
MTEXT
  5
EB
330
1F
100
AcDbEntity
  8
0
  6
Continuous
 62
     7
370
     0
100
AcDbMText
 10
5.5910431831
 20
88.7453220221
 30
0.0
 40
2.1166666667
 41
0.0
 71
     1
 72
     1
  1
D
  7
SLDTEXTSTYLE0
 73
     1
 44
1.0
  0
MTEXT
  5
EC
330
1F
100
AcDbEntity
  8
0
  6
Continuous
 62
     7
370
     0
100
AcDbMText
 10
5.5910431831
 20
57.5558849197
 30
0.0
 40
2.1166666667
 41
0.0
 71
     1
 72
     1
  1
E
  7
SLDTEXTSTYLE0
 73
     1
 44
1.0
  0
MTEXT
  5
ED
330
1F
100
AcDbEntity
  8
0
  6
Continuous
 62
     7
370
     0
100
AcDbMText
 10
5.5910431831
 20
25.5694212252
 30
0.0
 40
2.1166666667
 41
0.0
 71
     1
 72
     1
  1
F
  7
SLDTEXTSTYLE0
 73
     1
 44
1.0
  0
MTEXT
  5
EE
330
1F
100
AcDbEntity
  8
0
  6
Continuous
 62
     7
370
     0
100
AcDbMText
 10
266.1858616964
 20
6.6236223963
 30
0.0
 40
2.1166666667
 41
0.0
 71
     1
 72
     1
  1
8
  7
SLDTEXTSTYLE0
 73
     1
 44
1.0
  0
MTEXT
  5
EF
330
1F
100
AcDbEntity
  8
0
  6
Continuous
 62
     7
370
     0
100
AcDbMText
 10
234.2701453876
 20
6.6236223963
 30
0.0
 40
2.1166666667
 41
0.0
 71
     1
 72
     1
  1
7
  7
SLDTEXTSTYLE0
 73
     1
 44
1.0
  0
MTEXT
  5
F0
330
1F
100
AcDbEntity
  8
0
  6
Continuous
 62
     7
370
     0
100
AcDbMText
 10
198.5452966885
 20
6.6236223963
 30
0.0
 40
2.1166666667
 41
0.0
 71
     1
 72
     1
  1
6
  7
SLDTEXTSTYLE0
 73
     1
 44
1.0
  0
MTEXT
  5
F1
330
1F
100
AcDbEntity
  8
0
  6
Continuous
 62
     7
370
     0
100
AcDbMText
 10
163.6094031109
 20
6.6236223963
 30
0.0
 40
2.1166666667
 41
0.0
 71
     1
 72
     1
  1
5
  7
SLDTEXTSTYLE0
 73
     1
 44
1.0
  0
MTEXT
  5
F2
330
1F
100
AcDbEntity
  8
0
  6
Continuous
 62
     7
370
     0
100
AcDbMText
 10
129.1604159321
 20
6.4695291758
 30
0.0
 40
2.1166666667
 41
0.0
 71
     1
 72
     1
  1
4
  7
SLDTEXTSTYLE0
 73
     1
 44
1.0
  0
MTEXT
  5
F3
330
1F
100
AcDbEntity
  8
0
  6
Continuous
 62
     7
370
     0
100
AcDbMText
 10
94.8080740376
 20
6.6236223963
 30
0.0
 40
2.1166666667
 41
0.0
 71
     1
 72
     1
  1
3
  7
SLDTEXTSTYLE0
 73
     1
 44
1.0
  0
MTEXT
  5
F4
330
1F
100
AcDbEntity
  8
0
  6
Continuous
 62
     7
370
     0
100
AcDbMText
 10
60.6241792194
 20
6.6236223963
 30
0.0
 40
2.1166666667
 41
0.0
 71
     1
 72
     1
  1
2
  7
SLDTEXTSTYLE0
 73
     1
 44
1.0
  0
MTEXT
  5
F5
330
1F
100
AcDbEntity
  8
0
  6
Continuous
 62
     7
370
     0
100
AcDbMText
 10
26.5100728003
 20
6.6236223963
 30
0.0
 40
2.1166666667
 41
0.0
 71
     1
 72
     1
  1
1
  7
SLDTEXTSTYLE0
 73
     1
 44
1.0
  0
MTEXT
  5
F6
330
1F
100
AcDbEntity
  8
0
  6
Continuous
 62
     7
370
     0
100
AcDbMText
 10
287.1023846145
 20
186.6424909092
 30
0.0
 40
2.1166666667
 41
0.0
 71
     1
 72
     1
  1
A
  7
SLDTEXTSTYLE0
 73
     1
 44
1.0
  0
MTEXT
  5
F7
330
1F
100
AcDbEntity
  8
0
  6
Continuous
 62
     7
370
     0
100
AcDbMText
 10
287.3366041421
 20
155.1304934451
 30
0.0
 40
2.1166666667
 41
0.0
 71
     1
 72
     1
  1
B
  7
SLDTEXTSTYLE0
 73
     1
 44
1.0
  0
MTEXT
  5
F8
330
1F
100
AcDbEntity
  8
0
  6
Continuous
 62
     7
370
     0
100
AcDbMText
 10
287.3366041421
 20
122.1055400442
 30
0.0
 40
2.1166666667
 41
0.0
 71
     1
 72
     1
  1
C
  7
SLDTEXTSTYLE0
 73
     1
 44
1.0
  0
MTEXT
  5
F9
330
1F
100
AcDbEntity
  8
0
  6
Continuous
 62
     7
370
     0
100
AcDbMText
 10
287.3366041421
 20
89.5765106433
 30
0.0
 40
2.1166666667
 41
0.0
 71
     1
 72
     1
  1
D
  7
SLDTEXTSTYLE0
 73
     1
 44
1.0
  0
MTEXT
  5
FA
330
1F
100
AcDbEntity
  8
0
  6
Continuous
 62
     7
370
     0
100
AcDbMText
 10
287.3366041421
 20
58.3870735409
 30
0.0
 40
2.1166666667
 41
0.0
 71
     1
 72
     1
  1
E
  7
SLDTEXTSTYLE0
 73
     1
 44
1.0
  0
MTEXT
  5
FB
330
1F
100
AcDbEntity
  8
0
  6
Continuous
 62
     7
370
     0
100
AcDbMText
 10
287.3366041421
 20
26.4006098464
 30
0.0
 40
2.1166666667
 41
0.0
 71
     1
 72
     1
  1
F
  7
SLDTEXTSTYLE0
 73
     1
 44
1.0
  0
MTEXT
  5
FC
330
1F
100
AcDbEntity
  8
0
  6
Continuous
 62
     7
370
     0
100
AcDbMText
 10
203.1553128802
 20
21.5867148511
 30
0.0
 40
1.8520833333
 41
0.0
 71
     1
 72
     1
  1
Jimmy
  7
SLDTEXTSTYLE0
 73
     1
 44
1.0
  0
MTEXT
  5
FD
330
1F
100
AcDbEntity
  8
0
  6
Continuous
 62
     7
370
     0
100
AcDbMText
 10
252.8482239645
 20
12.0500370959
 30
0.0
 40
2.5
 41
0.0
 71
     1
 72
     1
  1
0
  7
SLDTEXTSTYLE0
 73
     1
 44
1.0
  0
INSERT
  5
103
330
1F
100
AcDbEntity
  8
SLD-0
 62
     7
100
AcDbBlockReference
  2
SW_NOTE_1
 10
198.7251893935
 20
32.5451895444
 30
0.0
  0
ARC
  5
104
330
1F
100
AcDbEntity
  8
0
  6
Continuous
 62
     7
370
    30
100
AcDbCircle
 10
77.6676866444
 20
106.5191883729
 30
0.0
 40
31.49999999999999
100
AcDbArc
 50
300.4490033978
 51
75.5243515803
  0
LWPOLYLINE
  5
105
330
1F
100
AcDbEntity
  8
0
  6
Continuous
 62
     7
370
    30
100
AcDbPolyline
 90
        9
 70
   128
 43
0.0
 10
93.3775953235
 20
79.7946915166
 10
93.4270280632
 20
79.710598676
 10
93.4745627674
 20
79.6297393874
 10
93.518368456
 20
79.5552186803
 10
93.5567668857
 20
79.4898994402
 10
93.5882791164
 20
79.4362943755
 10
93.6116944285
 20
79.396461709
 10
93.6261131646
 20
79.371932535
 10
93.6309821191
 20
79.3636512147
  0
ARC
  5
106
330
1F
100
AcDbEntity
  8
0
  6
Continuous
 62
     7
370
    30
100
AcDbCircle
 10
77.6676866444
 20
106.5191883729
 30
0.0
 40
31.00000000000001
100
AcDbArc
 50
300.4490033978
 51
75.407449398
  0
SPLINE
  5
107
330
1F
100
AcDbEntity
  8
0
  6
Continuous
 62
     7
370
    30
100
AcDbSpline
210
0.0
220
0.0
230
1.0
 70
     8
 71
     3
 72
    10
 73
     6
 74
     0
 42
0.000000001
 43
0.00000001
 40
0.0
 40
0.0
 40
0.0
 40
0.0
 40
0.5
 40
0.5
 40
1.0
 40
1.0
 40
1.0
 40
1.0
 10
85.54169451843077
 20
137.0191883729042
 30
0.0
 10
85.54169451843077
 20
137.0191883729042
 30
0.0
 10
85.5347525679645
 20
136.9644824058257
 30
0.0
 10
85.51124260681176
 20
136.7798043507138
 30
0.0
 10
85.49453611106343
 20
136.6488462740902
 30
0.0
 10
85.4779363203256
 20
136.5191883729042
 30
0.0
  0
ARC
  5
108
330
1F
100
AcDbEntity
  8
0
  6
Continuous
 62
     7
370
    30
100
AcDbCircle
 10
85.9040878395
 20
71.0191883729
 30
0.0
 40
0.5000000000000284
100
AcDbArc
 50
270.0
 51
343.3412046139
  0
LINE
  5
109
330
1F
100
AcDbEntity
  8
0
  6
Continuous
 62
     7
370
    30
100
AcDbLine
 10
69.4312858614
 20
70.5191899226
 30
0.0
 11
85.9040874275
 21
70.5191899226
 31
0.0
  0
ARC
  5
10A
330
1F
100
AcDbEntity
  8
0
  6
Continuous
 62
     7
370
    30
100
AcDbCircle
 10
69.4312854493
 20
71.0191883729
 30
0.0
 40
0.5000000000000142
100
AcDbArc
 50
196.6587953861
 51
270.0
  0
ARC
  5
10B
330
1F
100
AcDbEntity
  8
0
  6
Continuous
 62
     7
370
    30
100
AcDbCircle
 10
54.1028229816
 20
66.4324424268
 30
0.0
 40
15.5
100
AcDbArc
 50
16.6587953861
 51
59.5509966022
  0
ARC
  5
10C
330
1F
100
AcDbEntity
  8
0
  6
Continuous
 62
     7
370
    30
100
AcDbCircle
 10
77.6676866444
 20
106.5191883729
 30
0.0
 40
31.00000000000002
100
AcDbArc
 50
104.592550602
 51
239.5509966022
  0
LINE
  5
10D
330
1F
100
AcDbEntity
  8
0
  6
Continuous
 62
     7
370
    30
100
AcDbLine
 10
85.4779361034
 20
136.5191877024
 30
0.0
 11
69.8574371854
 21
136.5191877024
 31
0.0
  0
ARC
  5
10E
330
1F
100
AcDbEntity
  8
0
  6
Continuous
 62
     7
370
    30
100
AcDbCircle
 10
101.2325503073
 20
66.4324424268
 30
0.0
 40
15.5
100
AcDbArc
 50
120.4490033978
 51
163.3412046139
  0
ARC
  5
10F
330
1F
100
AcDbEntity
  8
0
  6
Continuous
 62
     7
370
    30
100
AcDbCircle
 10
64.3925207102
 20
88.4767392759
 30
0.0
 40
4.500000000000005
100
AcDbArc
 50
200.0787442879
 51
233.6553296616
  0
ARC
  5
110
330
1F
100
AcDbEntity
  8
0
  6
Continuous
 62
     7
370
    30
100
AcDbCircle
 10
77.6676866444
 20
106.5191883729
 30
0.0
 40
26.90000000000002
100
AcDbArc
 50
233.6553296616
 51
306.3446703384
  0
ARC
  5
111
330
1F
100
AcDbEntity
  8
0
  6
Continuous
 62
     7
370
    30
100
AcDbCircle
 10
90.9428525786
 20
88.4767392759
 30
0.0
 40
4.500000000000004
100
AcDbArc
 50
306.3446703384
 51
339.9212557121
  0
ARC
  5
112
330
1F
100
AcDbEntity
  8
0
  6
Continuous
 62
     7
370
    30
100
AcDbCircle
 10
98.4566260113
 20
85.730249006
 30
0.0
 40
3.500000000000008
100
AcDbArc
 50
110.0787442879
 51
159.9212557121
  0
ARC
  5
113
330
1F
100
AcDbEntity
  8
0
  6
Continuous
 62
     7
370
    30
100
AcDbCircle
 10
95.7101357415
 20
93.2440224387
 30
0.0
 40
4.500000000000007
100
AcDbArc
 50
290.0787442879
 51
323.6553296616
  0
ARC
  5
114
330
1F
100
AcDbEntity
  8
0
  6
Continuous
 62
     7
370
    30
100
AcDbCircle
 10
77.6676866444
 20
106.5191883729
 30
0.0
 40
26.90000000000002
100
AcDbArc
 50
323.6553296616
 51
216.3446703384
  0
ARC
  5
115
330
1F
100
AcDbEntity
  8
0
  6
Continuous
 62
     7
370
    30
100
AcDbCircle
 10
59.6252375474
 20
93.2440224387
 30
0.0
 40
4.500000000000004
100
AcDbArc
 50
216.3446703384
 51
249.9212557121
  0
ARC
  5
116
330
1F
100
AcDbEntity
  8
0
  6
Continuous
 62
     7
370
    30
100
AcDbCircle
 10
56.8787472775
 20
85.730249006
 30
0.0
 40
3.500000000000011
100
AcDbArc
 50
20.0787442879
 51
69.9212557121
  0
ARC
  5
117
330
1F
100
AcDbEntity
  8
0
  6
Continuous
 62
     7
370
    30
100
AcDbCircle
 10
77.6676866444
 20
106.5191883729
 30
0.0
 40
26.40000000000002
100
AcDbArc
 50
323.6553296616
 51
216.3446703384
  0
LWPOLYLINE
  5
118
330
1F
100
AcDbEntity
  8
0
  6
Continuous
 62
     7
370
    30
100
AcDbPolyline
 90
        9
 70
   128
 43
0.0
 10
56.4033719929
 20
90.8734571324
 10
56.3956327023
 20
90.8677630262
 10
56.3727147164
 20
90.8509004996
 10
56.3354990663
 20
90.8235177533
 10
56.2854144009
 20
90.7866671817
 10
56.2243848326
 20
90.7417625324
 10
56.1547572943
 20
90.6905342029
 10
56.079208407
 20
90.634945421
 10
56.0006383093
 20
90.5771363662
  0
LWPOLYLINE
  5
119
330
1F
100
AcDbEntity
  8
0
  6
Continuous
 62
     7
370
    30
100
AcDbPolyline
 90
        9
 70
   128
 43
0.0
 10
98.9320012959
 20
90.8734571324
 10
98.9397405865
 20
90.8677630262
 10
98.9626585724
 20
90.8509004996
 10
98.9998742225
 20
90.8235177533
 10
99.0499588879
 20
90.7866671817
 10
99.1109884562
 20
90.7417625324
 10
99.1806159946
 20
90.6905342029
 10
99.2561648818
 20
90.634945421
 10
99.3347349795
 20
90.5771363662
  0
ARC
  5
11A
330
1F
100
AcDbEntity
  8
0
  6
Continuous
 62
     7
370
    30
100
AcDbCircle
 10
95.7101357415
 20
93.2440224387
 30
0.0
 40
4.000000000000012
100
AcDbArc
 50
290.0787442879
 51
323.6553296616
  0
LWPOLYLINE
  5
11B
330
1F
100
AcDbEntity
  8
0
  6
Continuous
 62
     7
370
    30
100
AcDbPolyline
 90
        9
 70
   128
 43
0.0
 10
97.083380002
 20
89.4871350513
 10
97.0866787466
 20
89.4781123982
 10
97.0964464577
 20
89.4513890282
 10
97.1123106065
 20
89.4079912589
 10
97.1336583825
 20
89.3495898829
 10
97.159670222
 20
89.278427525
 10
97.1893458845
 20
89.1972366856
 10
97.2215472939
 20
89.1091410206
 10
97.255035791
 20
89.0175249563
  0
ARC
  5
11C
330
1F
100
AcDbEntity
  8
0
  6
Continuous
 62
     7
370
    30
100
AcDbCircle
 10
98.4566260113
 20
85.730249006
 30
0.0
 40
4.000000000000004
100
AcDbArc
 50
110.0787442879
 51
159.9212557121
  0
LWPOLYLINE
  5
11D
330
1F
100
AcDbEntity
  8
0
  6
Continuous
 62
     7
370
    30
100
AcDbPolyline
 90
        9
 70
   128
 43
0.0
 10
94.699739966
 20
87.1034950153
 10
94.7087626191
 20
87.1001962708
 10
94.7354859891
 20
87.0904285596
 10
94.7788837584
 20
87.0745644109
 10
94.8372851344
 20
87.0532166348
 10
94.9084474923
 20
87.0272047953
 10
94.9896383318
 20
86.9975291328
 10
95.0777339967
 20
86.9653277234
 10
95.169350061
 20
86.9318392263
  0
LWPOLYLINE
  5
11E
330
1F
100
AcDbEntity
  8
0
  6
Continuous
 62
     7
370
    30
100
AcDbPolyline
 90
        9
 70
   128
 43
0.0
 10
93.6097386511
 20
84.8521400378
 10
93.5519295963
 20
84.9307101355
 10
93.4963408145
 20
85.0062590228
 10
93.4451124849
 20
85.0758865611
 10
93.4002078357
 20
85.1369161294
 10
93.363357264
 20
85.1870007948
 10
93.3359745177
 20
85.2242164449
 10
93.3191119912
 20
85.2471344308
 10
93.3134178849
 20
85.2548737214
  0
ARC
  5
11F
330
1F
100
AcDbEntity
  8
0
  6
Continuous
 62
     7
370
    30
100
AcDbCircle
 10
90.9428525786
 20
88.4767392759
 30
0.0
 40
4.000000000000001
100
AcDbArc
 50
306.3446703384
 51
339.9212557121
  0
ARC
  5
120
330
1F
100
AcDbEntity
  8
0
  6
Continuous
 62
     7
370
    30
100
AcDbCircle
 10
101.2325503073
 20
66.4324424268
 30
0.0
 40
15.00000000000001
100
AcDbArc
 50
120.4490033978
 51
163.3412046139
  0
LWPOLYLINE
  5
121
330
1F
100
AcDbEntity
  8
0
  6
Continuous
 62
     7
370
    30
100
AcDbPolyline
 90
        9
 70
   128
 43
0.0
 10
86.3831020179
 20
70.8758529411
 10
86.476553719
 20
70.8478909121
 10
86.5664133089
 20
70.8210017667
 10
86.6492283749
 20
70.7962211357
 10
86.7218165877
 20
70.7744989679
 10
86.7813886362
 20
70.7566734539
 10
86.8256543981
 20
70.7434263216
 10
86.8529123472
 20
70.7352716611
 10
86.8621166082
 20
70.7325149463
  0
LWPOLYLINE
  5
122
330
1F
100
AcDbEntity
  8
0
  6
Continuous
 62
     7
370
    30
100
AcDbPolyline
 90
        9
 70
   128
 43
0.0
 10
61.7256346377
 20
84.8521400378
 10
61.7834436925
 20
84.9307101355
 10
61.8390324744
 20
85.0062590228
 10
61.8902608039
 20
85.0758865611
 10
61.9351654532
 20
85.1369161294
 10
61.9720160248
 20
85.1870007948
 10
61.9993987712
 20
85.2242164449
 10
62.0162612977
 20
85.2471344308
 10
62.0219554039
 20
85.2548737214
  0
ARC
  5
123
330
1F
100
AcDbEntity
  8
0
  6
Continuous
 62
     7
370
    30
100
AcDbCircle
 10
77.6676866444
 20
106.5191883729
 30
0.0
 40
26.40000000000002
100
AcDbArc
 50
233.6553296616
 51
306.3446703384
  0
ARC
  5
124
330
1F
100
AcDbEntity
  8
0
  6
Continuous
 62
     7
370
    30
100
AcDbCircle
 10
85.9040878395
 20
71.0191883729
 30
0.0
 40
1.000000000000028
100
AcDbArc
 50
270.0
 51
343.3412046139
  0
LINE
  5
125
330
1F
100
AcDbEntity
  8
0
  6
Continuous
 62
     7
370
    30
100
AcDbLine
 10
85.9040874275
 20
70.5191899226
 30
0.0
 11
85.9040874275
 21
70.0191889093
 31
0.0
  0
LINE
  5
126
330
1F
100
AcDbEntity
  8
0
  6
Continuous
 62
     7
370
    30
100
AcDbLine
 10
85.9040874275
 20
70.0191889093
 30
0.0
 11
69.4312858614
 21
70.0191889093
 31
0.0
  0
LINE
  5
127
330
1F
100
AcDbEntity
  8
0
  6
Continuous
 62
     7
370
    30
100
AcDbLine
 10
69.4312858614
 20
70.5191899226
 30
0.0
 11
69.4312858614
 21
70.0191889093
 31
0.0
  0
LINE
  5
128
330
1F
100
AcDbEntity
  8
0
  6
Continuous
 62
     7
370
    30
100
AcDbLine
 10
69.7936783763
 20
137.0191887156
 30
0.0
 11
85.5416949125
 21
137.0191887156
 31
0.0
  0
SPLINE
  5
129
330
1F
100
AcDbEntity
  8
0
  6
Continuous
 62
     7
370
    30
100
AcDbSpline
210
0.0
220
0.0
230
1.0
 70
     8
 71
     3
 72
    10
 73
     6
 74
     0
 42
0.000000001
 43
0.00000001
 40
0.0
 40
0.0
 40
0.0
 40
0.0
 40
0.5
 40
0.5
 40
1.0
 40
1.0
 40
1.0
 40
1.0
 10
69.79367877040714
 20
137.0191883729042
 30
0.0
 10
69.79367877040715
 20
137.0191883729042
 30
0.0
 10
69.80062072087343
 20
136.9644824058257
 30
0.0
 10
69.82413068202614
 20
136.7798043507138
 30
0.0
 10
69.84083717777447
 20
136.6488462740902
 30
0.0
 10
69.8574369685123
 20
136.5191883729042
 30
0.0
  0
ARC
  5
12A
330
1F
100
AcDbEntity
  8
0
  6
Continuous
 62
     7
370
    30
100
AcDbCircle
 10
77.6676866444
 20
106.5191883729
 30
0.0
 40
31.50000000000001
100
AcDbArc
 50
104.4756484197
 51
239.5509966022
  0
LWPOLYLINE
  5
12B
330
1F
100
AcDbEntity
  8
0
  6
Continuous
 62
     7
370
    30
100
AcDbPolyline
 90
        9
 70
   128
 43
0.0
 10
61.7043911698
 20
79.3636512147
 10
61.7092601242
 20
79.371932535
 10
61.7236788603
 20
79.396461709
 10
61.7470941725
 20
79.4362943755
 10
61.7786064031
 20
79.4898994402
 10
61.8170048328
 20
79.5552186803
 10
61.8608105215
 20
79.6297393874
 10
61.9083452257
 20
79.710598676
 10
61.9577779653
 20
79.7946915166
  0
ARC
  5
12C
330
1F
100
AcDbEntity
  8
0
  6
Continuous
 62
     7
370
    30
100
AcDbCircle
 10
69.4312854493
 20
71.0191883729
 30
0.0
 40
1.000000000000028
100
AcDbArc
 50
196.6587953861
 51
270.0
  0
LWPOLYLINE
  5
12D
330
1F
100
AcDbEntity
  8
0
  6
Continuous
 62
     7
370
    30
100
AcDbPolyline
 90
        9
 70
   128
 43
0.0
 10
68.4732566806
 20
70.7325149463
 10
68.4824609416
 20
70.7352716611
 10
68.5097188907
 20
70.7434263216
 10
68.5539846527
 20
70.7566734539
 10
68.6135567012
 20
70.7744989679
 10
68.686144914
 20
70.7962211357
 10
68.7689599799
 20
70.8210017667
 10
68.8588195699
 20
70.8478909121
 10
68.952271271
 20
70.8758529411
  0
ARC
  5
12E
330
1F
100
AcDbEntity
  8
0
  6
Continuous
 62
     7
370
    30
100
AcDbCircle
 10
54.1028229816
 20
66.4324424268
 30
0.0
 40
15.0
100
AcDbArc
 50
16.6587953861
 51
59.5509966022
  0
LWPOLYLINE
  5
12F
330
1F
100
AcDbEntity
  8
0
  6
Continuous
 62
     7
370
    30
100
AcDbPolyline
 90
        9
 70
   128
 43
0.0
 10
60.1660232278
 20
86.9318392263
 10
60.2576392921
 20
86.9653277234
 10
60.3457349571
 20
86.9975291328
 10
60.4269257965
 20
87.0272047953
 10
60.4980881544
 20
87.0532166348
 10
60.5564895304
 20
87.0745644109
 10
60.5998872998
 20
87.0904285596
 10
60.6266106697
 20
87.1001962708
 10
60.6356333228
 20
87.1034950153
  0
ARC
  5
130
330
1F
100
AcDbEntity
  8
0
  6
Continuous
 62
     7
370
    30
100
AcDbCircle
 10
64.3925207102
 20
88.4767392759
 30
0.0
 40
4.000000000000005
100
AcDbArc
 50
200.0787442879
 51
233.6553296616
  0
LWPOLYLINE
  5
131
330
1F
100
AcDbEntity
  8
0
  6
Continuous
 62
     7
370
    30
100
AcDbPolyline
 90
        9
 70
   128
 43
0.0
 10
58.0803374978
 20
89.0175249563
 10
58.113825995
 20
89.1091410206
 10
58.1460274043
 20
89.1972366856
 10
58.1757030668
 20
89.278427525
 10
58.2017149063
 20
89.3495898829
 10
58.2230626824
 20
89.4079912589
 10
58.2389268311
 20
89.4513890282
 10
58.2486945423
 20
89.4781123982
 10
58.2519932868
 20
89.4871350513
  0
ARC
  5
132
330
1F
100
AcDbEntity
  8
0
  6
Continuous
 62
     7
370
    30
100
AcDbCircle
 10
56.8787472775
 20
85.730249006
 30
0.0
 40
4.000000000000012
100
AcDbArc
 50
20.0787442879
 51
69.9212557121
  0
ARC
  5
133
330
1F
100
AcDbEntity
  8
0
  6
Continuous
 62
     7
370
    30
100
AcDbCircle
 10
59.6252375474
 20
93.2440224387
 30
0.0
 40
4.00000000000001
100
AcDbArc
 50
216.3446703384
 51
249.9212557121
  0
LWPOLYLINE
  5
134
330
1F
100
AcDbEntity
  8
0
  6
Continuous
 62
     7
370
    30
100
AcDbPolyline
 90
        9
 70
   128
 43
0.0
 10
98.9320012959
 20
90.8734571324
 10
98.9304534378
 20
90.8745952086
 10
98.9258713307
 20
90.8779684589
 10
98.9184263381
 20
90.8834446357
 10
98.9084108951
 20
90.8908151225
 10
98.8962049814
 20
90.8997958661
 10
98.8822779836
 20
90.9100422771
 10
98.8671682062
 20
90.9211594747
 10
98.8514549317
 20
90.9327209131
  0
ARC
  5
135
330
1F
100
AcDbEntity
  8
0
  6
Continuous
 62
     7
370
    30
100
AcDbCircle
 10
77.6676866444
 20
106.5191883729
 30
0.0
 40
26.30000000000001
100
AcDbArc
 50
323.6553296616
 51
216.3446703384
  0
LWPOLYLINE
  5
136
330
1F
100
AcDbEntity
  8
0
  6
Continuous
 62
     7
370
    30
100
AcDbPolyline
 90
        9
 70
   128
 43
0.0
 10
56.4033719929
 20
90.8734571324
 10
56.404919851
 20
90.8745952086
 10
56.4095019581
 20
90.8779684589
 10
56.4169469508
 20
90.8834446357
 10
56.4269623937
 20
90.8908151225
 10
56.4391683074
 20
90.8997958661
 10
56.4530953052
 20
90.9100422771
 10
56.4682050826
 20
90.9211594747
 10
56.4839183571
 20
90.9327209131
  0
LWPOLYLINE
  5
137
330
1F
100
AcDbEntity
  8
0
  6
Continuous
 62
     7
370
    30
100
AcDbPolyline
 90
        9
 70
   128
 43
0.0
 10
97.083380002
 20
89.4871350513
 10
97.0827206256
 20
89.4889399545
 10
97.0807667109
 20
89.494285746
 10
97.0775946262
 20
89.5029638098
 10
97.0733254435
 20
89.5146444575
 10
97.0681230756
 20
89.5288769291
 10
97.0621868255
 20
89.5451154695
 10
97.0557476612
 20
89.56273423
 10
97.0490495893
 20
89.5810570703
  0
ARC
  5
138
330
1F
100
AcDbEntity
  8
0
  6
Continuous
 62
     7
370
    30
100
AcDbCircle
 10
95.7101357415
 20
93.2440224387
 30
0.0
 40
3.900000000000006
100
AcDbArc
 50
290.0787442879
 51
323.6553296616
  0
LWPOLYLINE
  5
139
330
1F
100
AcDbEntity
  8
0
  6
Continuous
 62
     7
370
    30
100
AcDbPolyline
 90
        9
 70
   128
 43
0.0
 10
94.699739966
 20
87.1034950153
 10
94.6979350629
 20
87.1041543917
 10
94.6925892713
 20
87.1061083065
 10
94.6839112075
 20
87.1092803912
 10
94.6722305598
 20
87.1135495738
 10
94.6579980882
 20
87.1187519417
 10
94.6417595478
 20
87.1246881918
 10
94.6241407873
 20
87.1311273561
 10
94.605817947
 20
87.1378254281
  0
ARC
  5
13A
330
1F
100
AcDbEntity
  8
0
  6
Continuous
 62
     7
370
    30
100
AcDbCircle
 10
98.4566260113
 20
85.730249006
 30
0.0
 40
4.100000000000009
100
AcDbArc
 50
110.0787442879
 51
159.9212557121
  0
ARC
  5
13B
330
1F
100
AcDbEntity
  8
0
  6
Continuous
 62
     7
370
    30
100
AcDbCircle
 10
90.9428525786
 20
88.4767392759
 30
0.0
 40
3.900000000000003
100
AcDbArc
 50
306.3446703384
 51
339.9212557121
  0
LWPOLYLINE
  5
13C
330
1F
100
AcDbEntity
  8
0
  6
Continuous
 62
     7
370
    30
100
AcDbPolyline
 90
        9
 70
   128
 43
0.0
 10
93.2541541042
 20
85.3354200856
 10
93.2657155427
 20
85.3197068111
 10
93.2768327402
 20
85.3045970337
 10
93.2870791512
 20
85.2906700359
 10
93.2960598948
 20
85.2784641222
 10
93.3034303816
 20
85.2684486793
 10
93.3089065584
 20
85.2610036866
 10
93.3122798087
 20
85.2564215795
 10
93.3134178849
 20
85.2548737214
  0
ARC
  5
13D
330
1F
100
AcDbEntity
  8
0
  6
Continuous
 62
     7
370
    30
100
AcDbCircle
 10
77.6676866444
 20
106.5191883729
 30
0.0
 40
26.30000000000001
100
AcDbArc
 50
233.6553296616
 51
306.3446703384
  0
LWPOLYLINE
  5
13E
330
1F
100
AcDbEntity
  8
0
  6
Continuous
 62
     7
370
    30
100
AcDbPolyline
 90
        9
 70
   128
 43
0.0
 10
62.0812191846
 20
85.3354200856
 10
62.0696577462
 20
85.3197068111
 10
62.0585405486
 20
85.3045970337
 10
62.0482941376
 20
85.2906700359
 10
62.0393133941
 20
85.2784641222
 10
62.0319429072
 20
85.2684486793
 10
62.0264667305
 20
85.2610036866
 10
62.0230934801
 20
85.2564215795
 10
62.0219554039
 20
85.2548737214
  0
ARC
  5
13F
330
1F
100
AcDbEntity
  8
0
  6
Continuous
 62
     7
370
    30
100
AcDbCircle
 10
64.3925207102
 20
88.4767392759
 30
0.0
 40
3.90000000000001
100
AcDbArc
 50
200.0787442879
 51
233.6553296616
  0
LWPOLYLINE
  5
140
330
1F
100
AcDbEntity
  8
0
  6
Continuous
 62
     7
370
    30
100
AcDbPolyline
 90
        9
 70
   128
 43
0.0
 10
60.7295553418
 20
87.1378254281
 10
60.7112325015
 20
87.1311273561
 10
60.693613741
 20
87.1246881918
 10
60.6773752006
 20
87.1187519417
 10
60.663142729
 20
87.1135495738
 10
60.6514620813
 20
87.1092803912
 10
60.6427840175
 20
87.1061083065
 10
60.637438226
 20
87.1041543917
 10
60.6356333228
 20
87.1034950153
  0
ARC
  5
141
330
1F
100
AcDbEntity
  8
0
  6
Continuous
 62
     7
370
    30
100
AcDbCircle
 10
56.8787472775
 20
85.730249006
 30
0.0
 40
4.100000000000011
100
AcDbArc
 50
20.0787442879
 51
69.9212557121
  0
LWPOLYLINE
  5
142
330
1F
100
AcDbEntity
  8
0
  6
Continuous
 62
     7
370
    30
100
AcDbPolyline
 90
        9
 70
   128
 43
0.0
 10
58.2863236996
 20
89.5810570703
 10
58.2796256276
 20
89.56273423
 10
58.2731864633
 20
89.5451154695
 10
58.2672502132
 20
89.5288769291
 10
58.2620478453
 20
89.5146444575
 10
58.2577786627
 20
89.5029638098
 10
58.254606578
 20
89.494285746
 10
58.2526526632
 20
89.4889399545
 10
58.2519932868
 20
89.4871350513
  0
ARC
  5
143
330
1F
100
AcDbEntity
  8
0
  6
Continuous
 62
     7
370
    30
100
AcDbCircle
 10
59.6252375474
 20
93.2440224387
 30
0.0
 40
3.9
100
AcDbArc
 50
216.3446703384
 51
249.9212557121
  0
CIRCLE
  5
144
330
1F
100
AcDbEntity
  8
0
  6
Continuous
 62
     7
370
    30
100
AcDbCircle
 10
77.6676866444
 20
106.5191883729
 30
0.0
 40
24.20000000000001
  0
CIRCLE
  5
145
330
1F
100
AcDbEntity
  8
0
  6
Continuous
 62
     7
370
    30
100
AcDbCircle
 10
77.6676866444
 20
106.5191883729
 30
0.0
 40
24.00000000000001
  0
CIRCLE
  5
146
330
1F
100
AcDbEntity
  8
SLD-0
  6
CENTERX2
100
AcDbCircle
 10
77.6676866444
 20
106.5191883729
 30
0.0
 40
25.4
  0
POINT
  5
147
330
1F
100
AcDbEntity
  8
SLD-0
 62
     7
370
     0
100
AcDbPoint
 10
46.1676866444
 20
106.5191883729
 30
0.0
  0
POINT
  5
148
330
1F
100
AcDbEntity
  8
SLD-0
 62
     7
370
     0
100
AcDbPoint
 10
109.1676866444
 20
106.5191883729
 30
0.0
  0
DIMENSION
  5
149
330
1F
100
AcDbEntity
  8
SLD-0
 62
     7
100
AcDbDimension
  2
_D
 10
93.297141145
 20
86.4971966634
 30
0.0
 11
40.5745602781
 21
143.1370016358
 31
0.0
 70
   163
  1
ACCEPTS\P%%c2" OPTICS
 71
     1
 42
-1.0
  3
SLDDIMSTYLE0
100
AcDbDiametricDimension
 15
62.0382321439
 25
126.5411800824
 35
0.0
 40
0.0
  0
DIMENSION
  5
154
330
1F
100
AcDbEntity
  8
SLD-0
 62
     7
100
AcDbDimension
  2
_D_1
 10
46.1676866444
 20
57.2094479653
 30
0.0
 11
77.6676866444
 21
57.2094479653
 31
0.0
 70
   160
  1
<>
 71
     2
 42
-1.0
  3
SLDDIMSTYLE1
100
AcDbAlignedDimension
 13
109.1676866444
 23
106.5191883729
 33
0.0
 14
46.1676866444
 24
106.5191883729
 34
0.0
 50
0.0
100
AcDbRotatedDimension
  0
DIMENSION
  5
15F
330
1F
100
AcDbEntity
  8
SLD-0
100
AcDbDimension
  2
_D_2
 10
118.3226841993
 20
106.5191883729
 30
0.0
 11
118.3226841993
 21
88.2691883729
 31
0.0
 70
   160
  1
<>
 71
     2
 42
-1.0
  3
SLDDIMSTYLE1
100
AcDbAlignedDimension
 13
85.9040878395
 23
70.0191883729
 33
0.0
 14
105.5676866444
 24
106.5191883729
 34
0.0
 50
90.0
100
AcDbRotatedDimension
  0
DIMENSION
  5
169
330
1F
100
AcDbEntity
  8
SLD-0
100
AcDbDimension
  2
_D_3
 10
127.012916298
 20
70.0191883729
 30
0.0
 11
127.012916298
 21
103.5191883729
 31
0.0
 70
   160
  1
<>
 71
     2
 42
-1.0
  3
SLDDIMSTYLE1
100
AcDbAlignedDimension
 13
85.5416945184
 23
137.0191883729
 33
0.0
 14
85.9040878395
 24
70.0191883729
 34
0.0
 50
90.0
100
AcDbRotatedDimension
  0
INSERT
  5
17E
330
1F
100
AcDbEntity
  8
SLD-0
100
AcDbBlockReference
  2
SW_CENTERMARKSYMBOL_0
 10
77.6676866444
 20
106.5191883729
 30
0.0
  0
LINE
  5
17F
330
1F
100
AcDbEntity
  8
0
  6
Continuous
 62
     7
370
     0
100
AcDbLine
 10
77.6676866444
 20
132.9191882299
 30
0.0
 11
78.3286242149
 21
132.9109143601
 31
0.0
  0
LINE
  5
180
330
1F
100
AcDbEntity
  8
0
  6
Continuous
 62
     7
370
    30
100
AcDbLine
 10
161.3100558854
 20
79.3636512147
 30
0.0
 11
161.3100558854
 21
137.0191887156
 31
0.0
  0
SPLINE
  5
181
330
1F
100
AcDbEntity
  8
0
  6
Continuous
 62
     7
370
    30
100
AcDbSpline
210
0.0
220
0.0
230
1.0
 70
     8
 71
     3
 72
    10
 73
     6
 74
     0
 42
0.000000001
 43
0.00000001
 40
0.0
 40
0.0
 40
0.0
 40
0.0
 40
0.5
 40
0.5
 40
1.0
 40
1.0
 40
1.0
 40
1.0
 10
161.3100554234961
 20
137.0191883729042
 30
0.0
 10
161.4426547271604
 20
137.0191883729042
 30
0.0
 10
161.5721789354448
 20
136.9644824058257
 30
0.0
 10
161.7562334410879
 20
136.7798043507138
 30
0.0
 10
161.8100554234961
 20
136.64884627409
 30
0.0
 10
161.8100554234961
 20
136.5191883729042
 30
0.0
  0
LINE
  5
182
330
1F
100
AcDbEntity
  8
0
  6
Continuous
 62
     7
370
    30
100
AcDbLine
 10
161.8100550361
 20
136.5191877024
 30
0.0
 11
161.8100550361
 21
79.7946915166
 31
0.0
  0
ARC
  5
183
330
1F
100
AcDbEntity
  8
0
  6
Continuous
 62
     7
370
    30
100
AcDbCircle
 10
161.342159353
 20
79.8319270089
 30
0.0
 40
0.4693749589693187
100
AcDbArc
 50
266.0781240697
 51
355.4499476727
  0
LINE
  5
184
330
1F
100
AcDbEntity
  8
0
  6
Continuous
 62
     7
370
    30
100
AcDbLine
 10
161.3100558854
 20
79.3636512147
 30
0.0
 11
153.3100554472
 21
79.3636512147
 31
0.0
  0
LINE
  5
185
330
1F
100
AcDbEntity
  8
0
  6
Continuous
 62
     7
370
    30
100
AcDbLine
 10
153.3100554472
 20
137.0191887156
 30
0.0
 11
153.3100554472
 21
79.3636512147
 31
0.0
  0
LINE
  5
186
330
1F
100
AcDbEntity
  8
0
  6
Continuous
 62
     7
370
    30
100
AcDbLine
 10
161.3100558854
 20
137.0191887156
 30
0.0
 11
153.3100554472
 21
137.0191887156
 31
0.0
  0
ARC
  5
187
330
1F
100
AcDbEntity
  8
0
  6
Continuous
 62
     7
370
    30
100
AcDbCircle
 10
153.2779524397
 20
79.8319284903
 30
0.0
 40
0.4693764054541685
100
AcDbArc
 50
184.5502196812
 51
273.9218075363
  0
LINE
  5
188
330
1F
100
AcDbEntity
  8
0
  6
Continuous
 62
     7
370
    30
100
AcDbLine
 10
152.8100554235
 20
79.7946915166
 30
0.0
 11
152.8100554235
 21
136.5191877024
 31
0.0
  0
SPLINE
  5
189
330
1F
100
AcDbEntity
  8
0
  6
Continuous
 62
     7
370
    30
100
AcDbSpline
210
0.0
220
0.0
230
1.0
 70
     8
 71
     3
 72
    10
 73
     6
 74
     0
 42
0.000000001
 43
0.00000001
 40
0.0
 40
0.0
 40
0.0
 40
0.0
 40
0.5
 40
0.5
 40
1.0
 40
1.0
 40
1.0
 40
1.0
 10
153.3100554234961
 20
137.0191883729042
 30
0.0
 10
153.1774561198318
 20
137.0191883729042
 30
0.0
 10
153.0479319115474
 20
136.9644824058257
 30
0.0
 10
152.8638774059043
 20
136.7798043507138
 30
0.0
 10
152.8100554234961
 20
136.6488462740902
 30
0.0
 10
152.8100554234961
 20
136.5191883729042
 30
0.0
  0
LINE
  5
18A
330
1F
100
AcDbEntity
  8
0
  6
Continuous
 62
     7
370
    30
100
AcDbLine
 10
161.3100558854
 20
70.7325149463
 30
0.0
 11
161.3100558854
 21
79.3636512147
 31
0.0
  0
LWPOLYLINE
  5
18B
330
1F
100
AcDbEntity
  8
0
  6
Continuous
 62
     7
370
    30
100
AcDbPolyline
 90
        9
 70
   128
 43
0.0
 10
161.3100558854
 20
70.7325149463
 10
161.4076007493
 20
70.7352716611
 10
161.5013970397
 20
70.7434263216
 10
161.5878405384
 20
70.7566734539
 10
161.6636092178
 20
70.7744989679
 10
161.7257899008
 20
70.7962211357
 10
161.7719956077
 20
70.8210017667
 10
161.8004484437
 20
70.8478909121
 10
161.8100550361
 20
70.8758529411
  0
LINE
  5
18C
330
1F
100
AcDbEntity
  8
0
  6
Continuous
 62
     7
370
    30
100
AcDbLine
 10
161.8100550361
 20
79.7946915166
 30
0.0
 11
161.8100550361
 21
70.8758529411
 31
0.0
  0
LINE
  5
18D
330
1F
100
AcDbEntity
  8
0
  6
Continuous
 62
     7
370
    30
100
AcDbLine
 10
153.3100554472
 20
79.3636512147
 30
0.0
 11
153.3100554472
 21
70.7325149463
 31
0.0
  0
LINE
  5
18E
330
1F
100
AcDbEntity
  8
0
  6
Continuous
 62
     7
370
    30
100
AcDbLine
 10
161.3100558854
 20
70.7325149463
 30
0.0
 11
153.3100554472
 21
70.7325149463
 31
0.0
  0
LWPOLYLINE
  5
18F
330
1F
100
AcDbEntity
  8
0
  6
Continuous
 62
     7
370
    30
100
AcDbPolyline
 90
        9
 70
   128
 43
0.0
 10
152.8100554235
 20
70.8758529411
 10
152.8196627835
 20
70.8478909121
 10
152.8481156558
 20
70.8210017667
 10
152.8943206169
 20
70.7962211357
 10
152.9565020275
 20
70.7744989679
 10
153.032270314
 20
70.7566734539
 10
153.1187137109
 20
70.7434263216
 10
153.2125102633
 20
70.7352716611
 10
153.3100554472
 20
70.7325149463
  0
LINE
  5
190
330
1F
100
AcDbEntity
  8
0
  6
Continuous
 62
     7
370
    30
100
AcDbLine
 10
152.8100554235
 20
70.8758529411
 30
0.0
 11
152.8100554235
 21
79.7946915166
 31
0.0
  0
ARC
  5
191
330
1F
100
AcDbEntity
  8
0
  6
Continuous
 62
     7
370
    30
100
AcDbCircle
 10
161.3100554235
 20
70.5191883729
 30
0.0
 40
0.5000000000000142
100
AcDbArc
 50
270.0
 51
0.0
  0
LINE
  5
192
330
1F
100
AcDbEntity
  8
0
  6
Continuous
 62
     7
370
    30
100
AcDbLine
 10
161.3100558854
 20
70.0191889093
 30
0.0
 11
161.3100558854
 21
70.7325149463
 31
0.0
  0
LINE
  5
193
330
1F
100
AcDbEntity
  8
0
  6
Continuous
 62
     7
370
    30
100
AcDbLine
 10
161.8100550361
 20
70.8758529411
 30
0.0
 11
161.8100550361
 21
70.5191899226
 31
0.0
  0
LINE
  5
194
330
1F
100
AcDbEntity
  8
0
  6
Continuous
 62
     7
370
    30
100
AcDbLine
 10
153.3100554472
 20
70.7325149463
 30
0.0
 11
153.3100554472
 21
70.0191889093
 31
0.0
  0
LINE
  5
195
330
1F
100
AcDbEntity
  8
0
  6
Continuous
 62
     7
370
    30
100
AcDbLine
 10
161.3100558854
 20
70.0191889093
 30
0.0
 11
153.3100554472
 21
70.0191889093
 31
0.0
  0
ARC
  5
196
330
1F
100
AcDbEntity
  8
0
  6
Continuous
 62
     7
370
    30
100
AcDbCircle
 10
153.3100554235
 20
70.5191883729
 30
0.0
 40
0.5
100
AcDbArc
 50
180.0
 51
270.0
  0
LINE
  5
197
330
1F
100
AcDbEntity
  8
0
  6
Continuous
 62
     7
370
    30
100
AcDbLine
 10
152.8100554235
 20
70.5191899226
 30
0.0
 11
152.8100554235
 21
70.8758529411
 31
0.0
  0
LINE
  5
198
330
1F
100
AcDbEntity
  8
SLD-0
  6
HIDDEN
 62
     7
370
     0
100
AcDbLine
 10
154.8100554235
 20
77.0191883729
 30
0.0
 11
159.8100554235
 21
77.0191883729
 31
0.0
  0
LINE
  5
199
330
1F
100
AcDbEntity
  8
SLD-0
  6
HIDDEN
 62
     7
370
     0
100
AcDbLine
 10
159.8100554235
 20
77.0191883729
 30
0.0
 11
157.3100554235
 21
78.5213399205
 31
0.0
  0
LINE
  5
19A
330
1F
100
AcDbEntity
  8
SLD-0
  6
HIDDEN
 62
     7
370
     0
100
AcDbLine
 10
157.3100554235
 20
78.5213399205
 30
0.0
 11
154.8100554235
 21
77.0191883729
 31
0.0
  0
LINE
  5
19B
330
1F
100
AcDbEntity
  8
SLD-0
  6
HIDDEN
 62
     7
370
     0
100
AcDbLine
 10
154.8100554235
 20
77.0191883729
 30
0.0
 11
154.8100554235
 21
70.0191883729
 31
0.0
  0
LINE
  5
19C
330
1F
100
AcDbEntity
  8
SLD-0
  6
HIDDEN
 62
     7
370
     0
100
AcDbLine
 10
159.8100554235
 20
77.0191883729
 30
0.0
 11
159.8100554235
 21
70.0191883729
 31
0.0
  0
DIMENSION
  5
19D
330
1F
100
AcDbEntity
  8
SLD-0
 62
     7
100
AcDbDimension
  2
_D_4
 10
161.8100554235
 20
56.6363014116
 30
0.0
 11
157.3100554235
 21
56.6363014116
 31
0.0
 70
   160
  1
<>
 71
     2
 42
-1.0
  3
SLDDIMSTYLE1
100
AcDbAlignedDimension
 13
152.8100554235
 23
70.5191883729
 33
0.0
 14
161.8100554235
 24
70.5191883729
 34
0.0
100
AcDbRotatedDimension
  0
DIMENSION
  5
1A7
330
1F
100
AcDbEntity
  8
SLD-0
 62
     7
100
AcDbDimension
  2
_D_5
 10
157.3100554235
 20
63.0191883729
 30
0.0
 11
148.7446094089
 21
63.0191883729
 31
0.0
 70
   160
  1
<>
 71
     2
 42
-1.0
  3
SLDDIMSTYLE2
100
AcDbAlignedDimension
 13
152.8100554235
 23
70.5191883729
 33
0.0
 14
157.3100554235
 24
68.5191883729
 34
0.0
100
AcDbRotatedDimension
  0
INSERT
  5
1BF
330
1F
100
AcDbEntity
  8
SLD-0
 62
     7
100
AcDbBlockReference
  2
SW_NOTE_2
 10
169.0504807692
 20
56.0096153846
 30
0.0
  0
LEADER
  5
1C1
330
1F
100
AcDbEntity
  8
SLD-0
 62
     7
100
AcDbLeader
  3
SLDDIMSTYLE3
 76
     2
 10
156.9573227222
 20
70.0191883729
 30
0.0
 10
169.0504807692
 20
56.0096153846
 30
0.0
  0
LINE
  5
1C2
330
1F
100
AcDbEntity
  8
SLD-0
  6
CENTERX2
 62
     7
370
     0
100
AcDbLine
 10
157.3100554235
 20
138.5191883729
 30
0.0
 11
157.3100554235
 21
68.5191883729
 31
0.0
  0
SPLINE
  5
1C3
330
1F
100
AcDbEntity
  8
0
  6
Continuous
 62
     7
370
    30
100
AcDbSpline
210
0.0
220
0.0
230
1.0
 70
     8
 71
     3
 72
    10
 73
     6
 74
     0
 42
0.000000001
 43
0.00000001
 40
0.0
 40
0.0
 40
0.0
 40
0.0
 40
0.2665350935751378
 40
0.7651806133214207
 40
1.0
 40
1.0
 40
1.0
 40
1.0
 10
243.6209808479142
 20
116.0898402159965
 30
0.0
 10
243.8099759868194
 20
116.1119699675797
 30
0.0
 10
244.352551504221
 20
116.1755010270809
 30
0.0
 10
245.0465271014533
 20
116.3004501557276
 30
0.0
 10
245.5320372996654
 20
116.4455340001537
 30
0.0
 10
245.6874737847265
 20
116.4919827110145
 30
0.0
  0
LINE
  5
1C4
330
1F
100
AcDbEntity
  8
0
  6
Continuous
 62
     7
370
    30
100
AcDbLine
 10
248.2106093025
 20
117.5412347555
 30
0.0
 11
253.867463552
 21
120.8068672028
 31
0.0
  0
SPLINE
  5
1C5
330
1F
100
AcDbEntity
  8
0
  6
Continuous
 62
     7
370
    30
100
AcDbSpline
210
0.0
220
0.0
230
1.0
 70
     8
 71
     3
 72
    44
 73
    40
 74
     0
 42
0.000000001
 43
0.00000001
 40
0.0
 40
0.0
 40
0.0
 40
0.0
 40
0.0052209233151453
 40
0.0328767366772943
 40
0.0605847381961974
 40
0.0883547118444291
 40
0.1161893592193595
 40
0.1440853726505323
 40
0.1720352386839546
 40
0.2000291990059395
 40
0.22805693523506
 40
0.2561087632022013
 40
0.2841763163666686
 40
0.3122528143878089
 40
0.3403330518315995
 40
0.3684123259558927
 40
0.3964882674629569
 40
0.4245594522897521
 40
0.4526251072311586
 40
0.4806849399084386
 40
0.5087390048855985
 40
0.5367876016726545
 40
0.5648311990559653
 40
0.5928703802542656
 40
0.620905804061938
 40
0.6489381779866414
 40
0.6769682402063889
 40
0.7049967478720041
 40
0.7330244698377596
 40
0.7610521823179384
 40
0.7890804985399249
 40
0.8171101101933698
 40
0.8451418026451636
 40
0.8731763595116816
 40
0.9012145574752257
 40
0.9292571577103831
 40
0.9573048922375491
 40
0.9853584430646942
 40
1.0
 40
1.0
 40
1.0
 40
1.0
 10
256.0079134773979
 20
122.4318289916082
 30
0.0
 10
256.0558459238476
 20
122.4749915845927
 30
0.0
 10
256.357681887547
 20
122.7467912487906
 30
0.0
 10
256.8608152376099
 20
123.3214471161919
 30
0.0
 10
257.5118800306878
 20
124.1572816210447
 30
0.0
 10
258.1000744879037
 20
125.0718077886358
 30
0.0
 10
258.6296904285809
 20
126.0538526880274
 30
0.0
 10
259.0973425874917
 20
127.1029111446997
 30
0.0
 10
259.5019136364697
 20
128.2152126286312
 30
0.0
 10
259.8419393880694
 20
129.3874975899663
 30
0.0
 10
260.1163511305425
 20
130.6160551017011
 30
0.0
 10
260.3242938583803
 20
131.8970405352262
 30
0.0
 10
260.4651751994716
 20
133.2264437405226
 30
0.0
 10
260.538641387949
 20
134.6001398253156
 30
0.0
 10
260.5445679934562
 20
136.0138906370626
 30
0.0
 10
260.4830495053194
 20
137.4633786528563
 30
0.0
 10
260.3543877616908
 20
138.9442181186282
 30
0.0
 10
260.1590792605401
 20
140.4519792205834
 30
0.0
 10
259.8978091730532
 20
141.9821743862745
 30
0.0
 10
259.5714472289644
 20
143.5302643819082
 30
0.0
 10
259.1810443364494
 20
145.0916669195858
 30
0.0
 10
258.7278295216127
 20
146.6617663463456
 30
0.0
 10
258.2132068346978
 20
148.2359243355822
 30
0.0
 10
257.6387519732102
 20
149.8094914306461
 30
0.0
 10
257.0062084585167
 20
151.3778192620227
 30
0.0
 10
256.3174832683942
 20
152.9362732641135
 30
0.0
 10
255.5746418700789
 20
154.4802457117471
 30
0.0
 10
254.7799026486548
 20
156.0051689792973
 30
0.0
 10
253.9356306825143
 20
157.5065286935554
 30
0.0
 10
253.0443328564277
 20
158.9798744525587
 30
0.0
 10
252.1086497101726
 20
160.4208328090637
 30
0.0
 10
251.1313483466683
 20
161.8251282229423
 30
0.0
 10
250.1153055223049
 20
163.1885746658504
 30
0.0
 10
249.0635229060049
 20
164.5071738680819
 30
0.0
 10
247.9790311844692
 20
165.7767972549287
 30
0.0
 10
246.8652083201598
 20
166.9944205711404
 30
0.0
 10
245.7245467978678
 20
168.153565293385
 30
0.0
 10
244.7483701943816
 20
169.0847392380661
 30
0.0
 10
244.1485592466119
 20
169.6102511170805
 30
0.0
 10
243.9428643414473
 20
169.7904664274523
 30
0.0
  0
SPLINE
  5
1C6
330
1F
100
AcDbEntity
  8
0
  6
Continuous
 62
     7
370
    30
100
AcDbSpline
210
0.0
220
0.0
230
1.0
 70
     8
 71
     3
 72
    44
 73
    40
 74
     0
 42
0.000000001
 43
0.00000001
 40
0.0
 40
0.0
 40
0.0
 40
0.0
 40
0.0132250869592331
 40
0.0418345540764469
 40
0.070334686006887
 40
0.0987228671812743
 40
0.1270110154145977
 40
0.1552184057507007
 40
0.1833659461798923
 40
0.2114727219504821
 40
0.2395544524112403
 40
0.2676231788225913
 40
0.2956875940810766
 40
0.3237521955423437
 40
0.3518211307557955
 40
0.3798970600604762
 40
0.407981350913482
 40
0.4360744573478198
 40
0.4641762045630091
 40
0.4922859954979399
 40
0.520402956772426
 40
0.5485260391924339
 40
0.5766540850949858
 40
0.604785872016829
 40
0.6329201398338501
 40
0.6610556067104059
 40
0.689190942017705
 40
0.7173244460158216
 40
0.7454548123290778
 40
0.7735807367313086
 40
0.8017009271974066
 40
0.8298141221785089
 40
0.8579191213402972
 40
0.8860148345936404
 40
0.9141003572254003
 40
0.942175081450264
 40
0.9702388576304481
 40
0.9968203681187421
 40
1.0
 40
1.0
 40
1.0
 40
1.0
 10
222.2294955838865
 20
166.3409825272592
 30
0.0
 10
222.3566289240943
 20
166.37997847833
 30
0.0
 10
222.7587863248162
 20
166.5033332985186
 30
0.0
 10
223.4792148123294
 20
166.6211936736775
 30
0.0
 10
224.3841044459937
 20
166.6973216964578
 30
0.0
 10
225.3224527864844
 20
166.6836299507243
 30
0.0
 10
226.2876787081343
 20
166.5863616186405
 30
0.0
 10
227.2770329738636
 20
166.4044847995903
 30
0.0
 10
228.2867250871154
 20
166.1391509678566
 30
0.0
 10
229.3131303831158
 20
165.791187958984
 30
0.0
 10
230.3524192289088
 20
165.3618126341452
 30
0.0
 10
231.4006481663328
 20
164.8524876465451
 30
0.0
 10
232.4537380594877
 20
164.2650057354427
 30
0.0
 10
233.5075331048942
 20
163.6014835472757
 30
0.0
 10
234.5578345954384
 20
162.8643645475111
 30
0.0
 10
235.6004495693695
 20
162.0563959879036
 30
0.0
 10
236.6311958887333
 20
161.1806323380785
 30
0.0
 10
237.6459260984371
 20
160.2404238782199
 30
0.0
 10
238.6405519353254
 20
159.2394004378099
 30
0.0
 10
239.6110661928572
 20
158.1814535269824
 30
0.0
 10
240.5535623477633
 20
157.0707175490672
 30
0.0
 10
241.4642523703297
 20
155.9115504686873
 30
0.0
 10
242.3394830755568
 20
154.7085141425205
 30
0.0
 10
243.1757512985097
 20
153.4663544117659
 30
0.0
 10
243.969718106125
 20
152.1899809967091
 30
0.0
 10
244.7182218809159
 20
150.8844477589656
 30
0.0
 10
245.4182881411142
 20
149.5549379544479
 30
0.0
 10
246.0671460124879
 20
148.2067376479391
 30
0.0
 10
246.6622401290759
 20
146.845213788619
 30
0.0
 10
247.201243574172
 20
145.4757867225858
 30
0.0
 10
247.6820648044709
 20
144.1039149957399
 30
0.0
 10
248.1028583351751
 20
142.7350727729683
 30
0.0
 10
248.4620311831962
 20
141.3747293345064
 30
0.0
 10
248.758262477745
 20
140.0283180084515
 30
0.0
 10
248.9904708695713
 20
138.701240835046
 30
0.0
 10
249.1579727658797
 20
137.3987351139632
 30
0.0
 10
249.2581411716532
 20
136.1484946075743
 30
0.0
 10
249.2850683678807
 20
135.2970621746714
 30
0.0
 10
249.2859149546243
 20
134.8667485555131
 30
0.0
 10
249.2860054025703
 20
134.8207745507042
 30
0.0
  0
SPLINE
  5
1C7
330
1F
100
AcDbEntity
  8
0
  6
Continuous
 62
     7
370
    30
100
AcDbSpline
210
0.0
220
0.0
230
1.0
 70
     8
 71
     3
 72
    19
 73
    15
 74
     0
 42
0.000000001
 43
0.00000001
 40
0.0
 40
0.0
 40
0.0
 40
0.0
 40
0.0497092154026632
 40
0.1443314204790054
 40
0.2389461843935803
 40
0.3335635840586149
 40
0.4282104831472528
 40
0.5229256852598858
 40
0.6177606840695059
 40
0.7127793430388668
 40
0.8080540390719697
 40
0.9036561187299801
 40
0.9996391046559173
 40
1.0
 40
1.0
 40
1.0
 40
1.0
 10
249.2860054025703
 20
134.8207745507042
 30
0.0
 10
249.2841922160068
 20
134.6091397993269
 30
0.0
 10
249.2789276027919
 20
133.9946552607641
 30
0.0
 10
249.2204387851584
 20
133.0090833794149
 30
0.0
 10
249.0895605647602
 20
131.8833608336418
 30
0.0
 10
248.893896049691
 20
130.8096272738643
 30
0.0
 10
248.6356228064105
 20
129.7912834341923
 30
0.0
 10
248.3156437591938
 20
128.8322801596683
 30
0.0
 10
247.9355754616844
 20
127.9357076311509
 30
0.0
 10
247.4963179169935
 20
127.1054739027053
 30
0.0
 10
247.0014226129697
 20
126.3410552177937
 30
0.0
 10
246.4446420144437
 20
125.6571220376589
 30
0.0
 10
246.0525342767756
 20
125.2260223496139
 30
0.0
 10
245.8329732849342
 20
125.0452853466513
 30
0.0
 10
245.8321508295934
 20
125.0446083224126
 30
0.0
  0
SPLINE
  5
1C8
330
1F
100
AcDbEntity
  8
0
  6
Continuous
 62
     7
370
    30
100
AcDbSpline
210
0.0
220
0.0
230
1.0
 70
     8
 71
     3
 72
    18
 73
    14
 74
     0
 42
0.000000001
 43
0.00000001
 40
0.0
 40
0.0
 40
0.0
 40
0.0
 40
0.0375771081390498
 40
0.1435334977312254
 40
0.249473529823456
 40
0.3553986153539496
 40
0.4613119509741986
 40
0.5672192206856843
 40
0.6731267140912126
 40
0.7790455909485134
 40
0.8849925322557186
 40
0.9909896913489264
 40
1.0
 40
1.0
 40
1.0
 40
1.0
 10
216.0729142880302
 20
150.9552594913355
 30
0.0
 10
216.0473180739739
 20
151.1118173030569
 30
0.0
 10
215.9495480668039
 20
151.7098220837964
 30
0.0
 10
215.8468150482591
 20
152.7240720523351
 30
0.0
 10
215.765476248285
 20
153.9914023210705
 30
0.0
 10
215.7546431579215
 20
155.2213668399091
 30
0.0
 10
215.8087544183108
 20
156.4110667098434
 30
0.0
 10
215.9288258874373
 20
157.5554809302233
 30
0.0
 10
216.114455311533
 20
158.6496386473425
 30
0.0
 10
216.3627539594414
 20
159.6916921902967
 30
0.0
 10
216.680680235358
 20
160.6686220802189
 30
0.0
 10
216.9281487071902
 20
161.3230485698924
 30
0.0
 10
217.0861472228626
 20
161.6312556492598
 30
0.0
 10
217.0985256833273
 20
161.6554022631103
 30
0.0
  0
SPLINE
  5
1C9
330
1F
100
AcDbEntity
  8
0
  6
Continuous
 62
     7
370
    30
100
AcDbSpline
210
0.0
220
0.0
230
1.0
 70
     8
 71
     3
 72
    16
 73
    12
 74
     0
 42
0.000000001
 43
0.00000001
 40
0.0
 40
0.0
 40
0.0
 40
0.0
 40
0.0490173908957634
 40
0.168747977405873
 40
0.2883839653156474
 40
0.4079559573470944
 40
0.5274892079999666
 40
0.6470030627423407
 40
0.7665113560478399
 40
0.8860208901146881
 40
1.0
 40
1.0
 40
1.0
 40
1.0
 10
238.8944333318213
 20
123.1563252423515
 30
0.0
 10
238.7610658250042
 20
123.1710395150617
 30
0.0
 10
238.3019329210333
 20
123.2216950826769
 30
0.0
 10
237.4914439174711
 20
123.3975781432099
 30
0.0
 10
236.4687943574234
 20
123.6812632464996
 30
0.0
 10
235.4295489830909
 20
124.0531741826561
 30
0.0
 10
234.3797132071938
 20
124.5054415195953
 30
0.0
 10
233.3227565619194
 20
125.0376344744002
 30
0.0
 10
232.2632164478235
 20
125.649189582551
 30
0.0
 10
231.2206202202768
 20
126.3202189428001
 30
0.0
 10
230.5363611435579
 20
126.8238863498493
 30
0.0
 10
230.2023353032634
 20
127.0697551071558
 30
0.0
  0
SPLINE
  5
1CA
330
1F
100
AcDbEntity
  8
0
  6
Continuous
 62
     7
370
    30
100
AcDbSpline
210
0.0
220
0.0
230
1.0
 70
     8
 71
     3
 72
    25
 73
    21
 74
     0
 42
0.000000001
 43
0.00000001
 40
0.0
 40
0.0
 40
0.0
 40
0.0
 40
0.0318122069971802
 40
0.0923813016489341
 40
0.1529479097134462
 40
0.2135031774382739
 40
0.2740448786941662
 40
0.3345709112902227
 40
0.3950793829628159
 40
0.4555687426952697
 40
0.5160379714293459
 40
0.5764868523763037
 40
0.6369163451582103
 40
0.6973290903672952
 40
0.7577300688178407
 40
0.8181268971774563
 40
0.8785278513904474
 40
0.9389485948951312
 40
0.9994105992412058
 40
0.9999999999999999
 40
0.9999999999999999
 40
0.9999999999999999
 40
0.9999999999999999
 10
223.2510648761453
 20
144.1257757430755
 30
0.0
 10
223.1368780184093
 20
144.374478035868
 30
0.0
 10
222.8052842201612
 20
145.0966989598446
 30
0.0
 10
222.2976573592196
 20
146.3018363444219
 30
0.0
 10
221.748652988549
 20
147.7391664807094
 30
0.0
 10
221.2590408760273
 20
149.1778755790159
 30
0.0
 10
220.8296470944063
 20
150.6124236244857
 30
0.0
 10
220.4621892524513
 20
152.0376824728789
 30
0.0
 10
220.1578395150916
 20
153.4484611802918
 30
0.0
 10
219.9176066518747
 20
154.8396451745209
 30
0.0
 10
219.7422248657044
 20
156.2061879791215
 30
0.0
 10
219.6321826318111
 20
157.5431368781805
 30
0.0
 10
219.5876921018419
 20
158.8456775300678
 30
0.0
 10
219.6087670578742
 20
160.1090776543487
 30
0.0
 10
219.6949415860009
 20
161.329021497251
 30
0.0
 10
219.8463347080069
 20
162.5004594677796
 30
0.0
 10
220.0597057390836
 20
163.6219783641115
 30
0.0
 10
220.3432405317007
 20
164.6797041744071
 30
0.0
 10
220.5563107886611
 20
165.367957347686
 30
0.0
 10
220.6907445676076
 20
165.6842923742862
 30
0.0
 10
220.6920424144169
 20
165.6873463270067
 30
0.0
  0
LINE
  5
1CB
330
1F
100
AcDbEntity
  8
0
  6
Continuous
 62
     7
370
    30
100
AcDbLine
 10
243.9229400325
 20
169.8102740257
 30
0.0
 11
232.8145063598
 21
176.2230362854
 31
0.0
  0
SPLINE
  5
1CC
330
1F
100
AcDbEntity
  8
0
  6
Continuous
 62
     7
370
    30
100
AcDbSpline
210
0.0
220
0.0
230
1.0
 70
     8
 71
     3
 72
    38
 73
    34
 74
     0
 42
0.000000001
 43
0.00000001
 40
0.0
 40
0.0
 40
0.0
 40
0.0
 40
0.0262907243967042
 40
0.0585642742586733
 40
0.0909069585114877
 40
0.1233247970718032
 40
0.1558162250422978
 40
0.1883739700629933
 40
0.2209873423360657
 40
0.2536443558080999
 40
0.2863333373619649
 40
0.3190439282265913
 40
0.3517675524604019
 40
0.3844975022736266
 40
0.4172281015327525
 40
0.4499556379477404
 40
0.4826781241971296
 40
0.5153944129894972
 40
0.5481039833067977
 40
0.5808067697114799
 40
0.613503030888013
 40
0.6461932512382249
 40
0.6788780689767784
 40
0.7115582247674662
 40
0.7442345258888542
 40
0.7769078219001998
 40
0.8095789886506182
 40
0.8422489181844018
 40
0.8749185126367737
 40
0.9075885934055841
 40
0.9402598573294879
 40
0.9729332196071983
 40
1.0
 40
1.0
 40
1.0
 40
1.0
 10
214.5610539191672
 20
170.4662813100618
 30
0.0
 10
214.3616512572895
 20
170.2689843234488
 30
0.0
 10
213.917469042988
 20
169.8294926358078
 30
0.0
 10
213.2952468212544
 20
169.0583050094721
 30
0.0
 10
212.6838083044077
 20
168.1723753205598
 30
0.0
 10
212.1332088645519
 20
167.2139420374144
 30
0.0
 10
211.6431881047916
 20
166.1885355619536
 30
0.0
 10
211.2159239144841
 20
165.0984352177047
 30
0.0
 10
210.8526949728652
 20
163.9471755924169
 30
0.0
 10
210.5547309432478
 20
162.7382882808185
 30
0.0
 10
210.3229587050059
 20
161.4755816018221
 30
0.0
 10
210.158064839138
 20
160.1630089849865
 30
0.0
 10
210.0604865957694
 20
158.8046577477495
 30
0.0
 10
210.0304290965074
 20
157.4047275663475
 30
0.0
 10
210.067874611312
 20
155.9675094442071
 30
0.0
 10
210.1725941711236
 20
154.4973656818325
 30
0.0
 10
210.3441597782412
 20
152.9987109449997
 30
0.0
 10
210.5819531578315
 20
151.4760124577717
 30
0.0
 10
210.885170101857
 20
149.9337919288792
 30
0.0
 10
211.2528240747357
 20
148.3766173199338
 30
0.0
 10
211.6837493434139
 20
146.8090935433084
 30
0.0
 10
212.1766040169319
 20
145.2358521019455
 30
0.0
 10
212.7298733316415
 20
143.6615398755564
 30
0.0
 10
213.341873180494
 20
142.0908069552446
 30
0.0
 10
214.0107547270696
 20
140.5282947125986
 30
0.0
 10
214.734507479339
 20
138.978620519073
 30
0.0
 10
215.5109708964029
 20
137.4463732832828
 30
0.0
 10
216.337817051428
 20
135.9360676566851
 30
0.0
 10
217.2126434279387
 20
134.4522534822248
 30
0.0
 10
218.1326539614795
 20
132.9990514921615
 30
0.0
 10
219.095880125729
 20
131.5818273503939
 30
0.0
 10
220.0393939923295
 20
130.2798984890455
 30
0.0
 10
220.6744168415253
 20
129.4689722066561
 30
0.0
 10
220.9621299810535
 20
129.1015615742235
 30
0.0
  0
LINE
  5
1CD
330
1F
100
AcDbEntity
  8
0
  6
Continuous
 62
     7
370
    30
100
AcDbLine
 10
222.370023474
 20
175.3679455328
 30
0.0
 11
216.7131692245
 21
172.1023130855
 31
0.0
  0
SPLINE
  5
1CE
330
1F
100
AcDbEntity
  8
0
  6
Continuous
 62
     7
370
    30
100
AcDbSpline
210
0.0
220
0.0
230
1.0
 70
     8
 71
     3
 72
    15
 73
    11
 74
     0
 42
0.000000001
 43
0.00000001
 40
0.0
 40
0.0
 40
0.0
 40
0.0
 40
0.0370666974617948
 40
0.1777775911202946
 40
0.3184010207756353
 40
0.4588409981320586
 40
0.5990423045453408
 40
0.7389541304749245
 40
0.8785394479346217
 40
1.0
 40
1.0
 40
1.0
 40
1.0
 10
232.7657490191922
 20
176.240787217837
 30
0.0
 10
232.6607338831504
 20
176.2705160387773
 30
0.0
 10
232.1570651132009
 20
176.4131000437073
 30
0.0
 10
231.2654991797306
 20
176.6089505078555
 30
0.0
 10
230.1015703482237
 20
176.7928470130518
 30
0.0
 10
228.9618104304191
 20
176.8866190899899
 30
0.0
 10
227.8491364853286
 20
176.8943133501165
 30
0.0
 10
226.768651051319
 20
176.812183655316
 30
0.0
 10
225.7637071893143
 20
176.6583541648599
 30
0.0
 10
225.1383657629195
 20
176.4894212471695
 30
0.0
 10
224.8474041973623
 20
176.4108194080291
 30
0.0
  0
SPLINE
  5
1CF
330
1F
100
AcDbEntity
  8
0
  6
Continuous
 62
     7
370
    30
100
AcDbSpline
210
0.0
220
0.0
230
1.0
 70
     8
 71
     3
 72
    11
 73
     7
 74
     0
 42
0.000000001
 43
0.00000001
 40
0.0
 40
0.0
 40
0.0
 40
0.0
 40
0.166534481250417
 40
0.4668175504457875
 40
0.7665171136191244
 40
1.0
 40
1.0
 40
1.0
 40
1.0
 10
241.4990077955143
 20
115.3715944091974
 30
0.0
 10
241.602245022942
 20
115.4378440790736
 30
0.0
 10
241.8916322372939
 20
115.6235504167477
 30
0.0
 10
242.4188746112911
 20
115.8376224441322
 30
0.0
 10
243.023573533968
 20
116.012075040947
 30
0.0
 10
243.4390443790701
 20
116.0661573433277
 30
0.0
 10
243.6209808479142
 20
116.0898402159965
 30
0.0
  0
SPLINE
  5
1D0
330
1F
100
AcDbEntity
  8
0
  6
Continuous
 62
     7
370
    30
100
AcDbSpline
210
0.0
220
0.0
230
1.0
 70
     8
 71
     3
 72
    24
 73
    20
 74
     0
 42
0.000000001
 43
0.00000001
 40
0.0
 40
0.0
 40
0.0
 40
0.0
 40
0.0455166159957121
 40
0.1060436810122334
 40
0.1664914516343347
 40
0.2268886365455602
 40
0.2872577394245338
 40
0.3476154450197462
 40
0.4079716690876502
 40
0.4683338103887873
 40
0.5287075783968708
 40
0.5890962080676991
 40
0.6495011389514379
 40
0.7099225400348995
 40
0.7703597016204178
 40
0.8308113202132008
 40
0.891275700763869
 40
0.9517508968754469
 40
1.0
 40
1.0
 40
1.0
 40
1.0
 10
244.6715242694016
 20
124.1977774819878
 30
0.0
 10
244.4132103579952
 20
124.2402337957786
 30
0.0
 10
243.8113958903996
 20
124.3391476473049
 30
0.0
 10
242.8390297190551
 20
124.5932506780642
 30
0.0
 10
241.7643455077434
 20
124.9428189125946
 30
0.0
 10
240.6753510396411
 20
125.3769225387462
 30
0.0
 10
239.5768639675136
 20
125.8906538884765
 30
0.0
 10
238.4724709718914
 20
126.4833148634387
 30
0.0
 10
237.3661980128268
 20
127.1527072631607
 30
0.0
 10
236.2620182030657
 20
127.8966592855728
 30
0.0
 10
235.163937267298
 20
128.7126312696109
 30
0.0
 10
234.0759436826909
 20
129.5978280528516
 30
0.0
 10
233.0020105779608
 20
130.549181170779
 30
0.0
 10
231.9460452059734
 20
131.5633438676138
 30
0.0
 10
230.9119692458174
 20
132.6368005434599
 30
0.0
 10
229.9033309120911
 20
133.76552130058
 30
0.0
 10
228.9246708233133
 20
134.9463283065568
 30
0.0
 10
228.0403013886746
 20
136.0892237644813
 30
0.0
 10
227.4967057495734
 20
136.8516112172049
 30
0.0
 10
227.2554717086707
 20
137.1899395493787
 30
0.0
  0
SPLINE
  5
1D1
330
1F
100
AcDbEntity
  8
0
  6
Continuous
 62
     7
370
    30
100
AcDbSpline
210
0.0
220
0.0
230
1.0
 70
     8
 71
     3
 72
     9
 73
     5
 74
     0
 42
0.000000001
 43
0.00000001
 40
0.0
 40
0.0
 40
0.0
 40
0.0
 40
0.3495868070166549
 40
1.0
 40
1.0
 40
1.0
 40
1.0
 10
244.7597618073875
 20
115.2797610664637
 30
0.0
 10
244.8016449727554
 20
115.4114628561992
 30
0.0
 10
244.921452598579
 20
115.7881984397281
 30
0.0
 10
245.0741544142729
 20
116.1282523283945
 30
0.0
 10
245.1734736897928
 20
116.3494278639083
 30
0.0
  0
SPLINE
  5
1D2
330
1F
100
AcDbEntity
  8
0
  6
Continuous
 62
     7
370
    30
100
AcDbSpline
210
0.0
220
0.0
230
1.0
 70
     8
 71
     3
 72
    11
 73
     7
 74
     0
 42
0.000000001
 43
0.00000001
 40
0.0
 40
0.0
 40
0.0
 40
0.0
 40
0.2468351669655748
 40
0.5577534872079881
 40
0.8599333121585168
 40
0.9999999999999999
 40
0.9999999999999999
 40
0.9999999999999999
 40
0.9999999999999999
 10
238.0359247179719
 20
111.6311478875006
 30
0.0
 10
238.0940871743717
 20
111.6018873891929
 30
0.0
 10
238.2255121786785
 20
111.5357698048585
 30
0.0
 10
238.4496214521676
 20
111.505532837747
 30
0.0
 10
238.6533435179675
 20
111.5308011690037
 30
0.0
 10
238.7506691731031
 20
111.5956366400943
 30
0.0
 10
238.7814937963902
 20
111.6161710918709
 30
0.0
  0
LINE
  5
1D3
330
1F
100
AcDbEntity
  8
0
  6
Continuous
 62
     7
370
    30
100
AcDbLine
 10
238.7858637674
 20
111.6063938623
 30
0.0
 11
244.4427180169
 21
114.8720263095
 31
0.0
  0
LINE
  5
1D4
330
1F
100
AcDbEntity
  8
0
  6
Continuous
 62
     7
370
    30
100
AcDbLine
 10
226.3878944427
 20
118.3554126354
 30
0.0
 11
238.035924718
 21
111.6311478875
 31
0.0
  0
SPLINE
  5
1D5
330
1F
100
AcDbEntity
  8
0
  6
Continuous
 62
     7
370
    30
100
AcDbSpline
210
0.0
220
0.0
230
1.0
 70
     8
 71
     3
 72
    10
 73
     6
 74
     0
 42
0.000000001
 43
0.00000001
 40
0.0
 40
0.0
 40
0.0
 40
0.0
 40
0.2484468515010737
 40
0.6969097836119503
 40
1.0
 40
1.0
 40
1.0
 40
1.0
 10
244.4347014721355
 20
114.8796247661164
 30
0.0
 10
244.4739104975764
 20
114.9002898231919
 30
0.0
 10
244.5838943966303
 20
114.9582566694925
 30
0.0
 10
244.6942351473004
 20
115.1066112917491
 30
0.0
 10
244.7409303329325
 20
115.2300001667766
 30
0.0
 10
244.7597618073875
 20
115.2797610664637
 30
0.0
  0
SPLINE
  5
1D6
330
1F
100
AcDbEntity
  8
0
  6
Continuous
 62
     7
370
    30
100
AcDbSpline
210
0.0
220
0.0
230
1.0
 70
     8
 71
     3
 72
    17
 73
    13
 74
     0
 42
0.000000001
 43
0.00000001
 40
0.0
 40
0.0
 40
0.0
 40
0.0
 40
0.0547656103769384
 40
0.1592123854930756
 40
0.2636993920385802
 40
0.3682013993829796
 40
0.4727063219652307
 40
0.577198796031707
 40
0.6816656238039381
 40
0.7860945387229367
 40
0.8904734636440952
 40
0.9999999999999999
 40
0.9999999999999999
 40
0.9999999999999999
 40
0.9999999999999999
 10
220.9621299810535
 20
129.1015615742235
 30
0.0
 10
221.0877540852829
 20
128.9413310468458
 30
0.0
 10
221.452963441522
 20
128.4755152855126
 30
0.0
 10
222.031434642093
 20
127.6701081963539
 30
0.0
 10
222.6809446338307
 20
126.6775440527076
 30
0.0
 10
223.2863915050945
 20
125.6526372144862
 30
0.0
 10
223.8444303542071
 20
124.6028004712558
 30
0.0
 10
224.3512487322554
 20
123.5345648084924
 30
0.0
 10
224.8041086213895
 20
122.454747121063
 30
0.0
 10
225.1986104152453
 20
121.3706700016436
 30
0.0
 10
225.5438633683938
 20
120.2698377331956
 30
0.0
 10
225.720800177118
 20
119.5393112214632
 30
0.0
 10
225.8113975639156
 20
119.1652579454574
 30
0.0
  0
SPLINE
  5
1D7
330
1F
100
AcDbEntity
  8
0
  6
Continuous
 62
     7
370
    30
100
AcDbSpline
210
0.0
220
0.0
230
1.0
 70
     8
 71
     3
 72
    13
 73
     9
 74
     0
 42
0.000000001
 43
0.00000001
 40
0.0
 40
0.0
 40
0.0
 40
0.0
 40
0.0991840828871455
 40
0.2853557020766916
 40
0.4712253977096588
 40
0.6570180589400749
 40
0.84304427457578
 40
1.0
 40
1.0
 40
1.0
 40
1.0
 10
226.2261996252403
 20
139.3670529378699
 30
0.0
 10
226.1975867212254
 20
139.4671807154998
 30
0.0
 10
226.1152665033443
 20
139.755251456805
 30
0.0
 10
225.9303641721819
 20
140.2314333479303
 30
0.0
 10
225.6574363939228
 20
140.7809887903975
 30
0.0
 10
225.332287053256
 20
141.3026804227916
 30
0.0
 10
224.9848349635307
 20
141.7639029919822
 30
0.0
 10
224.735802665778
 20
142.0259591826586
 30
0.0
 10
224.621840266396
 20
142.1458815884343
 30
0.0
  0
SPLINE
  5
1D8
330
1F
100
AcDbEntity
  8
0
  6
Continuous
 62
     7
370
    30
100
AcDbSpline
210
0.0
220
0.0
230
1.0
 70
     8
 71
     3
 72
    12
 73
     8
 74
     0
 42
0.000000001
 43
0.00000001
 40
0.0
 40
0.0
 40
0.0
 40
0.0
 40
0.129711328385485
 40
0.3793861941570065
 40
0.629190060381029
 40
0.8785215618862534
 40
1.0
 40
1.0
 40
1.0
 40
1.0
 10
227.2554717086707
 20
137.1899395493787
 30
0.0
 10
227.1958735077131
 20
137.2774590471445
 30
0.0
 10
227.0215577025992
 20
137.5334404605275
 30
0.0
 10
226.7626751759933
 20
137.9837649802724
 30
0.0
 10
226.5021355301742
 20
138.5372216426577
 30
0.0
 10
226.3292076154074
 20
139.0027946478875
 30
0.0
 10
226.2516181610513
 20
139.2771675573926
 30
0.0
 10
226.2261996252403
 20
139.3670529378699
 30
0.0
  0
SPLINE
  5
1D9
330
1F
100
AcDbEntity
  8
0
  6
Continuous
 62
     7
370
    30
100
AcDbSpline
210
0.0
220
0.0
230
1.0
 70
     8
 71
     3
 72
    12
 73
     8
 74
     0
 42
0.000000001
 43
0.00000001
 40
0.0
 40
0.0
 40
0.0
 40
0.0
 40
0.1293041275596253
 40
0.378013616675078
 40
0.6274340603535322
 40
0.8772244582006435
 40
1.0
 40
1.0
 40
1.0
 40
1.0
 10
224.621840266396
 20
142.1458815884343
 30
0.0
 10
224.5525395343126
 20
142.2172391492223
 30
0.0
 10
224.3499425958581
 20
142.425849115042
 30
0.0
 10
224.0305042361541
 20
142.8138833245434
 30
0.0
 10
223.6829161698296
 20
143.3166653503492
 30
0.0
 10
223.426439642015
 20
143.7615020706001
 30
0.0
 10
223.2945333372052
 20
144.035486721912
 30
0.0
 10
223.2510648761453
 20
144.1257757430755
 30
0.0
  0
SPLINE
  5
1DA
330
1F
100
AcDbEntity
  8
0
  6
Continuous
 62
     7
370
    30
100
AcDbSpline
210
0.0
220
0.0
230
1.0
 70
     8
 71
     3
 72
    11
 73
     7
 74
     0
 42
0.000000001
 43
0.00000001
 40
0.0
 40
0.0
 40
0.0
 40
0.0
 40
0.1735445630231055
 40
0.4686001035312972
 40
0.7723958810608808
 40
1.0
 40
1.0
 40
1.0
 40
1.0
 10
225.8113975639156
 20
119.1652579454574
 30
0.0
 10
225.8268098135616
 20
119.108545000356
 30
0.0
 10
225.868425532625
 20
118.9554103156207
 30
0.0
 10
225.9963435628908
 20
118.7160765889639
 30
0.0
 10
226.1797674596064
 20
118.4948305413954
 30
0.0
 10
226.325482969707
 20
118.3972201739892
 30
0.0
 10
226.3878944427099
 20
118.3554126354097
 30
0.0
  0
LWPOLYLINE
  5
1DB
330
1F
100
AcDbEntity
  8
0
  6
Continuous
 62
     7
370
    30
100
AcDbPolyline
 90
       27
 70
   128
 43
0.0
 10
236.1119383725
 20
170.3301555294
 10
235.7358562436
 20
170.1917683434
 10
235.3133337199
 20
170.1093596851
 10
234.8689262745
 20
170.0877188461
 10
234.4284612529
 20
170.1281035133
 10
234.0175368812
 20
170.2281666767
 10
233.66003459
 20
170.382093029
 10
233.3767311132
 20
170.5809369299
 10
233.184091019
 20
170.8131422949
 10
233.0933098495
 20
171.065214192
 10
233.1096634764
 20
171.322503119
 10
233.2322014861
 20
171.5700563784
 10
233.4538024151
 20
171.7934870749
 10
233.7615876228
 20
171.9798102283
 10
234.1376697517
 20
172.1181974142
 10
234.5601922754
 20
172.2006060726
 10
235.0045997208
 20
172.2222469116
 10
235.4450647424
 20
172.1818622443
 10
235.8559891142
 20
172.0817990809
 10
236.2134914053
 20
171.9278727287
 10
236.4967948821
 20
171.7290288277
 10
236.6894349763
 20
171.4968234628
 10
236.7802161458
 20
171.2447515656
 10
236.763862519
 20
170.9874626387
 10
236.6413245092
 20
170.7399093792
 10
236.4197235802
 20
170.5164786828
 10
236.1119383725
 20
170.3301555294
  0
LINE
  5
1DC
330
1F
100
AcDbEntity
  8
0
  6
Continuous
 62
     7
370
    30
100
AcDbLine
 10
235.6702633425
 20
170.6401566169
 30
0.0
 11
236.0758362457
 21
171.2642801821
 31
0.0
  0
LINE
  5
1DD
330
1F
100
AcDbEntity
  8
0
  6
Continuous
 62
     7
370
    30
100
AcDbLine
 10
235.3423359008
 20
171.7791064439
 30
0.0
 11
236.0758362457
 21
171.2642801821
 31
0.0
  0
LINE
  5
1DE
330
1F
100
AcDbEntity
  8
0
  6
Continuous
 62
     7
370
    30
100
AcDbLine
 10
234.2032626528
 20
171.6698091406
 30
0.0
 11
235.3423359008
 21
171.7791064439
 31
0.0
  0
LINE
  5
1DF
330
1F
100
AcDbEntity
  8
0
  6
Continuous
 62
     7
370
    30
100
AcDbLine
 10
233.7976897496
 20
171.0456855754
 30
0.0
 11
234.2032626528
 21
171.6698091406
 31
0.0
  0
LINE
  5
1E0
330
1F
100
AcDbEntity
  8
0
  6
Continuous
 62
     7
370
    30
100
AcDbLine
 10
234.5311900945
 20
170.5308593135
 30
0.0
 11
233.7976897496
 21
171.0456855754
 31
0.0
  0
LINE
  5
1E1
330
1F
100
AcDbEntity
  8
0
  6
Continuous
 62
     7
370
    30
100
AcDbLine
 10
235.6702633425
 20
170.6401566169
 30
0.0
 11
234.5311900945
 21
170.5308593135
 31
0.0
  0
LINE
  5
1E2
330
1F
100
AcDbEntity
  8
0
  6
Continuous
 62
     7
370
    30
100
AcDbLine
 10
234.2032626528
 20
170.7610237029
 30
0.0
 11
234.2032626528
 21
171.6698091406
 31
0.0
  0
LINE
  5
1E3
330
1F
100
AcDbEntity
  8
0
  6
Continuous
 62
     7
370
    30
100
AcDbLine
 10
235.3423359007
 20
170.6086910504
 30
0.0
 11
235.3423359008
 21
171.7791064439
 31
0.0
  0
LWPOLYLINE
  5
1E4
330
1F
100
AcDbEntity
  8
0
  6
Continuous
 62
     7
370
    30
100
AcDbPolyline
 90
       41
 70
   128
 43
0.0
 10
243.2169191354
 20
116.383180556
 10
244.3098082315
 20
116.545042706
 10
245.3603991527
 20
116.8042226997
 10
246.3650498731
 20
117.159822052
 10
247.3202776251
 20
117.610608026
 10
248.2227709731
 20
118.1550179069
 10
249.0694012929
 20
118.7911644188
 10
249.8572336176
 20
119.5168422673
 10
250.5835368122
 20
120.329535785
 10
251.2457930411
 20
121.2264276518
 10
251.8417064971
 20
122.2044086619
 10
252.3692113596
 20
123.2600885021
 10
252.8264789565
 20
124.389807505
 10
253.2119241033
 20
125.5896493358
 10
253.5242105984
 20
126.8554545686
 10
253.7622558554
 20
128.1828351059
 10
253.9252346558
 20
129.5671893902
 10
254.01258201
 20
131.0037183567
 10
254.0239951157
 20
132.4874420691
 10
253.9594344078
 20
134.0132169838
 10
253.8191236951
 20
135.5757537806
 10
253.6035493853
 20
137.1696356989
 10
253.313458798
 20
138.7893373157
 10
252.9498575742
 20
140.4292437003
 10
252.5140061905
 20
142.0836698791
 10
252.0074155888
 20
143.7468805437
 10
251.431841939
 20
145.413109933
 10
250.7892805508
 20
147.0765818208
 10
250.0819589564
 20
148.7315295404
 10
249.3123291889
 20
150.3722159754
 10
248.4830592814
 20
151.9929534481
 10
247.5970240186
 20
153.5881234368
 10
246.6572949702
 20
155.1521960532
 10
245.6671298434
 20
156.6797492126
 10
244.6299611893
 20
158.1654874302
 10
243.5493845036
 20
159.6042601789
 10
242.4291457623
 20
160.9910797441
 10
241.2731284354
 20
162.3211385144
 10
240.085340025
 20
163.5898256481
 10
238.8698981718
 20
164.7927430572
 10
237.6310163815
 20
165.9257206538
  0
SPLINE
  5
1E5
330
1F
100
AcDbEntity
  8
0
  6
Continuous
 62
     7
370
    30
100
AcDbSpline
210
0.0
220
0.0
230
1.0
 70
     8
 71
     3
 72
    13
 73
     9
 74
     0
 42
0.000000001
 43
0.00000001
 40
0.0
 40
0.0
 40
0.0
 40
0.0
 40
0.2125350965009086
 40
0.4250439668006937
 40
0.6383088567421598
 40
0.8531918946359776
 40
0.9886529479814544
 40
0.9999999999999999
 40
0.9999999999999999
 40
0.9999999999999999
 40
0.9999999999999999
 10
238.0296536263299
 20
166.5120667325982
 30
0.0
 10
237.9896420378247
 20
166.4850725153889
 30
0.0
 10
237.9096237981255
 20
166.4310874119764
 30
0.0
 10
237.7967011742476
 20
166.3052056937689
 30
0.0
 10
237.704921123832
 20
166.1627889093247
 30
0.0
 10
237.6517043859411
 20
166.0337532008265
 30
0.0
 10
237.6349008302198
 20
165.9571981399332
 30
0.0
 10
237.6312950764377
 20
165.9279790478553
 30
0.0
 10
237.6310163815003
 20
165.9257206537638
 30
0.0
  0
ARC
  5
1E6
330
1F
100
AcDbEntity
  8
0
  6
Continuous
 62
     7
370
    30
100
AcDbCircle
 10
242.8782590273
 20
126.7788541789
 30
0.0
 40
10.66457869255144
100
AcDbArc
 50
285.718479026
 51
314.9036498735
  0
ARC
  5
1E7
330
1F
100
AcDbEntity
  8
0
  6
Continuous
 62
     7
370
    30
100
AcDbCircle
 10
248.5137132999
 20
130.060353532
 30
0.0
 40
10.69063379815615
100
AcDbArc
 50
300.0522039222
 51
314.0585799809
  0
LINE
  5
1E8
330
1F
100
AcDbEntity
  8
0
  6
Continuous
 62
     7
370
    30
100
AcDbLine
 10
238.0296536263
 20
166.5120667326
 30
0.0
 11
243.6865078758
 21
169.7776991799
 31
0.0
  0
LWPOLYLINE
  5
1E9
330
1F
100
AcDbEntity
  8
0
  6
Continuous
 62
     7
370
    30
100
AcDbPolyline
 90
        9
 70
   128
 43
0.0
 10
237.9323510105
 20
111.8600702907
 10
237.9886804877
 20
111.8327670679
 10
238.0435709019
 20
111.8165915514
 10
238.0956199543
 20
111.8119569812
 10
238.1434979349
 20
111.8189817578
 10
238.1859816931
 20
111.8374864175
 10
238.2219858861
 20
111.8669982173
 10
238.2505907058
 20
111.9067632118
 10
238.2710653779
 20
111.9557655151
  0
LINE
  5
1EA
330
1F
100
AcDbEntity
  8
0
  6
Continuous
 62
     7
370
    30
100
AcDbLine
 10
226.2843207353
 20
118.5843350386
 30
0.0
 11
237.9323510105
 21
111.8600702907
 31
0.0
  0
ARC
  5
1EB
330
1F
100
AcDbEntity
  8
0
  6
Continuous
 62
     7
370
    30
100
AcDbCircle
 10
226.710144008
 20
119.2418720364
 30
0.0
 40
0.783377535396716
100
AcDbArc
 50
192.5911547843
 51
237.0727642352
  0
ARC
  5
1EC
330
1F
100
AcDbEntity
  8
0
  6
Continuous
 62
     7
370
    30
100
AcDbCircle
 10
200.9405650053
 20
113.1473873024
 30
0.0
 40
25.69712987870909
100
AcDbArc
 50
13.3277154324
 51
38.6844276759
  0
LWPOLYLINE
  5
1ED
330
1F
100
AcDbEntity
  8
0
  6
Continuous
 62
     7
370
    30
100
AcDbPolyline
 90
       41
 70
   128
 43
0.0
 10
226.5856553643
 20
172.3020718445
 10
225.346773574
 20
172.5994767165
 10
224.1313317208
 20
172.7998786006
 10
222.9435433104
 20
172.9025827747
 10
221.7875259835
 20
172.9072331999
 10
220.6672872422
 20
172.8138137547
 10
219.5867105565
 20
172.6226482912
 10
218.5495419024
 20
172.3343995123
 10
217.5593767756
 20
171.9500666742
 10
216.6196477272
 20
171.4709821224
 10
215.7336124644
 20
170.8988066731
 10
214.9043425569
 20
170.2355238556
 10
214.1347127894
 20
169.4834330359
 10
213.427391195
 20
168.6451414462
 10
212.7848298068
 20
167.7235551457
 10
212.209256157
 20
166.7218689473
 10
211.7026655553
 20
165.6435553415
 10
211.2668141716
 20
164.492352459
 10
210.9032129478
 20
163.2722511115
 10
210.6131223605
 20
161.9874809576
 10
210.3975480507
 20
160.6424958395
 10
210.2572373381
 20
159.2419583432
 10
210.1926766301
 20
157.7907236353
 10
210.2040897358
 20
156.2938226316
 10
210.29143709
 20
154.7564445566
 10
210.4544158904
 20
153.1839189546
 10
210.6924611474
 20
151.5816972138
 10
211.0047476425
 20
149.9553336684
 10
211.3901927893
 20
148.3104663438
 10
211.8474603862
 20
146.6527974112
 10
212.3749652487
 20
144.9880734206
 10
212.9708787047
 20
143.3220653794
 10
213.6331349336
 20
141.6605487461
 10
214.3594381282
 20
140.0092834095
 10
215.1472704529
 20
138.3739937204
 10
215.9939007727
 20
136.760348648
 10
216.8963941207
 20
135.173942127
 10
217.8516218728
 20
133.620273666
 10
218.8562725931
 20
132.1047292821
 10
219.9068635143
 20
130.6325628299
 10
220.9997526104
 20
129.2088777882
  0
LINE
  5
1EE
330
1F
100
AcDbEntity
  8
0
  6
Continuous
 62
     7
370
    30
100
AcDbLine
 10
237.6310163815
 20
165.9257206538
 30
0.0
 11
226.5856553643
 21
172.3020718445
 31
0.0
  0
ARC
  5
1EF
330
1F
100
AcDbEntity
  8
0
  6
Continuous
 62
     7
370
    30
100
AcDbCircle
 10
243.8948042502
 20
110.6497092019
 30
0.0
 40
5.773406446539786
100
AcDbArc
 50
96.7429442091
 51
166.9254087072
  0
LWPOLYLINE
  5
1F0
330
1F
100
AcDbEntity
  8
0
  6
Continuous
 62
     7
370
    30
100
AcDbPolyline
 90
       97
 70
   128
 43
0.0
 10
249.432452012
 20
134.6166725227
 10
249.3953597495
 20
133.3296794862
 10
249.2842417968
 20
132.091023366
 10
249.0995739781
 20
130.906008278
 10
248.8421470693
 20
129.7797086387
 10
248.5130634119
 20
128.7169474359
 10
248.1137321926
 20
127.7222755764
 10
247.6458634092
 20
126.7999523978
 10
247.1114605475
 20
125.9539274295
 10
246.5128120025
 20
125.1878234802
 10
245.8524812794
 20
124.5049211248
 10
245.1332960156
 20
123.908144656
 10
244.3583358729
 20
123.4000495621
 10
243.5309193495
 20
122.9828115845
 10
242.65458957
 20
122.6582174001
 10
241.7330991131
 20
122.4276569712
 10
240.7703939424
 20
122.2921175928
 10
239.7705965093
 20
122.2521796654
 10
238.7379880997
 20
122.3080142094
 10
237.6769905015
 20
122.4593821326
 10
236.5921470693
 20
122.7056352543
 10
235.4881032691
 20
123.045719081
 10
234.3695867861
 20
123.4781773213
 10
233.2413872795
 20
124.0011581228
 10
232.1083358729
 20
124.6124220014
 10
230.9752844663
 20
125.3093514312
 10
229.8470849597
 20
126.0889620536
 10
228.7285684767
 20
126.947915456
 10
227.6245246765
 20
127.8825334683
 10
226.5396812443
 20
128.8888139125
 10
225.4786836461
 20
129.9624477412
 10
224.4460752366
 20
131.0988374898
 10
223.4462778034
 20
132.2931169627
 10
222.4835726327
 20
133.5401720718
 10
221.5620821758
 20
134.8346627359
 10
220.6857523963
 20
136.1710457471
 10
219.8583358729
 20
137.5435985082
 10
219.0833757302
 20
138.9464435376
 10
218.3641904664
 20
140.3735736374
 10
217.7038597433
 20
141.8188776176
 10
217.1052111984
 20
143.2761664645
 10
216.5708083366
 20
144.7391998436
 10
216.1029395532
 20
146.2017128213
 10
215.7036083339
 20
147.6574426926
 10
215.3745246765
 20
149.1001557987
 10
215.1170977677
 20
150.5236742205
 10
214.932429949
 20
151.9219022337
 10
214.8213119963
 20
153.2888524111
 10
214.7842197338
 20
154.6186712624
 10
214.8213119963
 20
155.905664299
 10
214.932429949
 20
157.1443204191
 10
215.1170977677
 20
158.3293355071
 10
215.3745246765
 20
159.4556351465
 10
215.7036083339
 20
160.5183963492
 10
216.1029395532
 20
161.5130682087
 10
216.5708083366
 20
162.4353913873
 10
217.1052111984
 20
163.2814163557
 10
217.7038597433
 20
164.0475203049
 10
218.3641904664
 20
164.7304226603
 10
219.0833757302
 20
165.3271991292
 10
219.8583358729
 20
165.835294223
 10
220.6857523963
 20
166.2525322007
 10
221.5620821758
 20
166.577126385
 10
222.4835726327
 20
166.807686814
 10
223.4462778034
 20
166.9432261923
 10
224.4460752366
 20
166.9831641197
 10
225.4786836461
 20
166.9273295758
 10
226.5396812443
 20
166.7759616526
 10
227.6245246765
 20
166.5297085308
 10
228.7285684767
 20
166.1896247042
 10
229.8470849597
 20
165.7571664638
 10
230.9752844663
 20
165.2341856623
 10
232.1083358729
 20
164.6229217838
 10
233.2413872795
 20
163.9259923539
 10
234.3695867861
 20
163.1463817316
 10
235.4881032691
 20
162.2874283291
 10
236.5921470693
 20
161.3528103169
 10
237.6769905015
 20
160.3465298727
 10
238.7379880997
 20
159.2728960439
 10
239.7705965093
 20
158.1365062954
 10
240.7703939424
 20
156.9422268225
 10
241.7330991131
 20
155.6951717133
 10
242.65458957
 20
154.4006810492
 10
243.5309193495
 20
153.064298038
 10
244.3583358729
 20
151.6917452769
 10
245.1332960156
 20
150.2889002476
 10
245.8524812794
 20
148.8617701477
 10
246.5128120025
 20
147.4164661676
 10
247.1114605475
 20
145.9591773207
 10
247.6458634092
 20
144.4961439416
 10
248.1137321926
 20
143.0336309638
 10
248.5130634119
 20
141.5779010925
 10
248.8421470693
 20
140.1351879864
 10
249.0995739781
 20
138.7116695646
 10
249.2842417968
 20
137.3134415515
 10
249.3953597495
 20
135.946491374
 10
249.432452012
 20
134.6166725227
  0
SPLINE
  5
1F1
330
1F
100
AcDbEntity
  8
0
  6
Continuous
 62
     7
370
    30
100
AcDbSpline
210
0.0
220
0.0
230
1.0
 70
     8
 71
     3
 72
    10
 73
     6
 74
     0
 42
0.000000001
 43
0.00000001
 40
0.0
 40
0.0
 40
0.0
 40
0.0
 40
0.3745220417969054
 40
0.7489978686836464
 40
1.0
 40
1.0
 40
1.0
 40
1.0
 10
243.6865078758223
 20
169.7776991798891
 30
0.0
 10
243.7252875275624
 20
169.7960058456802
 30
0.0
 10
243.8028420457486
 20
169.8326169182742
 30
0.0
 10
243.8929749684475
 20
169.833151728279
 30
0.0
 10
243.9276638889363
 20
169.8016251543322
 30
0.0
 10
243.941584432197
 20
169.7889736497508
 30
0.0
  0
ARC
  5
1F2
330
1F
100
AcDbEntity
  8
0
  6
Continuous
 62
     7
370
    30
100
AcDbCircle
 10
224.519550748
 20
158.5790056196
 30
0.0
 40
8.11384706823556
100
AcDbArc
 50
105.8888738384
 51
134.8758702718
  0
ARC
  5
1F3
330
1F
100
AcDbEntity
  8
0
  6
Continuous
 62
     7
370
    30
100
AcDbCircle
 10
240.4112141277
 20
131.0513932622
 30
0.0
 40
8.099048324769493
100
AcDbArc
 50
287.008730857
 51
312.5747410425
  0
ARC
  5
1F4
330
1F
100
AcDbEntity
  8
0
  6
Continuous
 62
     7
370
    30
100
AcDbCircle
 10
240.2353035895
 20
132.2362810039
 30
0.0
 40
9.216019651775328
100
AcDbArc
 50
261.1754704464
 51
298.7850399486
  0
ARC
  5
1F5
330
1F
100
AcDbEntity
  8
0
  6
Continuous
 62
     7
370
    30
100
AcDbCircle
 10
225.2637323631
 20
158.0326473032
 30
0.0
 40
8.960838099144231
100
AcDbArc
 50
120.8029972992
 51
156.5108998716
  0
ARC
  5
1F6
330
1F
100
AcDbEntity
  8
0
  6
Continuous
 62
     7
370
    30
100
AcDbCircle
 10
254.3267116008
 20
157.4692996339
 30
0.0
 40
38.85828178087856
100
AcDbArc
 50
189.5720928891
 51
231.6577696371
  0
LINE
  5
1F7
330
1F
100
AcDbEntity
  8
0
  6
Continuous
 62
     7
370
    30
100
AcDbLine
 10
226.8941249007
 20
172.9404706335
 30
0.0
 11
238.0296536263
 21
166.5120667326
 31
0.0
  0
SPLINE
  5
1F8
330
1F
100
AcDbEntity
  8
0
  6
Continuous
 62
     7
370
    30
100
AcDbSpline
210
0.0
220
0.0
230
1.0
 70
     8
 71
     3
 72
    13
 73
     9
 74
     0
 42
0.000000001
 43
0.00000001
 40
0.0
 40
0.0
 40
0.0
 40
0.0
 40
0.2125350965009086
 40
0.4250439668006939
 40
0.6383088567421596
 40
0.8531918946359776
 40
0.988652947981455
 40
1.0
 40
1.0
 40
1.0
 40
1.0
 10
226.8941249006699
 20
172.9404706334974
 30
0.0
 10
226.8550946599207
 20
172.9129098962871
 30
0.0
 10
226.7770389946384
 20
172.8577918227799
 30
0.0
 10
226.6794196531614
 20
172.7230757076877
 30
0.0
 10
226.6102359272808
 20
172.5676143427511
 30
0.0
 10
226.5819272582892
 20
172.4241995121456
 30
0.0
 10
226.5821054470235
 20
172.3378410988483
 30
0.0
 10
226.5854006707778
 20
172.3046381572372
 30
0.0
 10
226.5856553643131
 20
172.3020718445347
 30
0.0
  0
LINE
  5
1F9
330
1F
100
AcDbEntity
  8
0
  6
Continuous
 62
     7
370
    30
100
AcDbLine
 10
243.6865078758
 20
169.7776991799
 30
0.0
 11
232.5509791502
 21
176.2061030808
 31
0.0
  0
LINE
  5
1FA
330
1F
100
AcDbEntity
  8
0
  6
Continuous
 62
     7
370
    30
100
AcDbLine
 10
226.8941249007
 20
172.9404706335
 30
0.0
 11
232.5509791502
 21
176.2061030808
 31
0.0
  0
LWPOLYLINE
  5
1FB
330
1F
100
AcDbEntity
  8
0
  6
Continuous
 62
     7
370
    30
100
AcDbPolyline
 90
       25
 70
   128
 43
0.0
 10
233.7700368087
 20
170.4814461865
 10
234.1117629977
 20
170.3300722692
 10
234.5097115732
 20
170.2349146467
 10
234.9367629977
 20
170.2024581538
 10
235.3638144221
 20
170.2349146467
 10
235.7617629977
 20
170.3300722692
 10
236.1034891866
 20
170.4814461865
 10
236.3657049139
 20
170.6787205163
 10
236.530540611
 20
170.908451339
 10
236.5867629977
 20
171.1549828787
 10
236.530540611
 20
171.4015144185
 10
236.3657049139
 20
171.6312452412
 10
236.1034891866
 20
171.828519571
 10
235.7617629977
 20
171.9798934883
 10
235.3638144221
 20
172.0750511107
 10
234.9367629977
 20
172.1075076037
 10
234.5097115732
 20
172.0750511107
 10
234.1117629977
 20
171.9798934883
 10
233.7700368087
 20
171.828519571
 10
233.5078210814
 20
171.6312452412
 10
233.3429853843
 20
171.4015144185
 10
233.2867629977
 20
171.1549828787
 10
233.3429853843
 20
170.908451339
 10
233.5078210814
 20
170.6787205163
 10
233.7700368087
 20
170.4814461865
  0
SPLINE
  5
1FC
330
1F
100
AcDbEntity
  8
0
  6
Continuous
 62
     7
370
    30
100
AcDbSpline
210
0.0
220
0.0
230
1.0
 70
     8
 71
     3
 72
    10
 73
     6
 74
     0
 42
0.000000001
 43
0.00000001
 40
0.0
 40
0.0
 40
0.0
 40
0.0
 40
0.4264761855157289
 40
0.8528997451339102
 40
1.0
 40
1.0
 40
1.0
 40
1.0
 10
232.5509791501623
 20
176.2061030807882
 30
0.0
 10
232.5906535506518
 20
176.2235396529429
 30
0.0
 10
232.6699974559274
 20
176.2584106456308
 30
0.0
 10
232.762113269363
 20
176.2555417886919
 30
0.0
 10
232.80116965266
 20
176.2253980273573
 30
0.0
 10
232.8111870290828
 20
176.2176666047678
 30
0.0
  0
ARC
  5
1FD
330
1F
100
AcDbEntity
  8
0
  6
Continuous
 62
     7
370
    30
100
AcDbCircle
 10
222.0451057692
 20
162.8670005385
 30
0.0
 40
10.66242402432597
100
AcDbArc
 50
105.1003888531
 51
134.1264423571
  0
ARC
  5
1FE
330
1F
100
AcDbEntity
  8
0
  6
Continuous
 62
     7
370
    30
100
AcDbCircle
 10
227.7038917512
 20
166.1092879184
 30
0.0
 40
10.68517157652292
100
AcDbArc
 50
105.9291758534
 51
119.9460383757
  0
LINE
  5
1FF
330
1F
100
AcDbEntity
  8
0
  6
Continuous
 62
     7
370
    30
100
AcDbLine
 10
241.6253736625
 20
115.4607698513
 30
0.0
 11
241.4837043168
 21
115.3758364055
 31
0.0
  0
ARC
  5
200
330
1F
100
AcDbEntity
  8
0
  6
Continuous
 62
     7
370
    30
100
AcDbCircle
 10
238.6971037867
 20
112.4114738223
 30
0.0
 40
0.6238419567318362
100
AcDbArc
 50
226.9272187375
 51
295.2619699485
  0
LINE
  5
201
330
1F
100
AcDbEntity
  8
0
  6
Continuous
 62
     7
370
    30
100
AcDbLine
 10
238.9633331359
 20
111.8472923616
 30
0.0
 11
244.6201873854
 21
115.1129248089
 31
0.0
  0
ARC
  5
202
330
1F
100
AcDbEntity
  8
0
  6
Continuous
 62
     7
370
    30
100
AcDbCircle
 10
219.63668689
 20
137.4151738076
 30
0.0
 40
6.677723414021096
100
AcDbArc
 50
15.3801413003
 51
44.6198588453
  0
ARC
  5
203
330
1F
100
AcDbEntity
  8
0
  6
Continuous
 62
     7
370
    30
100
AcDbCircle
 10
232.5137715761
 20
140.9582000235
 30
0.0
 40
6.677887598282962
100
AcDbArc
 50
195.3874833891
 51
215.1787249251
  0
ARC
  5
204
330
1F
100
AcDbEntity
  8
0
  6
Continuous
 62
     7
370
    30
100
AcDbCircle
 10
229.1433304307
 20
146.7953590102
 30
0.0
 40
6.677580644898895
100
AcDbArc
 50
204.8210421892
 51
224.6128951984
  0
LWPOLYLINE
  5
205
330
1F
100
AcDbEntity
  8
0
  6
Continuous
 62
     8
370
    30
100
AcDbPolyline
 90
       35
 70
   128
 43
0.0
 10
238.0296536263
 20
166.5120667326
 10
239.2903462962
 20
165.3623241977
 10
240.5273261133
 20
164.1412514864
 10
241.7362974775
 20
162.8530889587
 10
242.9130620524
 20
161.5023099546
 10
244.0535333446
 20
160.0936052589
 10
245.1537508945
 20
158.6318668125
 10
246.2098940297
 20
157.1221707237
 10
247.218295133
 20
155.5697596413
 10
248.1754523787
 20
153.9800245482
 10
249.0780418929
 20
152.3584860407
 10
249.9229292968
 20
150.7107751571
 10
250.7071805907
 20
149.0426138235
 10
251.4280723429
 20
147.3597949831
 10
252.0831011475
 20
145.6681624795
 10
252.6699923177
 20
143.9735907633
 10
253.1867077848
 20
142.2819644918
 10
253.631453176
 20
140.5991580938
 10
254.0026840455
 20
138.9310153697
 10
254.2991112377
 20
137.2833291982
 10
254.5197053643
 20
135.6618214195
 10
254.6637003788
 20
134.0721229652
 10
254.7305962364
 20
132.5197543044
 10
254.7201606314
 20
131.0101062727
 10
254.6324298029
 20
129.5484213519
 10
254.4677084094
 20
128.1397754646
 10
254.2265684711
 20
126.7890603473
 10
253.9098473829
 20
125.5009665632
 10
253.5186450068
 20
124.2799672132
 10
253.0543198525
 20
123.1303024028
 10
252.5184843595
 20
122.0559645175
 10
251.9129992977
 20
121.0606843585
 10
251.239967306
 20
120.1479181872
 10
250.50172559
 20
119.3208357224
 10
250.4065631409
 20
119.2251877934
  0
ARC
  5
206
330
1F
100
AcDbEntity
  8
0
  6
Continuous
 62
     8
370
    30
100
AcDbCircle
 10
243.604398011
 20
116.4919478335
 30
0.0
 40
0.4024552145481406
100
AcDbArc
 50
195.6796992038
 51
272.3477543278
  0
LWPOLYLINE
  5
207
330
1F
100
AcDbEntity
  8
0
  6
Continuous
 62
     8
370
    30
100
AcDbPolyline
 90
       35
 70
   128
 43
0.0
 10
255.9479102334
 20
122.377751957
 10
256.1585798395
 20
122.5864681697
 10
256.8968215555
 20
123.4135506344
 10
257.5698535472
 20
124.3263168058
 10
258.175338609
 20
125.3215969648
 10
258.711174102
 20
126.3959348501
 10
259.1754992563
 20
127.5455996605
 10
259.5667016324
 20
128.7665990105
 10
259.8834227206
 20
130.0546927946
 10
260.1245626589
 20
131.4054079119
 10
260.2892840523
 20
132.8140537992
 10
260.3770148809
 20
134.27573872
 10
260.3874504859
 20
135.7853867517
 10
260.3205546282
 20
137.3377554125
 10
260.1765596138
 20
138.9274538668
 10
259.9559654872
 20
140.5489616455
 10
259.659538295
 20
142.196647817
 10
259.2883074255
 20
143.8647905411
 10
258.8435620343
 20
145.5475969391
 10
258.3268465672
 20
147.2392232106
 10
257.739955397
 20
148.9337949268
 10
257.0849265924
 20
150.6254274303
 10
256.3640348402
 20
152.3082462708
 10
255.5797835463
 20
153.9764076044
 10
254.7348961424
 20
155.624118488
 10
253.8323066282
 20
157.2456569955
 10
252.8751493825
 20
158.8353920886
 10
251.8667482792
 20
160.387803171
 10
250.810605144
 20
161.8974992598
 10
249.7103875941
 20
163.3592377062
 10
248.5699163019
 20
164.7679424019
 10
247.393151727
 20
166.118721406
 10
246.1841803628
 20
167.4068839337
 10
244.9472005457
 20
168.627956645
 10
243.6865078758
 20
169.7776991799
  0
LWPOLYLINE
  5
208
330
1F
100
AcDbEntity
  8
0
  6
Continuous
 62
     8
370
    30
100
AcDbPolyline
 90
       17
 70
   128
 43
0.0
 10
223.0826021741
 20
143.9922078784
 10
222.415873086
 20
145.4956712942
 10
221.8114554515
 20
147.0094191214
 10
221.2717476944
 20
148.5274445711
 10
220.79889146
 20
150.0437238802
 10
220.3947631159
 20
151.5522402144
 10
220.0609663067
 20
153.0470075444
 10
219.7988255907
 20
154.5220943987
 10
219.6093811832
 20
155.9716474014
 10
219.4933848295
 20
157.3899144987
 10
219.4512968212
 20
158.7712677842
 10
219.4832841702
 20
160.1102258314
 10
219.5892199456
 20
161.4014754447
 10
219.7686837777
 20
162.639892743
 10
220.0209635258
 20
163.8205634921
 10
220.3450581044
 20
164.9388026054
 10
220.6200315268
 20
165.6973852319
  0
LINE
  5
209
330
1F
100
AcDbEntity
  8
0
  6
Continuous
 62
     8
370
    30
100
AcDbLine
 10
218.8932228901
 20
141.5737306964
 30
0.0
 11
223.0826021741
 21
143.9922078784
 31
0.0
  0
LWPOLYLINE
  5
20A
330
1F
100
AcDbEntity
  8
0
  6
Continuous
 62
     8
370
    30
100
AcDbPolyline
 90
       46
 70
   128
 43
0.0
 10
218.7946377436
 20
164.3287782532
 10
218.7324155959
 20
164.2664458932
 10
218.1031766911
 20
163.5566941028
 10
217.536724783
 20
162.7650192734
 10
217.0355368217
 20
161.8948831975
 10
216.6018043745
 20
160.9500907587
 10
216.2374240432
 20
159.9347732941
 10
215.9439891701
 20
158.8533705285
 10
215.7227828714
 20
157.7106111611
 10
215.5747724259
 20
156.5114921878
 10
215.5006050456
 20
155.2612570509
 10
215.5006050456
 20
153.9653727105
 10
215.5747724259
 20
152.629505739
 10
215.7227828714
 20
151.2594975428
 10
215.9439891701
 20
149.8613388193
 10
216.2374240432
 20
148.4411433607
 10
216.6018043745
 20
147.0051213205
 10
217.0355368217
 20
145.5595520575
 10
217.536724783
 20
144.1107566786
 10
218.1031766911
 20
142.6650703971
 10
218.7324155959
 20
141.2288148313
 10
219.4216899957
 20
139.8082703615
 10
220.167985869
 20
138.4096486671
 10
220.9680398538
 20
137.039065565
 10
221.8183535177
 20
135.7025142663
 10
222.7152086552
 20
134.4058391698
 10
223.6546835471
 20
133.1547103057
 10
224.6326701087
 20
131.9545985423
 10
225.6448918537
 20
130.810751663
 10
226.6869225938
 20
129.728171419
 10
227.7542057937
 20
128.7115916584
 10
228.8420744957
 20
127.7654576258
 10
229.9457717267
 20
126.8939065245
 10
231.0604712994
 20
126.1007494259
 10
232.1812989164
 20
125.3894546041
 10
233.3033534835
 20
124.7631323703
 10
234.4217285417
 20
124.2245214723
 10
235.5315337214
 20
123.7759771186
 10
236.6279161269
 20
123.4194606795
 10
237.7060815569
 20
123.1565311106
 10
238.7613154683
 20
122.9883381361
 10
239.7890035918
 20
122.915617221
 10
240.7846521086
 20
122.9386863554
 10
241.7439073011
 20
123.0574446638
 10
242.6625745904
 20
123.2713728465
 10
242.7803268899
 20
123.3065957511
  0
LWPOLYLINE
  5
20B
330
1F
100
AcDbEntity
  8
0
  6
Continuous
 62
     8
370
    30
100
AcDbPolyline
 90
       37
 70
   128
 43
0.0
 10
238.8214841151
 20
123.1293532719
 10
237.9182135912
 20
123.2789923274
 10
236.8400481612
 20
123.5419218963
 10
235.7436657557
 20
123.8984383354
 10
234.633860576
 20
124.3469826891
 10
233.5154855178
 20
124.8855935871
 10
232.3934309507
 20
125.5119158208
 10
231.2726033338
 20
126.2232106427
 10
230.157903761
 20
127.0163677413
 10
229.0542065301
 20
127.8879188425
 10
227.9663378281
 20
128.8340528751
 10
226.8990546281
 20
129.8506326358
 10
225.857023888
 20
130.9332128797
 10
224.8448021431
 20
132.0770597591
 10
223.8668155815
 20
133.2771715225
 10
222.9273406895
 20
134.5283003866
 10
222.030485552
 20
135.8249754831
 10
221.1801718882
 20
137.1615267818
 10
220.3801179034
 20
138.5321098839
 10
219.6338220301
 20
139.9307315783
 10
218.9445476302
 20
141.3512760481
 10
218.3153087255
 20
142.7875316138
 10
217.7488568174
 20
144.2332178953
 10
217.247668856
 20
145.6820132743
 10
216.8139364089
 20
147.1275825372
 10
216.4495560775
 20
148.5636045775
 10
216.1561212045
 20
149.9838000361
 10
215.9349149058
 20
151.3819587596
 10
215.7869044603
 20
152.7519669558
 10
215.71273708
 20
154.0878339273
 10
215.71273708
 20
155.3837182677
 10
215.7869044603
 20
156.6339534046
 10
215.9349149058
 20
157.8330723779
 10
216.1561212045
 20
158.9758317452
 10
216.4495560775
 20
160.0572345108
 10
216.8139364089
 20
161.0725519755
 10
217.0454259114
 20
161.6042097772
  0
ARC
  5
20C
330
1F
100
AcDbEntity
  8
0
  6
Continuous
 62
     8
370
    30
100
AcDbCircle
 10
222.9825966427
 20
144.2915091624
 30
0.0
 40
0.3155667360755794
100
AcDbArc
 50
288.4760189406
 51
328.3041569896
  0
ARC
  5
20D
330
1F
100
AcDbEntity
  8
0
  6
Continuous
 62
     8
370
    30
100
AcDbCircle
 10
222.676848957
 20
159.0980949274
 30
0.0
 40
14.47054876549966
100
AcDbArc
 50
73.0558996447
 51
103.627650492
  0
LWPOLYLINE
  5
20E
330
1F
100
AcDbEntity
  8
0
  6
Continuous
 62
     8
370
    30
100
AcDbPolyline
 90
        5
 70
   128
 43
0.0
 10
220.9621537376
 20
129.1015317887
 10
220.9597951941
 20
129.1051999026
 10
220.9580996022
 20
129.1293062233
 10
220.9715915705
 20
129.1643139611
 10
220.9997526104
 20
129.2088777882
  0
ARC
  5
20F
330
1F
100
AcDbEntity
  8
0
  6
Continuous
 62
     8
370
    30
100
AcDbCircle
 10
228.3532120222
 20
162.8404884224
 30
0.0
 40
14.00931490314503
100
AcDbArc
 50
72.5639493875
 51
104.8136806716
  0
LWPOLYLINE
  5
210
330
1F
100
AcDbEntity
  8
0
  6
Continuous
 62
     8
370
    30
100
AcDbPolyline
 90
       17
 70
   128
 43
0.0
 10
244.6150406244
 20
124.1278919143
 10
243.9407295103
 20
124.2449557621
 10
242.8046858985
 20
124.5157948187
 10
241.6497933214
 20
124.8814494861
 10
240.4806972757
 20
125.3404489372
 10
239.3021003908
 20
125.8909468698
 10
238.118743513
 20
126.530728934
 10
236.9353866352
 20
127.257221639
 10
235.7567897503
 20
128.0675027046
 10
234.5876937046
 20
128.9583128164
 10
233.4328011275
 20
129.9260687361
 10
232.2967575157
 20
130.9668777144
 10
231.1841325471
 20
132.0765531502
 10
230.0994016991
 20
133.2506314303
 10
229.0469282465
 20
134.4843898844
 10
228.0309457102
 20
135.7728657818
 10
227.0555408286
 20
137.1108762937
  0
LINE
  5
211
330
1F
100
AcDbEntity
  8
0
  6
Continuous
 62
     8
370
    30
100
AcDbLine
 10
222.8661916759
 20
134.6924165062
 30
0.0
 11
227.0555408286
 21
137.1108762937
 31
0.0
  0
ARC
  5
212
330
1F
100
AcDbEntity
  8
0
  6
Continuous
 62
     8
370
    30
100
AcDbCircle
 10
244.8192960594
 20
110.3288889797
 30
0.0
 40
6.049615739208819
100
AcDbArc
 50
123.4612231137
 51
165.4637959444
  0
LWPOLYLINE
  5
213
330
1F
100
AcDbEntity
  8
0
  6
Continuous
 62
     8
370
    30
100
AcDbPolyline
 90
        3
 70
   128
 43
0.0
 10
244.6201873854
 20
115.1129248089
 10
244.9487583334
 20
116.0043095598
 10
245.1193434337
 20
116.3656463907
  0
ARC
  5
214
330
1F
100
AcDbEntity
  8
0
  6
Continuous
 62
     8
370
    30
100
AcDbCircle
 10
227.2829081201
 20
136.8285868224
 30
0.0
 40
0.362468248036081
100
AcDbArc
 50
94.349131802
 51
128.8493662222
  0
ARC
  5
215
330
1F
100
AcDbEntity
  8
0
  6
Continuous
 62
     8
370
    30
100
AcDbCircle
 10
244.4804451291
 20
115.3716702569
 30
0.0
 40
0.2940698982855717
100
AcDbArc
 50
298.3724260773
 51
341.6047016523
  0
ARC
  5
216
330
1F
100
AcDbEntity
  8
0
  6
Continuous
 62
     8
370
    30
100
AcDbCircle
 10
238.5806857959
 20
111.9433594874
 30
0.0
 40
0.3945223433894858
100
AcDbArc
 50
301.369101722
 51
345.9066542506
  0
ARC
  5
217
330
1F
100
AcDbEntity
  8
0
  6
Continuous
 62
     8
370
    30
100
AcDbCircle
 10
238.1701640871
 20
111.8297812428
 30
0.0
 40
0.2397341982754204
100
AcDbArc
 50
172.7416063355
 51
235.9691872151
  0
ARC
  5
218
330
1F
100
AcDbEntity
  8
0
  6
Continuous
 62
     8
370
    30
100
AcDbCircle
 10
244.2375807624
 20
115.2089703382
 30
0.0
 40
0.3944775933792356
100
AcDbArc
 50
301.3337659109
 51
345.9082565576
  0
ARC
  5
219
330
1F
100
AcDbEntity
  8
0
  6
Continuous
 62
     8
370
    30
100
AcDbCircle
 10
226.5221635133
 20
118.5540530244
 30
0.0
 40
0.2397627732409802
100
AcDbArc
 50
172.7441704431
 51
235.9436491635
  0
LINE
  5
21A
330
1F
100
AcDbEntity
  8
0
  6
Continuous
 62
     8
370
    30
100
AcDbLine
 10
221.58764167
 20
136.59560362
 30
0.0
 11
226.0752635863
 21
139.1862526088
 31
0.0
  0
LINE
  5
21B
330
1F
100
AcDbEntity
  8
0
  6
Continuous
 62
     8
370
    30
100
AcDbLine
 10
219.9021432881
 20
139.5149510703
 30
0.0
 11
224.3897744601
 21
142.1056054023
 31
0.0
  0
ARC
  5
21C
330
1F
100
AcDbEntity
  8
0
  6
Continuous
 62
     8
370
    30
100
AcDbCircle
 10
225.9521826433
 20
119.2230878489
 30
0.0
 40
0.1521285089283419
100
AcDbArc
 50
202.1747058443
 51
267.5224218059
  0
LWPOLYLINE
  5
21D
330
1F
100
AcDbEntity
  8
0
  6
Continuous
 62
     8
370
    30
100
AcDbPolyline
 90
        6
 70
   128
 43
0.0
 10
224.3897744601
 20
142.1056054023
 10
224.456417044
 20
142.1394021107
 10
224.515834069
 20
142.1598567867
 10
224.565742172
 20
142.1661833685
 10
224.6042234127
 20
142.1581387291
 10
224.6217859966
 20
142.1459357547
  0
LWPOLYLINE
  5
21E
330
1F
100
AcDbEntity
  8
0
  6
Continuous
 62
     8
370
    30
100
AcDbPolyline
 90
        6
 70
   128
 43
0.0
 10
226.0752635863
 20
139.1862526088
 10
226.137857895
 20
139.2270611354
 10
226.1852856676
 20
139.2682818056
 10
226.2157242811
 20
139.3083305322
 10
226.2280039969
 20
139.3456682652
 10
226.2262204616
 20
139.3669748702
  0
ENDSEC
  0
SECTION
  2
OBJECTS
  0
DICTIONARY
  5
C
330
0
100
AcDbDictionary
281
     1
  3
ACAD_GROUP
350
D
  3
ACAD_LAYOUT
350
1A
  3
ACAD_MLINESTYLE
350
17
  3
ACAD_PLOTSETTINGS
350
19
  3
ACAD_PLOTSTYLENAME
350
E
  3
ACAD_SCALELIST
350
47
  0
DICTIONARY
  5
D
102
{ACAD_REACTORS
330
C
102
}
330
C
100
AcDbDictionary
281
     1
  0
DICTIONARY
  5
1A
102
{ACAD_REACTORS
330
C
102
}
330
C
100
AcDbDictionary
281
     1
  3
Layout1
350
1E
  3
Layout2
350
26
  3
Model
350
22
  0
DICTIONARY
  5
17
102
{ACAD_REACTORS
330
C
102
}
330
C
100
AcDbDictionary
281
     1
  3
Standard
350
18
  0
DICTIONARY
  5
19
102
{ACAD_REACTORS
330
C
102
}
330
C
100
AcDbDictionary
281
     1
  0
ACDBDICTIONARYWDFLT
  5
E
102
{ACAD_REACTORS
330
C
102
}
330
C
100
AcDbDictionary
281
     1
  3
Normal
350
F
100
AcDbDictionaryWithDefault
340
F
  0
DICTIONARY
  5
47
102
{ACAD_REACTORS
330
C
102
}
330
C
100
AcDbDictionary
281
     1
  3
A0
350
48
  3
A1
350
49
  3
A2
350
4A
  3
A3
350
4B
  3
A4
350
4C
  3
A5
350
4D
  3
A6
350
4E
  3
A7
350
4F
  3
A8
350
50
  3
A9
350
51
  3
B0
350
52
  3
B1
350
53
  3
B2
350
54
  3
B3
350
55
  3
B4
350
56
  3
B5
350
57
  3
B6
350
58
  3
B7
350
59
  3
B8
350
5A
  3
B9
350
5B
  3
C0
350
5C
  3
C1
350
5D
  3
C2
350
5E
  3
C3
350
5F
  3
C4
350
60
  3
C5
350
61
  3
C6
350
62
  3
C7
350
63
  3
C8
350
64
  3
C9
350
65
  3
D0
350
66
  3
D1
350
67
  3
D2
350
68
  0
LAYOUT
  5
1E
102
{ACAD_REACTORS
330
1A
102
}
330
1A
100
AcDbPlotSettings
  1

  2
none_device
  4

  6

 40
0.0
 41
0.0
 42
0.0
 43
0.0
 44
0.0
 45
0.0
 46
0.0
 47
0.0
 48
0.0
 49
0.0
140
0.0
141
0.0
142
1.0
143
1.0
 70
   688
 72
     1
 73
     0
 74
     5
  7

 75
    16
147
1.0
148
0.0
149
0.0
100
AcDbLayout
  1
Layout1
 70
     1
 71
     1
 10
0.0
 20
0.0
 11
420.0
 21
297.0
 12
0.0
 22
0.0
 32
0.0
 14
1.0000000000E+20
 24
1.0000000000E+20
 34
1.0000000000E+20
 15
-1.0000000000E+20
 25
-1.0000000000E+20
 35
-1.0000000000E+20
146
0.0
 13
0.0
 23
0.0
 33
0.0
 16
1.0
 26
0.0
 36
0.0
 17
0.0
 27
1.0
 37
0.0
 76
     0
330
1B
  0
LAYOUT
  5
26
102
{ACAD_REACTORS
330
1A
102
}
330
1A
100
AcDbPlotSettings
  1

  2
none_device
  4

  6

 40
0.0
 41
0.0
 42
0.0
 43
0.0
 44
0.0
 45
0.0
 46
0.0
 47
0.0
 48
0.0
 49
0.0
140
0.0
141
0.0
142
1.0
143
1.0
 70
   688
 72
     1
 73
     0
 74
     5
  7

 75
    16
147
1.0
148
0.0
149
0.0
100
AcDbLayout
  1
Layout2
 70
     1
 71
     2
 10
0.0
 20
0.0
 11
0.0
 21
0.0
 12
0.0
 22
0.0
 32
0.0
 14
0.0
 24
0.0
 34
0.0
 15
0.0
 25
0.0
 35
0.0
146
0.0
 13
0.0
 23
0.0
 33
0.0
 16
1.0
 26
0.0
 36
0.0
 17
0.0
 27
1.0
 37
0.0
 76
     0
330
23
  0
LAYOUT
  5
22
102
{ACAD_REACTORS
330
1A
102
}
330
1A
100
AcDbPlotSettings
  1

  2
none_device
  4
Letter_(8.50_x_11.00_Inches)
  6

 40
6.35
 41
6.35
 42
6.35000508
 43
6.35000508
 44
215.9
 45
279.4
 46
0.0
 47
0.0
 48
0.0
 49
0.0
140
0.0
141
0.0
142
1.0
143
1.0
 70
  1712
 72
     1
 73
     0
 74
     0
  7

 75
     0
147
1.0
148
0.0
149
0.0
100
AcDbLayout
  1
Model
 70
     1
 71
     0
 10
0.0
 20
0.0
 11
297.0
 21
210.0
 12
0.0
 22
0.0
 32
0.0
 14
0.0
 24
0.0
 34
0.0
 15
297.0
 25
210.0
 35
0.0
146
0.0
 13
0.0
 23
0.0
 33
0.0
 16
1.0
 26
0.0
 36
0.0
 17
0.0
 27
1.0
 37
0.0
 76
     0
330
1F
331
29
  0
MLINESTYLE
  5
18
102
{ACAD_REACTORS
330
17
102
}
330
17
100
AcDbMlineStyle
  2
Standard
 70
     0
  3

 62
   256
 51
90.0
 52
90.0
 71
     2
 49
0.5
 62
   256
  6
BYLAYER
 49
-0.5
 62
   256
  6
BYLAYER
  0
ACDBPLACEHOLDER
  5
F
102
{ACAD_REACTORS
330
E
102
}
330
E
  0
SCALE
  5
48
102
{ACAD_REACTORS
330
47
102
}
330
47
100
AcDbScale
 70
     0
300
1:1
140
1.0
141
1.0
290
     1
  0
SCALE
  5
49
102
{ACAD_REACTORS
330
47
102
}
330
47
100
AcDbScale
 70
     0
300
1:2
140
1.0
141
2.0
290
     0
  0
SCALE
  5
4A
102
{ACAD_REACTORS
330
47
102
}
330
47
100
AcDbScale
 70
     0
300
1:4
140
1.0
141
4.0
290
     0
  0
SCALE
  5
4B
102
{ACAD_REACTORS
330
47
102
}
330
47
100
AcDbScale
 70
     0
300
1:5
140
1.0
141
5.0
290
     0
  0
SCALE
  5
4C
102
{ACAD_REACTORS
330
47
102
}
330
47
100
AcDbScale
 70
     0
300
1:8
140
1.0
141
8.0
290
     0
  0
SCALE
  5
4D
102
{ACAD_REACTORS
330
47
102
}
330
47
100
AcDbScale
 70
     0
300
1:10
140
1.0
141
10.0
290
     0
  0
SCALE
  5
4E
102
{ACAD_REACTORS
330
47
102
}
330
47
100
AcDbScale
 70
     0
300
1:16
140
1.0
141
16.0
290
     0
  0
SCALE
  5
4F
102
{ACAD_REACTORS
330
47
102
}
330
47
100
AcDbScale
 70
     0
300
1:20
140
1.0
141
20.0
290
     0
  0
SCALE
  5
50
102
{ACAD_REACTORS
330
47
102
}
330
47
100
AcDbScale
 70
     0
300
1:30
140
1.0
141
30.0
290
     0
  0
SCALE
  5
51
102
{ACAD_REACTORS
330
47
102
}
330
47
100
AcDbScale
 70
     0
300
1:40
140
1.0
141
40.0
290
     0
  0
SCALE
  5
52
102
{ACAD_REACTORS
330
47
102
}
330
47
100
AcDbScale
 70
     0
300
1:50
140
1.0
141
50.0
290
     0
  0
SCALE
  5
53
102
{ACAD_REACTORS
330
47
102
}
330
47
100
AcDbScale
 70
     0
300
1:100
140
1.0
141
100.0
290
     0
  0
SCALE
  5
54
102
{ACAD_REACTORS
330
47
102
}
330
47
100
AcDbScale
 70
     0
300
2:1
140
2.0
141
1.0
290
     0
  0
SCALE
  5
55
102
{ACAD_REACTORS
330
47
102
}
330
47
100
AcDbScale
 70
     0
300
4:1
140
4.0
141
1.0
290
     0
  0
SCALE
  5
56
102
{ACAD_REACTORS
330
47
102
}
330
47
100
AcDbScale
 70
     0
300
8:1
140
8.0
141
1.0
290
     0
  0
SCALE
  5
57
102
{ACAD_REACTORS
330
47
102
}
330
47
100
AcDbScale
 70
     0
300
10:1
140
10.0
141
1.0
290
     0
  0
SCALE
  5
58
102
{ACAD_REACTORS
330
47
102
}
330
47
100
AcDbScale
 70
     0
300
100:1
140
100.0
141
1.0
290
     0
  0
SCALE
  5
59
102
{ACAD_REACTORS
330
47
102
}
330
47
100
AcDbScale
 70
     0
300
1/128" = 1'-0"
140
0.0078125
141
12.0
290
     0
  0
SCALE
  5
5A
102
{ACAD_REACTORS
330
47
102
}
330
47
100
AcDbScale
 70
     0
300
1/64" = 1'-0"
140
0.015625
141
12.0
290
     0
  0
SCALE
  5
5B
102
{ACAD_REACTORS
330
47
102
}
330
47
100
AcDbScale
 70
     0
300
1/32" = 1'-0"
140
0.03125
141
12.0
290
     0
  0
SCALE
  5
5C
102
{ACAD_REACTORS
330
47
102
}
330
47
100
AcDbScale
 70
     0
300
1/16" = 1'-0"
140
0.0625
141
12.0
290
     0
  0
SCALE
  5
5D
102
{ACAD_REACTORS
330
47
102
}
330
47
100
AcDbScale
 70
     0
300
3/32" = 1'-0"
140
0.09375
141
12.0
290
     0
  0
SCALE
  5
5E
102
{ACAD_REACTORS
330
47
102
}
330
47
100
AcDbScale
 70
     0
300
1/8" = 1'-0"
140
0.125
141
12.0
290
     0
  0
SCALE
  5
5F
102
{ACAD_REACTORS
330
47
102
}
330
47
100
AcDbScale
 70
     0
300
3/16" = 1'-0"
140
0.1875
141
12.0
290
     0
  0
SCALE
  5
60
102
{ACAD_REACTORS
330
47
102
}
330
47
100
AcDbScale
 70
     0
300
1/4" = 1'-0"
140
0.25
141
12.0
290
     0
  0
SCALE
  5
61
102
{ACAD_REACTORS
330
47
102
}
330
47
100
AcDbScale
 70
     0
300
3/8" = 1'-0"
140
0.375
141
12.0
290
     0
  0
SCALE
  5
62
102
{ACAD_REACTORS
330
47
102
}
330
47
100
AcDbScale
 70
     0
300
1/2" = 1'-0"
140
0.5
141
12.0
290
     0
  0
SCALE
  5
63
102
{ACAD_REACTORS
330
47
102
}
330
47
100
AcDbScale
 70
     0
300
3/4" = 1'-0"
140
0.75
141
12.0
290
     0
  0
SCALE
  5
64
102
{ACAD_REACTORS
330
47
102
}
330
47
100
AcDbScale
 70
     0
300
1" = 1'-0"
140
1.0
141
12.0
290
     0
  0
SCALE
  5
65
102
{ACAD_REACTORS
330
47
102
}
330
47
100
AcDbScale
 70
     0
300
1-1/2" = 1'-0"
140
1.5
141
12.0
290
     0
  0
SCALE
  5
66
102
{ACAD_REACTORS
330
47
102
}
330
47
100
AcDbScale
 70
     0
300
3" = 1'-0"
140
3.0
141
12.0
290
     0
  0
SCALE
  5
67
102
{ACAD_REACTORS
330
47
102
}
330
47
100
AcDbScale
 70
     0
300
6" = 1'-0"
140
6.0
141
12.0
290
     0
  0
SCALE
  5
68
102
{ACAD_REACTORS
330
47
102
}
330
47
100
AcDbScale
 70
     0
300
1'-0" = 1'-0"
140
12.0
141
12.0
290
     0
  0
ENDSEC
  0
EOF
