  0
SECTION
  2
HEADER
  9
$ACADVER
  1
AC1018
  9
$ACADMAINTVER
 70
     0
  9
$DWGCODEPAGE
  3
ANSI_950
  9
$LASTSAVEDBY
  1
R2591
  9
$INSBASE
 10
0.0
 20
0.0
 30
0.0
  9
$EXTMIN
 10
0.0
 20
0.0
 30
0.0
  9
$EXTMAX
 10
297.0
 20
210.0
 30
0.0
  9
$LIMMIN
 10
0.0
 20
0.0
  9
$LIMMAX
 10
297.0
 20
210.0
  9
$ORTHOMODE
 70
     0
  9
$REGENMODE
 70
     1
  9
$FILLMODE
 70
     1
  9
$QTEXTMODE
 70
     0
  9
$MIRRTEXT
 70
     1
  9
$LTSCALE
 40
1.0
  9
$ATTMODE
 70
     1
  9
$TEXTSIZE
 40
2.5
  9
$TRACEWID
 40
1.0
  9
$TEXTSTYLE
  7
Standard
  9
$CLAYER
  8
0
  9
$CELTYPE
  6
ByLayer
  9
$CECOLOR
 62
   256
  9
$CELTSCALE
 40
1.0
  9
$DISPSILH
 70
     0
  9
$DIMSCALE
 40
1.0
  9
$DIMASZ
 40
2.0
  9
$DIMEXO
 40
1.0
  9
$DIMDLI
 40
3.75
  9
$DIMRND
 40
0.0
  9
$DIMDLE
 40
0.0
  9
$DIMEXE
 40
1.0
  9
$DIMTP
 40
0.0
  9
$DIMTM
 40
0.0
  9
$DIMTXT
 40
2.5
  9
$DIMCEN
 40
2.5
  9
$DIMTSZ
 40
0.0
  9
$DIMTOL
 70
     0
  9
$DIMLIM
 70
     0
  9
$DIMTIH
 70
     1
  9
$DIMTOH
 70
     1
  9
$DIMSE1
 70
     0
  9
$DIMSE2
 70
     0
  9
$DIMTAD
 70
     1
  9
$DIMZIN
 70
     0
  9
$DIMBLK
  1

  9
$DIMASO
 70
     1
  9
$DIMSHO
 70
     1
  9
$DIMPOST
  1

  9
$DIMAPOST
  1

  9
$DIMALT
 70
     0
  9
$DIMALTD
 70
     3
  9
$DIMALTF
 40
0.0393700787
  9
$DIMLFAC
 40
1.0
  9
$DIMTOFL
 70
     1
  9
$DIMTVP
 40
0.0
  9
$DIMTIX
 70
     0
  9
$DIMSOXD
 70
     0
  9
$DIMSAH
 70
     0
  9
$DIMBLK1
  1

  9
$DIMBLK2
  1

  9
$DIMSTYLE
  2
ISO-25
  9
$DIMCLRD
 70
     0
  9
$DIMCLRE
 70
     0
  9
$DIMCLRT
 70
     0
  9
$DIMTFAC
 40
1.0
  9
$DIMGAP
 40
1.0
  9
$DIMJUST
 70
     0
  9
$DIMSD1
 70
     0
  9
$DIMSD2
 70
     0
  9
$DIMTOLJ
 70
     0
  9
$DIMTZIN
 70
     0
  9
$DIMALTZ
 70
     0
  9
$DIMALTTZ
 70
     0
  9
$DIMUPT
 70
     0
  9
$DIMDEC
 70
     2
  9
$DIMTDEC
 70
     2
  9
$DIMALTU
 70
     2
  9
$DIMALTTD
 70
     3
  9
$DIMTXSTY
  7
Standard
  9
$DIMAUNIT
 70
     0
  9
$DIMADEC
 70
     1
  9
$DIMALTRND
 40
0.0
  9
$DIMAZIN
 70
     0
  9
$DIMDSEP
 70
    44
  9
$DIMATFIT
 70
     3
  9
$DIMFRAC
 70
     0
  9
$DIMLDRBLK
  1

  9
$DIMLUNIT
 70
     2
  9
$DIMLWD
 70
    -2
  9
$DIMLWE
 70
    -2
  9
$DIMTMOVE
 70
     0
  9
$LUNITS
 70
     2
  9
$LUPREC
 70
     2
  9
$SKETCHINC
 40
1.0
  9
$FILLETRAD
 40
0.0
  9
$AUNITS
 70
     0
  9
$AUPREC
 70
     1
  9
$MENU
  1
.
  9
$ELEVATION
 40
0.0
  9
$PELEVATION
 40
0.0
  9
$THICKNESS
 40
0.0
  9
$LIMCHECK
 70
     0
  9
$CHAMFERA
 40
0.0
  9
$CHAMFERB
 40
0.0
  9
$CHAMFERC
 40
0.0
  9
$CHAMFERD
 40
0.0
  9
$SKPOLY
 70
     0
  9
$TDCREATE
 40
2460315.636486759
  9
$TDUCREATE
 40
2460315.303153426
  9
$TDUPDATE
 40
2460315.63649147
  9
$TDUUPDATE
 40
2460315.303158137
  9
$TDINDWG
 40
0.0000000116
  9
$TDUSRTIMER
 40
0.0000000116
  9
$USRTIMER
 70
     1
  9
$ANGBASE
 50
0.0
  9
$ANGDIR
 70
     0
  9
$PDMODE
 70
     0
  9
$PDSIZE
 40
-1.0
  9
$PLINEWID
 40
0.0
  9
$SPLFRAME
 70
     0
  9
$SPLINETYPE
 70
     6
  9
$SPLINESEGS
 70
     8
  9
$HANDSEED
  5
224
  9
$SURFTAB1
 70
     6
  9
$SURFTAB2
 70
     6
  9
$SURFTYPE
 70
     6
  9
$SURFU
 70
     6
  9
$SURFV
 70
     6
  9
$UCSBASE
  2

  9
$UCSNAME
  2

  9
$UCSORG
 10
0.0
 20
0.0
 30
0.0
  9
$UCSXDIR
 10
1.0
 20
0.0
 30
0.0
  9
$UCSYDIR
 10
0.0
 20
1.0
 30
0.0
  9
$UCSORTHOREF
  2

  9
$UCSORTHOVIEW
 70
     0
  9
$UCSORGTOP
 10
0.0
 20
0.0
 30
0.0
  9
$UCSORGBOTTOM
 10
0.0
 20
0.0
 30
0.0
  9
$UCSORGLEFT
 10
0.0
 20
0.0
 30
0.0
  9
$UCSORGRIGHT
 10
0.0
 20
0.0
 30
0.0
  9
$UCSORGFRONT
 10
0.0
 20
0.0
 30
0.0
  9
$UCSORGBACK
 10
0.0
 20
0.0
 30
0.0
  9
$PUCSBASE
  2

  9
$PUCSNAME
  2

  9
$PUCSORG
 10
0.0
 20
0.0
 30
0.0
  9
$PUCSXDIR
 10
1.0
 20
0.0
 30
0.0
  9
$PUCSYDIR
 10
0.0
 20
1.0
 30
0.0
  9
$PUCSORTHOREF
  2

  9
$PUCSORTHOVIEW
 70
     0
  9
$PUCSORGTOP
 10
0.0
 20
0.0
 30
0.0
  9
$PUCSORGBOTTOM
 10
0.0
 20
0.0
 30
0.0
  9
$PUCSORGLEFT
 10
0.0
 20
0.0
 30
0.0
  9
$PUCSORGRIGHT
 10
0.0
 20
0.0
 30
0.0
  9
$PUCSORGFRONT
 10
0.0
 20
0.0
 30
0.0
  9
$PUCSORGBACK
 10
0.0
 20
0.0
 30
0.0
  9
$USERI1
 70
     0
  9
$USERI2
 70
     0
  9
$USERI3
 70
     0
  9
$USERI4
 70
     0
  9
$USERI5
 70
     0
  9
$USERR1
 40
0.0
  9
$USERR2
 40
0.0
  9
$USERR3
 40
0.0
  9
$USERR4
 40
0.0
  9
$USERR5
 40
0.0
  9
$WORLDVIEW
 70
     1
  9
$SHADEDGE
 70
     3
  9
$SHADEDIF
 70
    70
  9
$TILEMODE
 70
     1
  9
$MAXACTVP
 70
    64
  9
$PINSBASE
 10
0.0
 20
0.0
 30
0.0
  9
$PLIMCHECK
 70
     0
  9
$PEXTMIN
 10
1.0000000000E+20
 20
1.0000000000E+20
 30
1.0000000000E+20
  9
$PEXTMAX
 10
-1.0000000000E+20
 20
-1.0000000000E+20
 30
-1.0000000000E+20
  9
$PLIMMIN
 10
0.0
 20
0.0
  9
$PLIMMAX
 10
420.0
 20
297.0
  9
$UNITMODE
 70
     0
  9
$VISRETAIN
 70
     1
  9
$PLINEGEN
 70
     0
  9
$PSLTSCALE
 70
     1
  9
$TREEDEPTH
 70
  3020
  9
$CMLSTYLE
  2
Standard
  9
$CMLJUST
 70
     0
  9
$CMLSCALE
 40
20.0
  9
$PROXYGRAPHICS
 70
     1
  9
$MEASUREMENT
 70
     1
  9
$CELWEIGHT
370
    -1
  9
$ENDCAPS
280
     0
  9
$JOINSTYLE
280
     0
  9
$LWDISPLAY
290
     1
  9
$INSUNITS
 70
     4
  9
$HYPERLINKBASE
  1

  9
$STYLESHEET
  1

  9
$XEDIT
290
     1
  9
$CEPSNTYPE
380
     0
  9
$PSTYLEMODE
290
     1
  9
$FINGERPRINTGUID
  2
{6134a231-a0cb-4278-87f1-1ec2b6871655}
  9
$VERSIONGUID
  2
{FAEB1C32-E019-11D5-929B-00C0DF256EC4}
  9
$EXTNAMES
290
     1
  9
$PSVPSCALE
 40
0.0
  9
$OLESTARTUP
290
     0
  9
$SORTENTS
280
   127
  9
$INDEXCTL
280
     0
  9
$HIDETEXT
280
     1
  9
$XCLIPFRAME
290
     0
  9
$HALOGAP
280
     0
  9
$OBSCOLOR
 70
   257
  9
$OBSLTYPE
280
     0
  9
$INTERSECTIONDISPLAY
280
     0
  9
$INTERSECTIONCOLOR
 70
   257
  9
$DIMASSOC
280
     2
  9
$PROJECTNAME
  1

  0
ENDSEC
  0
SECTION
  2
CLASSES
  0
CLASS
  1
ACDBDICTIONARYWDFLT
  2
AcDbDictionaryWithDefault
  3
ObjectDBX Classes
 90
        0
 91
        3
280
     0
281
     0
  0
CLASS
  1
VISUALSTYLE
  2
AcDbVisualStyle
  3
ObjectDBX Classes
 90
     4095
 91
        3
280
     0
281
     0
  0
CLASS
  1
MATERIAL
  2
AcDbMaterial
  3
ObjectDBX Classes
 90
     1153
 91
        3
280
     0
281
     0
  0
CLASS
  1
SCALE
  2
AcDbScale
  3
ObjectDBX Classes
 90
     1153
 91
        3
280
     0
281
     0
  0
CLASS
  1
TABLESTYLE
  2
AcDbTableStyle
  3
ObjectDBX Classes
 90
     4095
 91
        3
280
     0
281
     0
  0
CLASS
  1
MLEADERSTYLE
  2
AcDbMLeaderStyle
  3
ACDB_MLEADERSTYLE_CLASS
 90
     4095
 91
        3
280
     0
281
     0
  0
CLASS
  1
SUN
  2
AcDbSun
  3
SCENEOE
 90
     1153
 91
        3
280
     0
281
     0
  0
CLASS
  1
DICTIONARYVAR
  2
AcDbDictionaryVar
  3
ObjectDBX Classes
 90
        0
 91
        3
280
     0
281
     0
  0
CLASS
  1
CELLSTYLEMAP
  2
AcDbCellStyleMap
  3
ObjectDBX Classes
 90
     1152
 91
        3
280
     0
281
     0
  0
ENDSEC
  0
SECTION
  2
TABLES
  0
TABLE
  2
VPORT
  5
8
330
0
100
AcDbSymbolTable
 70
     1
  0
VPORT
  5
29
330
8
100
AcDbSymbolTableRecord
100
AcDbViewportTableRecord
  2
*Active
 70
     0
 10
0.0
 20
0.0
 11
1.0
 21
1.0
 12
148.5
 22
105.0
 13
0.0
 23
0.0
 14
10.0
 24
10.0
 15
10.0
 25
10.0
 16
0.0
 26
0.0
 36
1.0
 17
0.0
 27
0.0
 37
0.0
 40
210.0
 41
1.4142857143
 42
50.0
 43
0.0
 44
0.0
 50
0.0
 51
0.0
 71
     0
 72
  2000
 73
     1
 74
     3
 75
     0
 76
     0
 77
     0
 78
     0
281
     0
 65
     1
110
0.0
120
0.0
130
0.0
111
1.0
121
0.0
131
0.0
112
0.0
122
1.0
132
0.0
 79
     0
146
0.0
  0
ENDTAB
  0
TABLE
  2
LTYPE
  5
5
330
0
100
AcDbSymbolTable
 70
     6
  0
LTYPE
  5
14
330
5
100
AcDbSymbolTableRecord
100
AcDbLinetypeTableRecord
  2
ByBlock
 70
     0
  3

 72
    65
 73
     0
 40
0.0
  0
LTYPE
  5
15
330
5
100
AcDbSymbolTableRecord
100
AcDbLinetypeTableRecord
  2
ByLayer
 70
     0
  3

 72
    65
 73
     0
 40
0.0
  0
LTYPE
  5
16
330
5
100
AcDbSymbolTableRecord
100
AcDbLinetypeTableRecord
  2
Continuous
 70
     0
  3
Solid line
 72
    65
 73
     0
 40
0.0
  0
LTYPE
  5
5E
330
5
100
AcDbSymbolTableRecord
100
AcDbLinetypeTableRecord
  2
HIDDEN
 70
     0
  3
Hidden __ __ __ __ __ __ __ __ __ __ __ __ __ __
 72
    65
 73
     2
 40
1.905
 49
1.27
 74
     0
 49
-0.635
 74
     0
  0
LTYPE
  5
5F
330
5
100
AcDbSymbolTableRecord
100
AcDbLinetypeTableRecord
  2
PHANTOM
 70
     0
  3
Phantom ______  __  __  ______  __  __  ______
 72
    65
 73
     6
 40
12.7
 49
6.35
 74
     0
 49
-1.27
 74
     0
 49
1.27
 74
     0
 49
-1.27
 74
     0
 49
1.27
 74
     0
 49
-1.27
 74
     0
  0
LTYPE
  5
60
330
5
100
AcDbSymbolTableRecord
100
AcDbLinetypeTableRecord
  2
CENTER
 70
     0
  3
Center ____ _ ____ _ ____ _ ____ _ ____ _ ____
 72
    65
 73
     4
 40
10.16
 49
6.35
 74
     0
 49
-1.27
 74
     0
 49
1.27
 74
     0
 49
-1.27
 74
     0
  0
LTYPE
  5
61
330
5
100
AcDbSymbolTableRecord
100
AcDbLinetypeTableRecord
  2
CENTERX2
 70
     0
  3
Center (2x) ________  __  ________  __  _____
 72
    65
 73
     4
 40
20.32
 49
12.7
 74
     0
 49
-2.54
 74
     0
 49
2.54
 74
     0
 49
-2.54
 74
     0
  0
LTYPE
  5
62
330
5
100
AcDbSymbolTableRecord
100
AcDbLinetypeTableRecord
  2
DOT2
 70
     0
  3
Dot (.5x) ........................................
 72
    65
 73
     2
 40
0.635
 49
0.0
 74
     0
 49
-0.635
 74
     0
  0
ENDTAB
  0
TABLE
  2
LAYER
  5
2
330
0
100
AcDbSymbolTable
 70
     4
  0
LAYER
  5
10
330
2
100
AcDbSymbolTableRecord
100
AcDbLayerTableRecord
  2
0
 70
     0
 62
     7
  6
Continuous
370
    -3
390
F
  0
LAYER
  5
63
330
2
100
AcDbSymbolTableRecord
100
AcDbLayerTableRecord
  2
SLD-0
 70
     0
 62
     7
  6
Continuous
370
    25
390
F
  0
LAYER
  5
64
330
2
100
AcDbSymbolTableRecord
100
AcDbLayerTableRecord
  2
DIM
 70
     0
 62
     7
  6
Continuous
370
    -3
390
F
  0
LAYER
  5
65
330
2
100
AcDbSymbolTableRecord
100
AcDbLayerTableRecord
  2
工作區域參考線
 70
     0
 62
   179
  6
Continuous
370
    -3
390
F
  0
ENDTAB
  0
TABLE
  2
STYLE
  5
3
330
0
100
AcDbSymbolTable
 70
     2
  0
STYLE
  5
11
330
3
100
AcDbSymbolTableRecord
100
AcDbTextStyleTableRecord
  2
Standard
 70
     0
 40
0.0
 41
1.0
 50
0.0
 71
     0
 42
2.5
  3
txt
  4

  0
STYLE
  5
B6
330
3
100
AcDbSymbolTableRecord
100
AcDbTextStyleTableRecord
  2
SLDTEXTSTYLE0
 70
     0
 40
0.0
 41
0.605
 50
0.0
 71
     0
 42
2.5
  3
TXT
  4

  0
ENDTAB
  0
TABLE
  2
VIEW
  5
6
330
0
100
AcDbSymbolTable
 70
     0
  0
ENDTAB
  0
TABLE
  2
UCS
  5
7
330
0
100
AcDbSymbolTable
 70
     0
  0
ENDTAB
  0
TABLE
  2
APPID
  5
9
330
0
100
AcDbSymbolTable
 70
     2
  0
APPID
  5
12
330
9
100
AcDbSymbolTableRecord
100
AcDbRegAppTableRecord
  2
ACAD
 70
     0
  0
APPID
  5
21C
330
9
100
AcDbSymbolTableRecord
100
AcDbRegAppTableRecord
  2
ACAD_MLEADERVER
 70
     0
  0
ENDTAB
  0
TABLE
  2
DIMSTYLE
  5
A
330
0
100
AcDbSymbolTable
 70
     4
100
AcDbDimStyleTable
  0
DIMSTYLE
105
27
330
A
100
AcDbSymbolTableRecord
100
AcDbDimStyleTableRecord
  2
ISO-25
 70
     0
 41
2.5
 42
0.625
 43
3.75
 44
1.25
 73
     0
 74
     0
 77
     1
 78
     8
140
2.5
141
2.5
143
0.0393700787
147
0.625
171
     3
172
     1
178
     0
271
     2
272
     2
274
     3
278
    44
283
     0
284
     8
340
11
  0
DIMSTYLE
105
11E
102
{ACAD_REACTORS
330
11D
330
128
330
1E8
330
1F2
102
}
330
A
100
AcDbSymbolTableRecord
100
AcDbDimStyleTableRecord
  2
SLDDIMSTYLE0
 70
     0
 41
2.0
 44
0.0
 45
0.000000001
 73
     0
 74
     0
 77
     1
 78
    12
 79
     3
140
2.5
147
0.625
173
     1
178
     0
271
     2
272
     2
276
     2
284
    12
340
B6
  0
DIMSTYLE
105
133
102
{ACAD_REACTORS
330
132
102
}
330
A
100
AcDbSymbolTableRecord
100
AcDbDimStyleTableRecord
  2
SLDDIMSTYLE1
 70
     0
 41
2.0
 44
0.0
 45
0.000000001
 78
    12
 79
     3
140
2.5
141
0.0
147
0.625
172
     1
173
     1
178
     0
271
     2
272
     2
276
     2
284
    12
340
B6
  0
DIMSTYLE
105
149
330
A
100
AcDbSymbolTableRecord
100
AcDbDimStyleTableRecord
  2
SLDDIMSTYLE2
 70
     0
 41
2.0
 44
0.0
 45
0.000000001
146
2.0
147
0.0
173
     1
178
     0
271
     0
272
     0
276
     2
340
11
  0
ENDTAB
  0
TABLE
  2
BLOCK_RECORD
  5
1
330
0
100
AcDbSymbolTable
 70
    11
  0
BLOCK_RECORD
  5
1F
330
1
100
AcDbSymbolTableRecord
100
AcDbBlockTableRecord
  2
*Model_Space
340
22
  0
BLOCK_RECORD
  5
1B
330
1
100
AcDbSymbolTableRecord
100
AcDbBlockTableRecord
  2
*Paper_Space
340
1E
  0
BLOCK_RECORD
  5
23
330
1
100
AcDbSymbolTableRecord
100
AcDbBlockTableRecord
  2
*Paper_Space0
340
26
  0
BLOCK_RECORD
  5
66
330
1
100
AcDbSymbolTableRecord
100
AcDbBlockTableRecord
  2
圖塊6
340
0
102
{BLKREFS
331
B5
102
}
  0
BLOCK_RECORD
  5
11F
330
1
100
AcDbSymbolTableRecord
100
AcDbBlockTableRecord
  2
_D
340
0
  0
BLOCK_RECORD
  5
129
330
1
100
AcDbSymbolTableRecord
100
AcDbBlockTableRecord
  2
_D_1
340
0
  0
BLOCK_RECORD
  5
134
330
1
100
AcDbSymbolTableRecord
100
AcDbBlockTableRecord
  2
_D_2
340
0
  0
BLOCK_RECORD
  5
13F
330
1
100
AcDbSymbolTableRecord
100
AcDbBlockTableRecord
  2
SW_NOTE_0
340
0
102
{BLKREFS
331
148
102
}
  0
BLOCK_RECORD
  5
14B
330
1
100
AcDbSymbolTableRecord
100
AcDbBlockTableRecord
  2
SW_CENTERMARKSYMBOL_0
340
0
102
{BLKREFS
331
156
102
}
  0
BLOCK_RECORD
  5
1E9
330
1
100
AcDbSymbolTableRecord
100
AcDbBlockTableRecord
  2
_D_3
340
0
  0
BLOCK_RECORD
  5
1F3
330
1
100
AcDbSymbolTableRecord
100
AcDbBlockTableRecord
  2
_D_4
340
0
  0
BLOCK_RECORD
  5
1FC
330
1
100
AcDbSymbolTableRecord
100
AcDbBlockTableRecord
  2
SW_NOTE_0_1
340
0
102
{BLKREFS
331
207
102
}
  0
BLOCK_RECORD
  5
209
330
1
100
AcDbSymbolTableRecord
100
AcDbBlockTableRecord
  2
SW_NOTE_0_2
340
0
102
{BLKREFS
331
214
102
}
  0
ENDTAB
  0
ENDSEC
  0
SECTION
  2
BLOCKS
  0
BLOCK
  5
20
330
1F
100
AcDbEntity
  8
0
100
AcDbBlockBegin
  2
*Model_Space
 70
     0
 10
0.0
 20
0.0
 30
0.0
  3
*Model_Space
  1

  0
ENDBLK
  5
21
330
1F
100
AcDbEntity
  8
0
100
AcDbBlockEnd
  0
BLOCK
  5
1C
330
1B
100
AcDbEntity
 67
     1
  8
0
100
AcDbBlockBegin
  2
*Paper_Space
 70
     0
 10
0.0
 20
0.0
 30
0.0
  3
*Paper_Space
  1

  0
ENDBLK
  5
1D
330
1B
100
AcDbEntity
 67
     1
  8
0
100
AcDbBlockEnd
  0
BLOCK
  5
24
330
23
100
AcDbEntity
  8
0
100
AcDbBlockBegin
  2
*Paper_Space0
 70
     0
 10
0.0
 20
0.0
 30
0.0
  3
*Paper_Space0
  1

  0
ENDBLK
  5
25
330
23
100
AcDbEntity
  8
0
100
AcDbBlockEnd
  0
BLOCK
  5
67
330
66
100
AcDbEntity
  8
0
100
AcDbBlockBegin
  2
圖塊6
 70
     0
 10
0.0
 20
0.0
 30
0.0
  3
圖塊6
  1

  0
ARC
  5
69
330
66
100
AcDbEntity
  8
0
 62
     7
370
    35
100
AcDbCircle
 10
1.5301544339
 20
6.1020682891
 30
0.0
 40
1.53015443394367
100
AcDbArc
 50
130.2115225915
 51
228.588904108
  0
ARC
  5
6A
330
66
100
AcDbEntity
  8
0
 62
     7
370
    35
100
AcDbCircle
 10
4.8509135981
 20
5.9949454415
 30
0.0
 40
2.577335426817622
100
AcDbArc
 50
140.4331765613
 51
251.0865666567
  0
ARC
  5
6B
330
66
100
AcDbEntity
  8
0
 62
     7
370
    35
100
AcDbCircle
 10
5.1765041982
 20
6.3117559713
 30
0.0
 40
2.989636657769863
100
AcDbArc
 50
247.1485306747
 51
309.6030773927
  0
LINE
  5
6C
330
66
100
AcDbEntity
  8
0
 62
     7
370
    35
100
AcDbLine
 10
1.8488977269
 20
8.5321825984
 30
0.0
 11
0.542269472
 21
7.2705955219
 31
0.0
  0
LINE
  5
6D
330
66
100
AcDbEntity
  8
0
 62
     7
370
    35
100
AcDbLine
 10
0.51802289
 20
4.9544784977
 30
0.0
 11
4.5272252002
 21
1.4698746574
 31
0.0
  0
LINE
  5
6E
330
66
100
AcDbEntity
  8
0
 62
     7
370
    35
100
AcDbLine
 10
4.5272252002
 20
1.4698746574
 30
0.0
 11
3.8961732797
 21
0.853974267
 31
0.0
  0
LINE
  5
6F
330
66
100
AcDbEntity
  8
0
 62
     7
370
    35
100
AcDbLine
 10
3.8961732797
 20
0.853974267
 30
0.0
 11
4.8880526445
 21
0.0
 31
0.0
  0
LINE
  5
70
330
66
100
AcDbEntity
  8
0
 62
     7
370
    35
100
AcDbLine
 10
8.0977170788
 20
3.1165779655
 30
0.0
 11
7.0822940472
 21
4.0083036932
 31
0.0
  0
LINE
  5
71
330
66
100
AcDbEntity
  8
0
 62
     7
370
    35
100
AcDbLine
 10
2.8640915743
 20
7.6366506975
 30
0.0
 11
1.8488977269
 21
8.5321825984
 31
0.0
  0
LINE
  5
72
330
66
100
AcDbEntity
  8
0
 62
     7
370
    35
100
AcDbLine
 10
4.8880526445
 20
0.0
 30
0.0
 11
8.0977170788
 21
3.1165779655
 31
0.0
  0
ENDBLK
  5
68
330
66
100
AcDbEntity
  8
0
100
AcDbBlockEnd
  0
BLOCK
  5
120
330
11F
100
AcDbEntity
  8
0
100
AcDbBlockBegin
  2
_D
 70
     0
 10
0.0
 20
0.0
 30
0.0
  3
_D
  1

  0
SOLID
  5
122
330
11F
100
AcDbEntity
  8
SLD-0
 62
     7
100
AcDbTrace
 10
81.1444581635
 20
64.0442808376
 30
0.0
 11
83.1444581635
 21
63.7942808376
 31
0.0
 12
83.1444581635
 22
64.2942808376
 32
0.0
 13
83.1444581635
 23
64.2942808376
 33
0.0
  0
SOLID
  5
123
330
11F
100
AcDbEntity
  8
SLD-0
 62
     7
100
AcDbTrace
 10
142.144002967
 20
64.0442808376
 30
0.0
 11
140.144002967
 21
64.2942808376
 31
0.0
 12
140.144002967
 22
63.7942808376
 32
0.0
 13
140.144002967
 23
63.7942808376
 33
0.0
  0
LINE
  5
124
330
11F
100
AcDbEntity
  8
SLD-0
 62
     7
100
AcDbLine
 10
81.1444581635
 20
111.0660241926
 30
0.0
 11
81.1444581635
 21
63.0442808376
 31
0.0
  0
LINE
  5
125
330
11F
100
AcDbEntity
  8
SLD-0
 62
     7
100
AcDbLine
 10
142.144002967
 20
111.0660241926
 30
0.0
 11
142.144002967
 21
63.0442808376
 31
0.0
  0
LINE
  5
126
330
11F
100
AcDbEntity
  8
SLD-0
 62
     7
100
AcDbLine
 10
81.1444581635
 20
64.0442808376
 30
0.0
 11
142.144002967
 21
64.0442808376
 31
0.0
  0
MTEXT
  5
127
330
11F
100
AcDbEntity
  8
SLD-0
 62
     7
100
AcDbMText
 10
109.7345083404
 20
67.2669500124
 30
0.0
 40
2.5
 41
0.0
 71
     1
 72
     1
  1
61
  7
SLDTEXTSTYLE0
 73
     1
 44
1.0
  0
ENDBLK
  5
121
330
11F
100
AcDbEntity
  8
0
100
AcDbBlockEnd
  0
BLOCK
  5
12A
330
129
100
AcDbEntity
  8
0
100
AcDbBlockBegin
  2
_D_1
 70
     0
 10
0.0
 20
0.0
 30
0.0
  3
_D_1
  1

  0
SOLID
  5
12C
330
129
100
AcDbEntity
  8
SLD-0
 62
     7
100
AcDbTrace
 10
153.7693804753
 20
145.4481961824
 30
0.0
 11
153.5193804753
 21
143.4481961824
 31
0.0
 12
154.0193804753
 22
143.4481961824
 32
0.0
 13
154.0193804753
 23
143.4481961824
 33
0.0
  0
SOLID
  5
12D
330
129
100
AcDbEntity
  8
SLD-0
 62
     7
100
AcDbTrace
 10
153.7693804753
 20
75.4481961824
 30
0.0
 11
154.0193804753
 21
77.4481961824
 31
0.0
 12
153.5193804753
 22
77.4481961824
 32
0.0
 13
153.5193804753
 23
77.4481961824
 33
0.0
  0
LINE
  5
12E
330
129
100
AcDbEntity
  8
SLD-0
 62
     7
100
AcDbLine
 10
118.9430294954
 20
145.4481961824
 30
0.0
 11
154.7693804753
 21
145.4481961824
 31
0.0
  0
LINE
  5
12F
330
129
100
AcDbEntity
  8
SLD-0
 62
     7
100
AcDbLine
 10
120.8087136921
 20
75.4481961824
 30
0.0
 11
154.7693804753
 21
75.4481961824
 31
0.0
  0
LINE
  5
130
330
129
100
AcDbEntity
  8
SLD-0
 62
     7
100
AcDbLine
 10
153.7693804753
 20
145.4481961824
 30
0.0
 11
153.7693804753
 21
75.4481961824
 31
0.0
  0
MTEXT
  5
131
330
129
100
AcDbEntity
  8
SLD-0
 62
     7
100
AcDbMText
 10
150.5467113004
 20
108.5384739576
 30
0.0
 40
2.5
 41
0.0
 71
     1
 72
     1
  1
70
  7
SLDTEXTSTYLE0
 11
-7.044195017643634E-15
 21
1.0
 31
0.0
 73
     1
 44
1.0
  0
ENDBLK
  5
12B
330
129
100
AcDbEntity
  8
0
100
AcDbBlockEnd
  0
BLOCK
  5
135
330
134
100
AcDbEntity
  8
0
100
AcDbBlockBegin
  2
_D_2
 70
     0
 10
0.0
 20
0.0
 30
0.0
  3
_D_2
  1

  0
SOLID
  5
137
330
134
100
AcDbEntity
  8
SLD-0
100
AcDbTrace
 10
126.5863822434
 20
128.4343905045
 30
0.0
 11
125.0580293473
 21
127.1203747416
 31
0.0
 12
125.4285056242
 22
126.7845960522
 32
0.0
 13
125.4285056242
 23
126.7845960522
 33
0.0
  0
SOLID
  5
138
330
134
100
AcDbEntity
  8
SLD-0
100
AcDbTrace
 10
96.7020788871
 20
95.4620018602
 30
0.0
 11
98.2304317832
 21
96.7760176231
 31
0.0
 12
97.8599555063
 22
97.1117963125
 32
0.0
 13
97.8599555063
 23
97.1117963125
 33
0.0
  0
LINE
  5
139
330
134
100
AcDbEntity
  8
SLD-0
100
AcDbLine
 10
96.7020788871
 20
95.4620018602
 30
0.0
 11
74.5983446344
 21
71.0741850327
 31
0.0
  0
LINE
  5
13A
330
134
100
AcDbEntity
  8
SLD-0
100
AcDbLine
 10
126.5863822434
 20
128.4343905045
 30
0.0
 11
96.7020788871
 21
95.4620018602
 31
0.0
  0
LINE
  5
13B
330
134
100
AcDbEntity
  8
SLD-0
100
AcDbLine
 10
74.5983446344
 20
71.0741850327
 30
0.0
 11
56.3387957915
 21
71.0741850327
 31
0.0
  0
MTEXT
  5
13C
330
134
100
AcDbEntity
  8
SLD-0
100
AcDbMText
 10
56.3387957915
 20
74.3037986143
 30
0.0
 40
2.5
 41
0.0
 71
     1
 72
     1
  1
C.A.
  7
SLDTEXTSTYLE0
 73
     1
 44
1.0
  0
MTEXT
  5
13D
330
134
100
AcDbEntity
  8
SLD-0
100
AcDbMText
 10
63.0193514332
 20
74.2968541493
 30
0.0
 40
2.5
 41
0.0
 71
     1
 72
     1
  1
%%c
  7
SLDTEXTSTYLE0
 73
     1
 44
1.0
  0
MTEXT
  5
13E
330
134
100
AcDbEntity
  8
SLD-0
100
AcDbMText
 10
66.6643170222
 20
74.3037986143
 30
0.0
 40
2.5
 41
0.0
 71
     1
 72
     1
  1
44.5
  7
SLDTEXTSTYLE0
 73
     1
 44
1.0
  0
ENDBLK
  5
136
330
134
100
AcDbEntity
  8
0
100
AcDbBlockEnd
  0
BLOCK
  5
140
330
13F
100
AcDbEntity
  8
0
100
AcDbBlockBegin
  2
SW_NOTE_0
 70
     0
 10
0.0
 20
0.0
 30
0.0
  3
SW_NOTE_0
  1

  0
LINE
  5
142
330
13F
100
AcDbEntity
  8
SLD-0
 62
     0
100
AcDbLine
 10
-54.6852066232
 20
0.0
 30
0.0
 11
0.0
 21
0.0
 31
0.0
  0
MTEXT
  5
143
330
13F
100
AcDbEntity
  8
SLD-0
 62
     0
100
AcDbMText
 10
-55.1777234193
 20
15.7208157924
 30
0.0
 40
2.38125
 41
0.0
 71
     1
 72
     1
  1
ACCEPTS
  7
SLDTEXTSTYLE0
 73
     1
 44
1.0
  0
MTEXT
  5
144
330
13F
100
AcDbEntity
  8
SLD-0
 62
     0
100
AcDbMText
 10
-55.1777234193
 20
11.4913363231
 30
0.0
 40
2.38125
 41
0.0
 71
     1
 72
     1
  1
%%c
  7
SLDTEXTSTYLE0
 73
     1
 44
1.0
  0
MTEXT
  5
145
330
13F
100
AcDbEntity
  8
SLD-0
 62
     0
100
AcDbMText
 10
-51.8053883113
 20
11.4913363231
 30
0.0
 40
2.38125
 41
0.0
 71
     1
 72
     1
  1
2" OPTICS
  7
SLDTEXTSTYLE0
 73
     1
 44
1.0
  0
MTEXT
  5
146
330
13F
100
AcDbEntity
  8
SLD-0
 62
     0
100
AcDbMText
 10
-55.1777234193
 20
7.3163364303
 30
0.0
 40
2.38125
 41
0.0
 71
     1
 72
     1
  1
Max.THK 9.5
  7
SLDTEXTSTYLE0
 73
     1
 44
1.0
  0
MTEXT
  5
147
330
13F
100
AcDbEntity
  8
SLD-0
 62
     0
100
AcDbMText
 10
-55.1777234193
 20
3.1413365376
 30
0.0
 40
2.38125
 41
0.0
 71
     1
 72
     1
  1
SM2 (2.035"-40N) RETANIING RINGS
  7
SLDTEXTSTYLE0
 73
     1
 44
1.0
  0
ENDBLK
  5
141
330
13F
100
AcDbEntity
  8
0
100
AcDbBlockEnd
  0
BLOCK
  5
14C
330
14B
100
AcDbEntity
  8
0
100
AcDbBlockBegin
  2
SW_CENTERMARKSYMBOL_0
 70
     0
 10
0.0
 20
0.0
 30
0.0
  3
SW_CENTERMARKSYMBOL_0
  1

  0
LINE
  5
14E
330
14B
100
AcDbEntity
  8
SLD-0
 62
     0
100
AcDbLine
 10
0.0
 20
0.0
 30
0.0
 11
0.0
 21
1.0
 31
0.0
  0
LINE
  5
14F
330
14B
100
AcDbEntity
  8
SLD-0
 62
     0
100
AcDbLine
 10
0.0
 20
0.0
 30
0.0
 11
-1.0
 21
0.0
 31
0.0
  0
LINE
  5
150
330
14B
100
AcDbEntity
  8
SLD-0
 62
     0
100
AcDbLine
 10
0.0
 20
0.0
 30
0.0
 11
0.0
 21
-1.0
 31
0.0
  0
LINE
  5
151
330
14B
100
AcDbEntity
  8
SLD-0
 62
     0
100
AcDbLine
 10
0.0
 20
0.0
 30
0.0
 11
1.0
 21
0.0
 31
0.0
  0
LINE
  5
152
330
14B
100
AcDbEntity
  8
SLD-0
 62
     0
100
AcDbLine
 10
0.0
 20
2.0
 30
0.0
 11
0.0
 21
23.25
 31
0.0
  0
LINE
  5
153
330
14B
100
AcDbEntity
  8
SLD-0
 62
     0
100
AcDbLine
 10
-2.0
 20
0.0
 30
0.0
 11
-23.25
 21
0.0
 31
0.0
  0
LINE
  5
154
330
14B
100
AcDbEntity
  8
SLD-0
 62
     0
100
AcDbLine
 10
0.0
 20
-2.0
 30
0.0
 11
0.0
 21
-23.25
 31
0.0
  0
LINE
  5
155
330
14B
100
AcDbEntity
  8
SLD-0
 62
     0
100
AcDbLine
 10
2.0
 20
0.0
 30
0.0
 11
23.25
 21
0.0
 31
0.0
  0
ENDBLK
  5
14D
330
14B
100
AcDbEntity
  8
0
100
AcDbBlockEnd
  0
BLOCK
  5
1EA
330
1E9
100
AcDbEntity
  8
0
100
AcDbBlockBegin
  2
_D_3
 70
     0
 10
0.0
 20
0.0
 30
0.0
  3
_D_3
  1

  0
SOLID
  5
1EC
330
1E9
100
AcDbEntity
  8
SLD-0
 62
     7
100
AcDbTrace
 10
176.5254567415
 20
64.7621030092
 30
0.0
 11
178.5254567415
 21
64.5121030092
 31
0.0
 12
178.5254567415
 22
65.0121030092
 32
0.0
 13
178.5254567415
 23
65.0121030092
 33
0.0
  0
SOLID
  5
1ED
330
1E9
100
AcDbEntity
  8
SLD-0
 62
     7
100
AcDbTrace
 10
184.0254567415
 20
64.7621030092
 30
0.0
 11
182.0254567415
 21
65.0121030092
 31
0.0
 12
182.0254567415
 22
64.5121030092
 32
0.0
 13
182.0254567415
 23
64.5121030092
 33
0.0
  0
LINE
  5
1EE
330
1E9
100
AcDbEntity
  8
SLD-0
 62
     7
100
AcDbLine
 10
176.5254567415
 20
75.4481961824
 30
0.0
 11
176.5254567415
 21
63.7621030092
 31
0.0
  0
LINE
  5
1EF
330
1E9
100
AcDbEntity
  8
SLD-0
 62
     7
100
AcDbLine
 10
184.0254567415
 20
73.4481961824
 30
0.0
 11
184.0254567415
 21
63.7621030092
 31
0.0
  0
LINE
  5
1F0
330
1E9
100
AcDbEntity
  8
SLD-0
 62
     7
100
AcDbLine
 10
176.5254567415
 20
64.7621030092
 30
0.0
 11
184.0254567415
 21
64.7621030092
 31
0.0
  0
MTEXT
  5
1F1
330
1E9
100
AcDbEntity
  8
SLD-0
 62
     7
100
AcDbMText
 10
177.8883039896
 20
67.984772184
 30
0.0
 40
2.5
 41
0.0
 71
     1
 72
     1
  1
7.5
  7
SLDTEXTSTYLE0
 73
     1
 44
1.0
  0
ENDBLK
  5
1EB
330
1E9
100
AcDbEntity
  8
0
100
AcDbBlockEnd
  0
BLOCK
  5
1F4
330
1F3
100
AcDbEntity
  8
0
100
AcDbBlockBegin
  2
_D_4
 70
     0
 10
0.0
 20
0.0
 30
0.0
  3
_D_4
  1

  0
SOLID
  5
1F6
330
1F3
100
AcDbEntity
  8
SLD-0
 62
     7
100
AcDbTrace
 10
176.5254567415
 20
57.608256876
 30
0.0
 11
178.5254567415
 21
57.358256876
 31
0.0
 12
178.5254567415
 22
57.858256876
 32
0.0
 13
178.5254567415
 23
57.858256876
 33
0.0
  0
SOLID
  5
1F7
330
1F3
100
AcDbEntity
  8
SLD-0
 62
     7
100
AcDbTrace
 10
191.5254567415
 20
57.608256876
 30
0.0
 11
189.5254567415
 21
57.858256876
 31
0.0
 12
189.5254567415
 22
57.358256876
 32
0.0
 13
189.5254567415
 23
57.358256876
 33
0.0
  0
LINE
  5
1F8
330
1F3
100
AcDbEntity
  8
SLD-0
 62
     7
100
AcDbLine
 10
176.5254567415
 20
75.4481961824
 30
0.0
 11
176.5254567415
 21
56.608256876
 31
0.0
  0
LINE
  5
1F9
330
1F3
100
AcDbEntity
  8
SLD-0
 62
     7
100
AcDbLine
 10
191.5254567415
 20
75.4481961824
 30
0.0
 11
191.5254567415
 21
56.608256876
 31
0.0
  0
LINE
  5
1FA
330
1F3
100
AcDbEntity
  8
SLD-0
 62
     7
100
AcDbLine
 10
176.5254567415
 20
57.608256876
 30
0.0
 11
191.5254567415
 21
57.608256876
 31
0.0
  0
MTEXT
  5
1FB
330
1F3
100
AcDbEntity
  8
SLD-0
 62
     7
100
AcDbMText
 10
182.1157345167
 20
60.8309260508
 30
0.0
 40
2.5
 41
0.0
 71
     1
 72
     1
  1
15
  7
SLDTEXTSTYLE0
 73
     1
 44
1.0
  0
ENDBLK
  5
1F5
330
1F3
100
AcDbEntity
  8
0
100
AcDbBlockEnd
  0
BLOCK
  5
1FD
330
1FC
100
AcDbEntity
  8
0
100
AcDbBlockBegin
  2
SW_NOTE_0_1
 70
     0
 10
0.0
 20
0.0
 30
0.0
  3
SW_NOTE_0_1
  1

  0
LINE
  5
1FF
330
1FC
100
AcDbEntity
  8
SLD-0
 62
     0
100
AcDbLine
 10
-13.1491712707
 20
0.0
 30
0.0
 11
0.0
 21
0.0
 31
0.0
  0
LINE
  5
200
330
1FC
100
AcDbEntity
  8
SLD-0
 62
     0
100
AcDbLine
 10
0.0
 20
0.0
 30
0.0
 11
-13.1491712707
 21
0.0
 31
0.0
  0
LINE
  5
201
330
1FC
100
AcDbEntity
  8
SLD-0
 62
     0
100
AcDbLine
 10
-13.1491712707
 20
0.0
 30
0.0
 11
0.0
 21
0.0
 31
0.0
  0
LINE
  5
202
330
1FC
100
AcDbEntity
  8
SLD-0
 62
     0
100
AcDbLine
 10
0.0
 20
0.0
 30
0.0
 11
-13.1491712707
 21
0.0
 31
0.0
  0
LINE
  5
203
330
1FC
100
AcDbEntity
  8
SLD-0
 62
     0
100
AcDbLine
 10
-13.1491712707
 20
0.0
 30
0.0
 11
0.0
 21
0.0
 31
0.0
  0
LINE
  5
204
330
1FC
100
AcDbEntity
  8
SLD-0
 62
     0
100
AcDbLine
 10
0.0
 20
0.0
 30
0.0
 11
-13.1491712707
 21
0.0
 31
0.0
  0
MTEXT
  5
205
330
1FC
100
AcDbEntity
  8
SLD-0
 62
     0
100
AcDbMText
 10
-13.1171106677
 20
6.8319825577
 30
0.0
 40
2.5
 41
0.0
 71
     1
 72
     1
  1
1 HOLE,
  7
SLDTEXTSTYLE0
 73
     1
 44
1.0
  0
MTEXT
  5
206
330
1FC
100
AcDbEntity
  8
SLD-0
 62
     0
100
AcDbMText
 10
-12.1796106677
 20
3.3319824497
 30
0.0
 40
2.5
 41
0.0
 71
     1
 72
     1
  1
M4
  7
SLDTEXTSTYLE0
 73
     1
 44
1.0
  0
ENDBLK
  5
1FE
330
1FC
100
AcDbEntity
  8
0
100
AcDbBlockEnd
  0
BLOCK
  5
20A
330
209
100
AcDbEntity
  8
0
100
AcDbBlockBegin
  2
SW_NOTE_0_2
 70
     0
 10
0.0
 20
0.0
 30
0.0
  3
SW_NOTE_0_2
  1

  0
LINE
  5
20C
330
209
100
AcDbEntity
  8
SLD-0
 62
     0
100
AcDbLine
 10
0.0
 20
0.0
 30
0.0
 11
13.2596685083
 21
0.0
 31
0.0
  0
LINE
  5
20D
330
209
100
AcDbEntity
  8
SLD-0
 62
     0
100
AcDbLine
 10
13.2596685083
 20
0.0
 30
0.0
 11
0.0
 21
0.0
 31
0.0
  0
LINE
  5
20E
330
209
100
AcDbEntity
  8
SLD-0
 62
     0
100
AcDbLine
 10
0.0
 20
0.0
 30
0.0
 11
13.2596685083
 21
0.0
 31
0.0
  0
LINE
  5
20F
330
209
100
AcDbEntity
  8
SLD-0
 62
     0
100
AcDbLine
 10
13.2596685083
 20
0.0
 30
0.0
 11
0.0
 21
0.0
 31
0.0
  0
LINE
  5
210
330
209
100
AcDbEntity
  8
SLD-0
 62
     0
100
AcDbLine
 10
0.0
 20
0.0
 30
0.0
 11
13.2596685083
 21
0.0
 31
0.0
  0
LINE
  5
211
330
209
100
AcDbEntity
  8
SLD-0
 62
     0
100
AcDbLine
 10
13.2596685083
 20
0.0
 30
0.0
 11
0.0
 21
0.0
 31
0.0
  0
MTEXT
  5
212
330
209
100
AcDbEntity
  8
SLD-0
 62
     0
100
AcDbMText
 10
0.107979431
 20
6.6220032015
 30
0.0
 40
2.5
 41
0.0
 71
     1
 72
     1
  1
1 HOLE,
  7
SLDTEXTSTYLE0
 73
     1
 44
1.0
  0
MTEXT
  5
213
330
209
100
AcDbEntity
  8
SLD-0
 62
     0
100
AcDbMText
 10
1.045479431
 20
3.1220030935
 30
0.0
 40
2.5
 41
0.0
 71
     1
 72
     1
  1
M6
  7
SLDTEXTSTYLE0
 73
     1
 44
1.0
  0
ENDBLK
  5
20B
330
209
100
AcDbEntity
  8
0
100
AcDbBlockEnd
  0
ENDSEC
  0
SECTION
  2
ENTITIES
  0
HATCH
  5
73
330
1F
100
AcDbEntity
  8
0
  6
Continuous
 62
     7
100
AcDbHatch
 10
0.0
 20
0.0
 30
0.0
210
0.0
220
0.0
230
1.0
  2
SOLID
 70
     1
 71
     0
 91
        1
 92
        0
 93
       10
 72
     2
 10
192.1405965629367
 20
35.75580880988856
 40
2.989636657769859
 50
50.39692260731407
 51
112.8514693252983
 73
     0
 72
     2
 10
191.815005962812
 20
35.43899828006204
 40
2.577335426817619
 50
108.9134333432861
 51
219.5668234386827
 73
     0
 72
     1
 10
189.8281839389603
 20
37.0807035361501
 11
188.8129900915579
 21
37.97623543696786
 72
     1
 10
188.8129900915579
 20
37.97623543696786
 11
187.5063618366762
 21
36.71464836046036
 72
     2
 10
188.4942467986389
 20
35.54612112772446
 40
1.530154433943661
 50
130.2115225915088
 51
228.5889041080191
 73
     1
 72
     1
 10
187.482115254651
 20
34.39853133629978
 11
191.4913175648466
 21
30.9139274960251
 72
     1
 10
191.4913175648466
 20
30.9139274960251
 11
190.8602656444315
 21
30.29802710555407
 72
     1
 10
190.8602656444315
 20
30.29802710555407
 11
191.852145009157
 21
29.44405283860024
 72
     1
 10
191.852145009157
 20
29.44405283860024
 11
195.0618094435223
 21
32.56063080411572
 72
     1
 10
195.0618094435223
 20
32.56063080411572
 11
194.0463864118641
 21
33.45235653184883
 97
        0
 75
     0
 76
     1
 98
        1
 10
0.0
 20
0.0
  0
HATCH
  5
74
330
1F
100
AcDbEntity
  8
0
  6
Continuous
 62
     1
100
AcDbHatch
 10
0.0
 20
0.0
 30
0.0
210
0.0
220
0.0
230
1.0
  2
SOLID
 70
     1
 71
     0
 91
        1
 92
        0
 93
       10
 72
     2
 10
192.5892455627688
 20
35.6630691563161
 40
2.57756748834625
 50
317.8184992995785
 51
398.0564711573078
 73
     0
 72
     1
 10
194.6188314058163
 20
34.07415900697447
 11
195.6042802987991
 21
33.21546206708498
 72
     1
 10
195.6042802987991
 20
33.21546206708498
 11
196.8459616135929
 21
34.41989500949219
 72
     2
 10
195.9525692879308
 20
35.64784174131312
 40
1.518552937418265
 50
306.0377529468138
 51
403.4396461533871
 73
     1
 72
     1
 10
197.0551891526031
 20
36.69198371335126
 11
192.9284332942598
 21
40.28115998198521
 72
     1
 10
192.9284332942598
 20
40.28115998198521
 11
193.552684596187
 21
40.89021841282256
 72
     1
 10
193.552684596187
 20
40.89021841282256
 11
192.622178086003
 21
41.72041063266705
 72
     1
 10
192.622178086003
 20
41.72041063266705
 11
189.3865926375931
 21
38.59349038605298
 72
     1
 10
189.3865926375931
 20
38.59349038605298
 11
190.4090005149417
 21
37.70169985893218
 72
     2
 10
192.2715892720444
 20
35.12224735083792
 40
3.181636704527876
 50
234.1674444878512
 51
314.4407074583994
 73
     0
 97
        0
 75
     0
 76
     1
 98
        1
 10
0.0
 20
0.0
  0
LINE
  5
75
330
1F
100
AcDbEntity
  8
0
  6
Continuous
 62
     7
370
    18
100
AcDbLine
 10
167.8593775185
 20
17.7745192513
 30
0.0
 11
168.8593775185
 21
17.7745192513
 31
0.0
  0
LINE
  5
76
330
1F
100
AcDbEntity
  8
0
  6
Continuous
 62
     7
370
    18
100
AcDbLine
 10
164.8593775185
 20
17.7745192513
 30
0.0
 11
167.3593775185
 21
17.7745192513
 31
0.0
  0
LINE
  5
77
330
1F
100
AcDbEntity
  8
0
  6
Continuous
 62
     7
370
    18
100
AcDbLine
 10
181.3593775185
 20
15.2745192513
 30
0.0
 11
181.3593775185
 21
20.2745192513
 31
0.0
  0
LINE
  5
78
330
1F
100
AcDbEntity
  8
0
  6
Continuous
 62
     7
370
    18
100
AcDbLine
 10
174.3593775185
 20
16.2745192513
 30
0.0
 11
181.3593775185
 21
15.2745192513
 31
0.0
  0
LINE
  5
79
330
1F
100
AcDbEntity
  8
0
  6
Continuous
 62
     7
370
    18
100
AcDbLine
 10
168.3593775185
 20
16.7745192513
 30
0.0
 11
168.3593775185
 21
14.2745192513
 31
0.0
  0
LINE
  5
7A
330
1F
100
AcDbEntity
  8
0
  6
Continuous
 62
     7
370
    18
100
AcDbLine
 10
181.3593775185
 20
20.2745192513
 30
0.0
 11
174.3593775185
 21
19.2745192513
 31
0.0
  0
LINE
  5
7B
330
1F
100
AcDbEntity
  8
0
  6
Continuous
 62
     7
370
    18
100
AcDbLine
 10
173.3593775185
 20
17.7745192513
 30
0.0
 11
182.3593775185
 21
17.7745192513
 31
0.0
  0
LINE
  5
7C
330
1F
100
AcDbEntity
  8
0
  6
Continuous
 62
     7
370
    18
100
AcDbLine
 10
168.3593775185
 20
18.2745192513
 30
0.0
 11
168.3593775185
 21
17.2745192513
 31
0.0
  0
LINE
  5
7D
330
1F
100
AcDbEntity
  8
0
  6
Continuous
 62
     7
370
    18
100
AcDbLine
 10
169.3593775185
 20
17.7745192513
 30
0.0
 11
171.8593775185
 21
17.7745192513
 31
0.0
  0
LINE
  5
7E
330
1F
100
AcDbEntity
  8
0
  6
Continuous
 62
     7
370
    18
100
AcDbLine
 10
168.3593775185
 20
21.2745192513
 30
0.0
 11
168.3593775185
 21
18.7745192513
 31
0.0
  0
LINE
  5
7F
330
1F
100
AcDbEntity
  8
0
  6
Continuous
 62
     7
370
    18
100
AcDbLine
 10
174.3593775185
 20
19.2745192513
 30
0.0
 11
174.3593775185
 21
16.2745192513
 31
0.0
  0
LINE
  5
80
330
1F
100
AcDbEntity
  8
工作區域參考線
 62
     1
370
    35
100
AcDbLine
 10
190.4090005149
 20
37.7016998589
 30
0.0
 11
189.3865926376
 21
38.5934903861
 31
0.0
  0
LINE
  5
81
330
1F
100
AcDbEntity
  8
工作區域參考線
 62
     1
370
    35
100
AcDbLine
 10
189.3865926376
 20
38.5934903861
 30
0.0
 11
192.622178086
 21
41.7204106327
 31
0.0
  0
LINE
  5
82
330
1F
100
AcDbEntity
  8
工作區域參考線
 62
     1
370
    35
100
AcDbLine
 10
192.622178086
 20
41.7204106327
 30
0.0
 11
193.5526845962
 21
40.8902184128
 31
0.0
  0
LINE
  5
83
330
1F
100
AcDbEntity
  8
工作區域參考線
 62
     1
370
    35
100
AcDbLine
 10
193.5526845962
 20
40.8902184128
 30
0.0
 11
192.9284332943
 21
40.281159982
 31
0.0
  0
LINE
  5
84
330
1F
100
AcDbEntity
  8
工作區域參考線
 62
     1
370
    35
100
AcDbLine
 10
192.9284332943
 20
40.281159982
 30
0.0
 11
197.0551891526
 21
36.6919837134
 31
0.0
  0
LINE
  5
85
330
1F
100
AcDbEntity
  8
工作區域參考線
 62
     1
370
    35
100
AcDbLine
 10
194.6188314058
 20
34.074159007
 30
0.0
 11
195.6042802988
 21
33.2154620671
 31
0.0
  0
LINE
  5
86
330
1F
100
AcDbEntity
  8
工作區域參考線
 62
     1
370
    35
100
AcDbLine
 10
195.6042802988
 20
33.2154620671
 30
0.0
 11
196.8459616136
 21
34.4198950095
 31
0.0
  0
LINE
  5
87
330
1F
100
AcDbEntity
  8
0
  6
Continuous
 62
     7
370
    18
100
AcDbLine
 10
185.6907965209
 20
13.1152464079
 30
0.0
 11
285.6907965209
 21
13.1152464079
 31
0.0
  0
LINE
  5
88
330
1F
100
AcDbEntity
  8
0
  6
Continuous
 62
     7
370
    18
100
AcDbLine
 10
185.6907965209
 20
18.1152464079
 30
0.0
 11
235.6907965209
 21
18.1152464079
 31
0.0
  0
LINE
  5
89
330
1F
100
AcDbEntity
  8
0
  6
Continuous
 62
     7
370
    18
100
AcDbLine
 10
185.6907965209
 20
23.1152464079
 30
0.0
 11
235.6907965209
 21
23.1152464079
 31
0.0
  0
LINE
  5
8A
330
1F
100
AcDbEntity
  8
0
  6
Continuous
 62
     7
370
    18
100
AcDbLine
 10
185.6907965209
 20
28.1152464079
 30
0.0
 11
285.6907965209
 21
28.1152464079
 31
0.0
  0
LINE
  5
8B
330
1F
100
AcDbEntity
  8
0
  6
Continuous
 62
     7
370
    18
100
AcDbLine
 10
235.6907965209
 20
33.1152464079
 30
0.0
 11
285.6907965209
 21
33.1152464079
 31
0.0
  0
LINE
  5
8C
330
1F
100
AcDbEntity
  8
0
  6
Continuous
 62
     7
370
    25
100
AcDbLine
 10
235.6907965209
 20
18.1152464079
 30
0.0
 11
285.6907965209
 21
18.1152464079
 31
0.0
  0
LINE
  5
8D
330
1F
100
AcDbEntity
  8
0
  6
Continuous
 62
     7
370
    18
100
AcDbLine
 10
185.6907965209
 20
43.1152464079
 30
0.0
 11
285.6907965209
 21
43.1152464079
 31
0.0
  0
LINE
  5
8E
330
1F
100
AcDbEntity
  8
0
  6
Continuous
 62
     7
370
    18
100
AcDbLine
 10
251.237217675
 20
8.1152464079
 30
0.0
 11
251.237217675
 21
18.1152464079
 31
0.0
  0
LINE
  5
8F
330
1F
100
AcDbEntity
  8
0
  6
Continuous
 62
     7
370
    18
100
AcDbLine
 10
235.6907965209
 20
8.1152464079
 30
0.0
 11
235.6907965209
 21
43.1152464079
 31
0.0
  0
LINE
  5
90
330
1F
100
AcDbEntity
  8
0
  6
Continuous
 62
     7
370
    18
100
AcDbLine
 10
251.237217675
 20
28.1152464079
 30
0.0
 11
251.237217675
 21
33.1152464079
 31
0.0
  0
LINE
  5
91
330
1F
100
AcDbEntity
  8
0
  6
Continuous
 62
     7
370
    18
100
AcDbLine
 10
214.4164086353
 20
8.1152464079
 30
0.0
 11
214.4164086353
 21
28.1152464079
 31
0.0
  0
LINE
  5
92
330
1F
100
AcDbEntity
  8
0
  6
Continuous
 62
     7
370
    18
100
AcDbLine
 10
199.7785887506
 20
8.1152464079
 30
0.0
 11
199.7785887506
 21
28.1152464079
 31
0.0
  0
LINE
  5
93
330
1F
100
AcDbEntity
  8
0
  6
Continuous
 62
     7
370
    18
100
AcDbLine
 10
185.6907965209
 20
8.1152464079
 30
0.0
 11
185.6907965209
 21
43.1152464079
 31
0.0
  0
LINE
  5
94
330
1F
100
AcDbEntity
  8
0
  6
Continuous
 62
     7
370
    25
100
AcDbLine
 10
43.3207965209
 20
201.3720275751
 30
0.0
 11
43.3207965209
 21
202.8720275751
 31
0.0
  0
LINE
  5
95
330
1F
100
AcDbEntity
  8
0
  6
Continuous
 62
     7
370
    25
100
AcDbLine
 10
77.9507965209
 20
201.3720275751
 30
0.0
 11
77.9507965209
 21
202.8720275751
 31
0.0
  0
LINE
  5
96
330
1F
100
AcDbEntity
  8
0
  6
Continuous
 62
     7
370
    25
100
AcDbLine
 10
112.5807965209
 20
201.3720275751
 30
0.0
 11
112.5807965209
 21
202.8720275751
 31
0.0
  0
LINE
  5
97
330
1F
100
AcDbEntity
  8
0
  6
Continuous
 62
     7
370
    25
100
AcDbLine
 10
147.2107965209
 20
201.3720275751
 30
0.0
 11
147.2107965209
 21
202.8720275751
 31
0.0
  0
LINE
  5
98
330
1F
100
AcDbEntity
  8
0
  6
Continuous
 62
     7
370
    25
100
AcDbLine
 10
181.8407965209
 20
201.3720275751
 30
0.0
 11
181.8407965209
 21
202.8720275751
 31
0.0
  0
LINE
  5
99
330
1F
100
AcDbEntity
  8
0
  6
Continuous
 62
     7
370
    25
100
AcDbLine
 10
216.4707965209
 20
201.3720275751
 30
0.0
 11
216.4707965209
 21
202.8720275751
 31
0.0
  0
LINE
  5
9A
330
1F
100
AcDbEntity
  8
0
  6
Continuous
 62
     7
370
    25
100
AcDbLine
 10
251.1007965209
 20
201.3720275751
 30
0.0
 11
251.1007965209
 21
202.8720275751
 31
0.0
  0
LINE
  5
9B
330
1F
100
AcDbEntity
  8
0
  6
Continuous
 62
     7
370
    25
100
AcDbLine
 10
43.3157965209
 20
8.1152464079
 30
0.0
 11
43.3157965209
 21
6.6152464079
 31
0.0
  0
LINE
  5
9C
330
1F
100
AcDbEntity
  8
0
  6
Continuous
 62
     7
370
    25
100
AcDbLine
 10
77.9407965209
 20
8.1152464079
 30
0.0
 11
77.9407965209
 21
6.6152464079
 31
0.0
  0
LINE
  5
9D
330
1F
100
AcDbEntity
  8
0
  6
Continuous
 62
     7
370
    25
100
AcDbLine
 10
112.5657965209
 20
8.1152464079
 30
0.0
 11
112.5657965209
 21
6.6152464079
 31
0.0
  0
LINE
  5
9E
330
1F
100
AcDbEntity
  8
0
  6
Continuous
 62
     7
370
    25
100
AcDbLine
 10
147.1907965209
 20
8.1152464079
 30
0.0
 11
147.1907965209
 21
6.6152464079
 31
0.0
  0
LINE
  5
9F
330
1F
100
AcDbEntity
  8
0
  6
Continuous
 62
     7
370
    25
100
AcDbLine
 10
181.8157965209
 20
8.1152464079
 30
0.0
 11
181.8157965209
 21
6.6152464079
 31
0.0
  0
LINE
  5
A0
330
1F
100
AcDbEntity
  8
0
  6
Continuous
 62
     7
370
    25
100
AcDbLine
 10
216.4407965209
 20
8.1152464079
 30
0.0
 11
216.4407965209
 21
6.6152464079
 31
0.0
  0
LINE
  5
A1
330
1F
100
AcDbEntity
  8
0
  6
Continuous
 62
     7
370
    18
100
AcDbLine
 10
285.6907965209
 20
201.3720275751
 30
0.0
 11
8.6907965209
 21
201.3720275751
 31
0.0
  0
LINE
  5
A2
330
1F
100
AcDbEntity
  8
0
  6
Continuous
 62
     7
370
    18
100
AcDbLine
 10
285.6907965209
 20
8.1152464079
 30
0.0
 11
285.6907965209
 21
201.3720275751
 31
0.0
  0
LINE
  5
A3
330
1F
100
AcDbEntity
  8
0
  6
Continuous
 62
     7
370
    18
100
AcDbLine
 10
8.6907965209
 20
201.3720275751
 30
0.0
 11
8.6907965209
 21
8.1152464079
 31
0.0
  0
LINE
  5
A4
330
1F
100
AcDbEntity
  8
0
  6
Continuous
 62
     7
370
    18
100
AcDbLine
 10
8.6907965209
 20
8.1152464079
 30
0.0
 11
285.6907965209
 21
8.1152464079
 31
0.0
  0
LINE
  5
A5
330
1F
100
AcDbEntity
  8
0
  6
Continuous
 62
     7
370
    25
100
AcDbLine
 10
251.0657965209
 20
8.1152464079
 30
0.0
 11
251.0657965209
 21
6.6152464079
 31
0.0
  0
LINE
  5
A6
330
1F
100
AcDbEntity
  8
0
  6
Continuous
 62
     7
370
    25
100
AcDbLine
 10
8.6907965209
 20
40.3252464079
 30
0.0
 11
7.1907965209
 21
40.3252464079
 31
0.0
  0
LINE
  5
A7
330
1F
100
AcDbEntity
  8
0
  6
Continuous
 62
     7
370
    25
100
AcDbLine
 10
8.6907965209
 20
72.5352464079
 30
0.0
 11
7.1907965209
 21
72.5352464079
 31
0.0
  0
LINE
  5
A8
330
1F
100
AcDbEntity
  8
0
  6
Continuous
 62
     7
370
    25
100
AcDbLine
 10
8.6907965209
 20
104.7452464079
 30
0.0
 11
7.1907965209
 21
104.7452464079
 31
0.0
  0
LINE
  5
A9
330
1F
100
AcDbEntity
  8
0
  6
Continuous
 62
     7
370
    25
100
AcDbLine
 10
8.6907965209
 20
136.9552464079
 30
0.0
 11
7.1907965209
 21
136.9552464079
 31
0.0
  0
LINE
  5
AA
330
1F
100
AcDbEntity
  8
0
  6
Continuous
 62
     7
370
    25
100
AcDbLine
 10
8.6907965209
 20
169.1652464079
 30
0.0
 11
7.1907965209
 21
169.1652464079
 31
0.0
  0
LINE
  5
AB
330
1F
100
AcDbEntity
  8
0
  6
Continuous
 62
     7
370
    25
100
AcDbLine
 10
285.6907965209
 20
40.3252464079
 30
0.0
 11
287.1907965209
 21
40.3252464079
 31
0.0
  0
LINE
  5
AC
330
1F
100
AcDbEntity
  8
0
  6
Continuous
 62
     7
370
    25
100
AcDbLine
 10
285.6907965209
 20
72.5352464079
 30
0.0
 11
287.1907965209
 21
72.5352464079
 31
0.0
  0
LINE
  5
AD
330
1F
100
AcDbEntity
  8
0
  6
Continuous
 62
     7
370
    25
100
AcDbLine
 10
285.6907965209
 20
104.7452464079
 30
0.0
 11
287.1907965209
 21
104.7452464079
 31
0.0
  0
LINE
  5
AE
330
1F
100
AcDbEntity
  8
0
  6
Continuous
 62
     7
370
    25
100
AcDbLine
 10
285.6907965209
 20
136.9552464079
 30
0.0
 11
287.1907965209
 21
136.9552464079
 31
0.0
  0
LINE
  5
AF
330
1F
100
AcDbEntity
  8
0
  6
Continuous
 62
     7
370
    25
100
AcDbLine
 10
285.6907965209
 20
169.1652464079
 30
0.0
 11
287.1907965209
 21
169.1652464079
 31
0.0
  0
CIRCLE
  5
B0
330
1F
100
AcDbEntity
  8
0
  6
Continuous
 62
     7
370
    18
100
AcDbCircle
 10
168.3593775185
 20
17.7745192513
 30
0.0
 40
1.5
  0
CIRCLE
  5
B1
330
1F
100
AcDbEntity
  8
0
  6
Continuous
 62
     7
370
    18
100
AcDbCircle
 10
168.3593775185
 20
17.7745192513
 30
0.0
 40
2.5
  0
ARC
  5
B2
330
1F
100
AcDbEntity
  8
工作區域參考線
 62
     1
370
    35
100
AcDbCircle
 10
195.9525692879
 20
35.6478417413
 30
0.0
 40
1.518552937418275
100
AcDbArc
 50
306.0377529468
 51
43.4396461534
  0
ARC
  5
B3
330
1F
100
AcDbEntity
  8
工作區域參考線
 62
     1
370
    35
100
AcDbCircle
 10
192.271589272
 20
35.1222473508
 30
0.0
 40
3.181636704527891
100
AcDbArc
 50
45.5592925416
 51
125.8325555121
  0
ARC
  5
B4
330
1F
100
AcDbEntity
  8
工作區域參考線
 62
     1
370
    35
100
AcDbCircle
 10
192.5892455628
 20
35.6630691563
 30
0.0
 40
2.577567488346266
100
AcDbArc
 50
321.9435288427
 51
42.1815007004
  0
INSERT
  5
B5
330
1F
100
AcDbEntity
  8
0
  6
Continuous
 62
     7
100
AcDbBlockReference
  2
圖塊6
 10
186.9640923647
 20
29.4440528386
 30
0.0
  0
MTEXT
  5
B7
330
1F
100
AcDbEntity
  8
0
  6
Continuous
 62
     7
370
     0
100
AcDbMText
 10
165.5426850804
 20
13.2208440369
 30
0.0
 40
2.6458333333
 41
0.0
 71
     1
 72
     1
  1
UNIT:m/m
  7
SLDTEXTSTYLE0
 73
     1
 44
1.0
  0
MTEXT
  5
B8
330
1F
100
AcDbEntity
  8
0
  6
Continuous
 62
     7
370
     0
100
AcDbMText
 10
12.2315076053
 20
197.3010888199
 30
0.0
 40
2.6458333333
 41
0.0
 71
     1
 72
     1
  1
PROPRIETARY AND CONFIDENTIAL
  7
SLDTEXTSTYLE0
 73
     1
 44
1.0
  0
MTEXT
  5
B9
330
1F
100
AcDbEntity
  8
0
  6
Continuous
 62
     7
370
     0
100
AcDbMText
 10
12.2315076053
 20
193.8084469451
 30
0.0
 40
1.8520833333
 41
0.0
 71
     1
 72
     1
  1
THE INFORMATION CONTAINED IN THIS DRAWING IS THE SOLE PROPERTY OF UNICE E-O SERVICES INC. ANY REPRODUCTION IN PART OR AS A WHOLE WITHOUT THE WRITTEN PERMISSION OF UNICE E-O SERVICES INC IS
  7
SLDTEXTSTYLE0
 73
     1
 44
1.0
  0
MTEXT
  5
BA
330
1F
100
AcDbEntity
  8
0
  6
Continuous
 62
     7
370
     0
100
AcDbMText
 10
12.2315076053
 20
191.3390025305
 30
0.0
 40
1.8520833333
 41
0.0
 71
     1
 72
     1
  1
PROHIBITED.
  7
SLDTEXTSTYLE0
 73
     1
 44
1.0
  0
MTEXT
  5
BB
330
1F
100
AcDbEntity
  8
0
  6
Continuous
 62
     7
370
     0
100
AcDbMText
 10
198.7251893935
 20
40.4406774139
 30
0.0
 40
2.38125
 41
0.0
 71
     1
 72
     1
  1
Unice E-O Services Inc.
  7
SLDTEXTSTYLE0
 73
     1
 44
1.0
  0
MTEXT
  5
BC
330
1F
100
AcDbEntity
  8
0
  6
Continuous
 62
     7
370
     0
100
AcDbMText
 10
217.5590538149
 20
21.5867148511
 30
0.0
 40
1.8520833333
 41
0.0
 71
     1
 72
     1
  1
2024/1/5
  7
SLDTEXTSTYLE0
 73
     1
 44
1.0
  0
MTEXT
  5
BD
330
1F
100
AcDbEntity
  8
0
  6
Continuous
 62
     7
370
     0
100
AcDbMText
 10
252.6088982507
 20
16.87117774
 30
0.0
 40
2.5
 41
0.0
 71
     1
 72
     1
  1
1:1
  7
SLDTEXTSTYLE0
 73
     1
 44
1.0
  0
MTEXT
  5
BE
330
1F
100
AcDbEntity
  8
0
  6
Continuous
 62
     7
370
     0
100
AcDbMText
 10
252.3075599985
 20
32.1519195438
 30
0.0
 40
2.5
 41
0.0
 71
     1
 72
     1
  1
04MTC-2M
  7
SLDTEXTSTYLE0
 73
     1
 44
1.0
  0
MTEXT
  5
BF
330
1F
100
AcDbEntity
  8
0
  6
Continuous
 62
     7
370
     0
100
AcDbMText
 10
252.3075599985
 20
38.1082117879
 30
0.0
 40
2.5
 41
0.0
 71
     1
 72
     1
  1
04MTC-2M
  7
SLDTEXTSTYLE0
 73
     1
 44
1.0
  0
MTEXT
  5
C0
330
1F
100
AcDbEntity
  8
0
  6
Continuous
 62
     7
370
     0
100
AcDbMText
 10
236.3921866786
 20
16.5064795728
 30
0.0
 40
2.1166666667
 41
0.0
 71
     1
 72
     1
  1
SCALE:
  7
SLDTEXTSTYLE0
 73
     1
 44
1.0
  0
MTEXT
  5
C1
330
1F
100
AcDbEntity
  8
0
  6
Continuous
 62
     7
370
     0
100
AcDbMText
 10
186.3336086789
 20
21.5867148511
 30
0.0
 40
1.8520833333
 41
0.0
 71
     1
 72
     1
  1
DRAWN
  7
SLDTEXTSTYLE0
 73
     1
 44
1.0
  0
MTEXT
  5
C2
330
1F
100
AcDbEntity
  8
0
  6
Continuous
 62
     7
370
     0
100
AcDbMText
 10
203.2228367937
 20
26.683208308
 30
0.0
 40
1.8520833333
 41
0.0
 71
     1
 72
     1
  1
NAME
  7
SLDTEXTSTYLE0
 73
     1
 44
1.0
  0
MTEXT
  5
C3
330
1F
100
AcDbEntity
  8
0
  6
Continuous
 62
     7
370
     0
100
AcDbMText
 10
220.8710155758
 20
26.683208308
 30
0.0
 40
1.8520833333
 41
0.0
 71
     1
 72
     1
  1
DATE
  7
SLDTEXTSTYLE0
 73
     1
 44
1.0
  0
MTEXT
  5
C4
330
1F
100
AcDbEntity
  8
0
  6
Continuous
 62
     7
370
     0
100
AcDbMText
 10
236.2756316645
 20
31.7872213766
 30
0.0
 40
2.1166666667
 41
0.0
 71
     1
 72
     1
  1
DWG. NO.
  7
SLDTEXTSTYLE0
 73
     1
 44
1.0
  0
MTEXT
  5
C5
330
1F
100
AcDbEntity
  8
0
  6
Continuous
 62
     7
370
     0
100
AcDbMText
 10
236.3629907088
 20
41.8840658243
 30
0.0
 40
2.1166666667
 41
0.0
 71
     1
 72
     1
  1
TITLE:
  7
SLDTEXTSTYLE0
 73
     1
 44
1.0
  0
MTEXT
  5
C6
330
1F
100
AcDbEntity
  8
0
  6
Continuous
 62
     7
370
     0
100
AcDbMText
 10
203.0314209802
 20
16.2403789724
 30
0.0
 40
1.8520833333
 41
0.0
 71
     1
 72
     1
  1
Johnny
  7
SLDTEXTSTYLE0
 73
     1
 44
1.0
  0
MTEXT
  5
C7
330
1F
100
AcDbEntity
  8
0
  6
Continuous
 62
     7
370
     0
100
AcDbMText
 10
217.5590538149
 20
16.2403789724
 30
0.0
 40
1.8520833333
 41
0.0
 71
     1
 72
     1
  1
2024/1/5
  7
SLDTEXTSTYLE0
 73
     1
 44
1.0
  0
MTEXT
  5
C8
330
1F
100
AcDbEntity
  8
0
  6
Continuous
 62
     7
370
     0
100
AcDbMText
 10
186.3336086789
 20
16.2403789724
 30
0.0
 40
1.8520833333
 41
0.0
 71
     1
 72
     1
  1
ENG APPR.
  7
SLDTEXTSTYLE0
 73
     1
 44
1.0
  0
MTEXT
  5
C9
330
1F
100
AcDbEntity
  8
0
  6
Continuous
 62
     7
370
     0
100
AcDbMText
 10
236.3921866786
 20
11.6853389288
 30
0.0
 40
2.1166666667
 41
0.0
 71
     1
 72
     1
  1
REV
  7
SLDTEXTSTYLE0
 73
     1
 44
1.0
  0
MTEXT
  5
CA
330
1F
100
AcDbEntity
  8
0
  6
Continuous
 62
     7
370
     0
100
AcDbMText
 10
236.3629907088
 20
26.9493089085
 30
0.0
 40
2.1166666667
 41
0.0
 71
     1
 72
     1
  1
MATERIAL:
  7
SLDTEXTSTYLE0
 73
     1
 44
1.0
  0
MTEXT
  5
CB
330
1F
100
AcDbEntity
  8
0
  6
Continuous
 62
     7
370
     0
100
AcDbMText
 10
252.6088982507
 20
22.2175136187
 30
0.0
 40
2.5
 41
0.0
 71
     1
 72
     1
  1
N/A
  7
SLDTEXTSTYLE0
 73
     1
 44
1.0
  0
MTEXT
  5
CC
330
1F
100
AcDbEntity
  8
0
  6
Continuous
 62
     7
370
     0
100
AcDbMText
 10
26.6029931533
 20
204.453351657
 30
0.0
 40
2.1166666667
 41
0.0
 71
     1
 72
     1
  1
1
  7
SLDTEXTSTYLE0
 73
     1
 44
1.0
  0
MTEXT
  5
CD
330
1F
100
AcDbEntity
  8
0
  6
Continuous
 62
     7
370
     0
100
AcDbMText
 10
60.7170995724
 20
204.453351657
 30
0.0
 40
2.1166666667
 41
0.0
 71
     1
 72
     1
  1
2
  7
SLDTEXTSTYLE0
 73
     1
 44
1.0
  0
MTEXT
  5
CE
330
1F
100
AcDbEntity
  8
0
  6
Continuous
 62
     7
370
     0
100
AcDbMText
 10
94.9009943906
 20
204.453351657
 30
0.0
 40
2.1166666667
 41
0.0
 71
     1
 72
     1
  1
3
  7
SLDTEXTSTYLE0
 73
     1
 44
1.0
  0
MTEXT
  5
CF
330
1F
100
AcDbEntity
  8
0
  6
Continuous
 62
     7
370
     0
100
AcDbMText
 10
129.2533362851
 20
204.2992584364
 30
0.0
 40
2.1166666667
 41
0.0
 71
     1
 72
     1
  1
4
  7
SLDTEXTSTYLE0
 73
     1
 44
1.0
  0
MTEXT
  5
D0
330
1F
100
AcDbEntity
  8
0
  6
Continuous
 62
     7
370
     0
100
AcDbMText
 10
163.702323464
 20
204.453351657
 30
0.0
 40
2.1166666667
 41
0.0
 71
     1
 72
     1
  1
5
  7
SLDTEXTSTYLE0
 73
     1
 44
1.0
  0
MTEXT
  5
D1
330
1F
100
AcDbEntity
  8
0
  6
Continuous
 62
     7
370
     0
100
AcDbMText
 10
198.6382170415
 20
204.453351657
 30
0.0
 40
2.1166666667
 41
0.0
 71
     1
 72
     1
  1
6
  7
SLDTEXTSTYLE0
 73
     1
 44
1.0
  0
MTEXT
  5
D2
330
1F
100
AcDbEntity
  8
0
  6
Continuous
 62
     7
370
     0
100
AcDbMText
 10
234.3630657407
 20
204.453351657
 30
0.0
 40
2.1166666667
 41
0.0
 71
     1
 72
     1
  1
7
  7
SLDTEXTSTYLE0
 73
     1
 44
1.0
  0
MTEXT
  5
D3
330
1F
100
AcDbEntity
  8
0
  6
Continuous
 62
     7
370
     0
100
AcDbMText
 10
266.2787820494
 20
204.453351657
 30
0.0
 40
2.1166666667
 41
0.0
 71
     1
 72
     1
  1
8
  7
SLDTEXTSTYLE0
 73
     1
 44
1.0
  0
MTEXT
  5
D4
330
1F
100
AcDbEntity
  8
0
  6
Continuous
 62
     7
370
     0
100
AcDbMText
 10
5.3568236555
 20
185.8113022879
 30
0.0
 40
2.1166666667
 41
0.0
 71
     1
 72
     1
  1
A
  7
SLDTEXTSTYLE0
 73
     1
 44
1.0
  0
MTEXT
  5
D5
330
1F
100
AcDbEntity
  8
0
  6
Continuous
 62
     7
370
     0
100
AcDbMText
 10
5.5910431831
 20
154.2993048238
 30
0.0
 40
2.1166666667
 41
0.0
 71
     1
 72
     1
  1
B
  7
SLDTEXTSTYLE0
 73
     1
 44
1.0
  0
MTEXT
  5
D6
330
1F
100
AcDbEntity
  8
0
  6
Continuous
 62
     7
370
     0
100
AcDbMText
 10
5.5910431831
 20
121.274351423
 30
0.0
 40
2.1166666667
 41
0.0
 71
     1
 72
     1
  1
C
  7
SLDTEXTSTYLE0
 73
     1
 44
1.0
  0
MTEXT
  5
D7
330
1F
100
AcDbEntity
  8
0
  6
Continuous
 62
     7
370
     0
100
AcDbMText
 10
5.5910431831
 20
88.7453220221
 30
0.0
 40
2.1166666667
 41
0.0
 71
     1
 72
     1
  1
D
  7
SLDTEXTSTYLE0
 73
     1
 44
1.0
  0
MTEXT
  5
D8
330
1F
100
AcDbEntity
  8
0
  6
Continuous
 62
     7
370
     0
100
AcDbMText
 10
5.5910431831
 20
57.5558849197
 30
0.0
 40
2.1166666667
 41
0.0
 71
     1
 72
     1
  1
E
  7
SLDTEXTSTYLE0
 73
     1
 44
1.0
  0
MTEXT
  5
D9
330
1F
100
AcDbEntity
  8
0
  6
Continuous
 62
     7
370
     0
100
AcDbMText
 10
5.5910431831
 20
25.5694212252
 30
0.0
 40
2.1166666667
 41
0.0
 71
     1
 72
     1
  1
F
  7
SLDTEXTSTYLE0
 73
     1
 44
1.0
  0
MTEXT
  5
DA
330
1F
100
AcDbEntity
  8
0
  6
Continuous
 62
     7
370
     0
100
AcDbMText
 10
266.1858616964
 20
6.6236223963
 30
0.0
 40
2.1166666667
 41
0.0
 71
     1
 72
     1
  1
8
  7
SLDTEXTSTYLE0
 73
     1
 44
1.0
  0
MTEXT
  5
DB
330
1F
100
AcDbEntity
  8
0
  6
Continuous
 62
     7
370
     0
100
AcDbMText
 10
234.2701453876
 20
6.6236223963
 30
0.0
 40
2.1166666667
 41
0.0
 71
     1
 72
     1
  1
7
  7
SLDTEXTSTYLE0
 73
     1
 44
1.0
  0
MTEXT
  5
DC
330
1F
100
AcDbEntity
  8
0
  6
Continuous
 62
     7
370
     0
100
AcDbMText
 10
198.5452966885
 20
6.6236223963
 30
0.0
 40
2.1166666667
 41
0.0
 71
     1
 72
     1
  1
6
  7
SLDTEXTSTYLE0
 73
     1
 44
1.0
  0
MTEXT
  5
DD
330
1F
100
AcDbEntity
  8
0
  6
Continuous
 62
     7
370
     0
100
AcDbMText
 10
163.6094031109
 20
6.6236223963
 30
0.0
 40
2.1166666667
 41
0.0
 71
     1
 72
     1
  1
5
  7
SLDTEXTSTYLE0
 73
     1
 44
1.0
  0
MTEXT
  5
DE
330
1F
100
AcDbEntity
  8
0
  6
Continuous
 62
     7
370
     0
100
AcDbMText
 10
129.1604159321
 20
6.4695291758
 30
0.0
 40
2.1166666667
 41
0.0
 71
     1
 72
     1
  1
4
  7
SLDTEXTSTYLE0
 73
     1
 44
1.0
  0
MTEXT
  5
DF
330
1F
100
AcDbEntity
  8
0
  6
Continuous
 62
     7
370
     0
100
AcDbMText
 10
94.8080740376
 20
6.6236223963
 30
0.0
 40
2.1166666667
 41
0.0
 71
     1
 72
     1
  1
3
  7
SLDTEXTSTYLE0
 73
     1
 44
1.0
  0
MTEXT
  5
E0
330
1F
100
AcDbEntity
  8
0
  6
Continuous
 62
     7
370
     0
100
AcDbMText
 10
60.6241792194
 20
6.6236223963
 30
0.0
 40
2.1166666667
 41
0.0
 71
     1
 72
     1
  1
2
  7
SLDTEXTSTYLE0
 73
     1
 44
1.0
  0
MTEXT
  5
E1
330
1F
100
AcDbEntity
  8
0
  6
Continuous
 62
     7
370
     0
100
AcDbMText
 10
26.5100728003
 20
6.6236223963
 30
0.0
 40
2.1166666667
 41
0.0
 71
     1
 72
     1
  1
1
  7
SLDTEXTSTYLE0
 73
     1
 44
1.0
  0
MTEXT
  5
E2
330
1F
100
AcDbEntity
  8
0
  6
Continuous
 62
     7
370
     0
100
AcDbMText
 10
287.1023846145
 20
186.6424909092
 30
0.0
 40
2.1166666667
 41
0.0
 71
     1
 72
     1
  1
A
  7
SLDTEXTSTYLE0
 73
     1
 44
1.0
  0
MTEXT
  5
E3
330
1F
100
AcDbEntity
  8
0
  6
Continuous
 62
     7
370
     0
100
AcDbMText
 10
287.3366041421
 20
155.1304934451
 30
0.0
 40
2.1166666667
 41
0.0
 71
     1
 72
     1
  1
B
  7
SLDTEXTSTYLE0
 73
     1
 44
1.0
  0
MTEXT
  5
E4
330
1F
100
AcDbEntity
  8
0
  6
Continuous
 62
     7
370
     0
100
AcDbMText
 10
287.3366041421
 20
122.1055400442
 30
0.0
 40
2.1166666667
 41
0.0
 71
     1
 72
     1
  1
C
  7
SLDTEXTSTYLE0
 73
     1
 44
1.0
  0
MTEXT
  5
E5
330
1F
100
AcDbEntity
  8
0
  6
Continuous
 62
     7
370
     0
100
AcDbMText
 10
287.3366041421
 20
89.5765106433
 30
0.0
 40
2.1166666667
 41
0.0
 71
     1
 72
     1
  1
D
  7
SLDTEXTSTYLE0
 73
     1
 44
1.0
  0
MTEXT
  5
E6
330
1F
100
AcDbEntity
  8
0
  6
Continuous
 62
     7
370
     0
100
AcDbMText
 10
287.3366041421
 20
58.3870735409
 30
0.0
 40
2.1166666667
 41
0.0
 71
     1
 72
     1
  1
E
  7
SLDTEXTSTYLE0
 73
     1
 44
1.0
  0
MTEXT
  5
E7
330
1F
100
AcDbEntity
  8
0
  6
Continuous
 62
     7
370
     0
100
AcDbMText
 10
287.3366041421
 20
26.4006098464
 30
0.0
 40
2.1166666667
 41
0.0
 71
     1
 72
     1
  1
F
  7
SLDTEXTSTYLE0
 73
     1
 44
1.0
  0
MTEXT
  5
E8
330
1F
100
AcDbEntity
  8
0
  6
Continuous
 62
     7
370
     0
100
AcDbMText
 10
203.1553128802
 20
21.5867148511
 30
0.0
 40
1.8520833333
 41
0.0
 71
     1
 72
     1
  1
John
  7
SLDTEXTSTYLE0
 73
     1
 44
1.0
  0
MTEXT
  5
E9
330
1F
100
AcDbEntity
  8
0
  6
Continuous
 62
     7
370
     0
100
AcDbMText
 10
252.8482239645
 20
12.0500370959
 30
0.0
 40
2.5
 41
0.0
 71
     1
 72
     1
  1
0
  7
SLDTEXTSTYLE0
 73
     1
 44
1.0
  0
MTEXT
  5
EA
330
1F
100
AcDbEntity
  8
SLD-0
 62
     7
100
AcDbMText
 10
198.7251893935
 20
35.5943695581
 30
0.0
 40
1.5875
 41
0.0
 71
     1
 72
     1
  1
No.5, Andong Rd., Chung Li District,
  7
SLDTEXTSTYLE0
 73
     1
 44
1.0
  0
MTEXT
  5
EB
330
1F
100
AcDbEntity
  8
SLD-0
 62
     7
100
AcDbMText
 10
198.7251893935
 20
33.477702917
 30
0.0
 40
1.5875
 41
0.0
 71
     1
 72
     1
  1
Taoyuan City 32063, Taiwan, R.O.C.
  7
SLDTEXTSTYLE0
 73
     1
 44
1.0
  0
ARC
  5
EC
330
1F
100
AcDbEntity
  8
0
  6
Continuous
 62
     7
370
    35
100
AcDbCircle
 10
111.6442305652
 20
111.9481961824
 30
0.0
 40
29.50000000000003
100
AcDbArc
 50
301.5810612323
 51
58.861631521
  0
LINE
  5
ED
330
1F
100
AcDbEntity
  8
0
  6
Continuous
 62
     7
370
    35
100
AcDbLine
 10
126.8988757857
 20
137.1978654712
 30
0.0
 11
127.4159824034
 21
138.0537864641
 31
0.0
  0
ARC
  5
EE
330
1F
100
AcDbEntity
  8
0
  6
Continuous
 62
     7
370
    35
100
AcDbCircle
 10
111.6442305652
 20
111.9481961824
 30
0.0
 40
30.50000000000004
100
AcDbArc
 50
301.5810612323
 51
58.861631521
  0
LINE
  5
EF
330
1F
100
AcDbEntity
  8
0
  6
Continuous
 62
     7
370
    35
100
AcDbLine
 10
127.0935087206
 20
86.8171435884
 30
0.0
 11
127.6172130648
 21
85.9652435005
 31
0.0
  0
ARC
  5
F0
330
1F
100
AcDbEntity
  8
0
  6
Continuous
 62
     7
370
    35
100
AcDbCircle
 10
142.9291809327
 20
163.7314162494
 30
0.0
 40
30.99999999999994
100
AcDbArc
 50
219.7533306553
 51
238.861631521
  0
LINE
  5
F1
330
1F
100
AcDbEntity
  8
0
  6
Continuous
 62
     7
370
    35
100
AcDbLine
 10
119.8650411444
 20
144.5469054183
 30
0.0
 11
119.0962364848
 21
143.9074217239
 31
0.0
  0
ARC
  5
F2
330
1F
100
AcDbEntity
  8
0
  6
Continuous
 62
     7
370
    35
100
AcDbCircle
 10
142.9291809327
 20
163.7314162494
 30
0.0
 40
29.99999999999998
100
AcDbArc
 50
219.7533306553
 51
238.861631521
  0
ARC
  5
F3
330
1F
100
AcDbEntity
  8
0
  6
Continuous
 62
     7
370
    35
100
AcDbCircle
 10
87.815682902
 20
73.1867421815
 30
0.0
 40
16.0
100
AcDbArc
 50
11.7616533925
 51
58.4189387677
  0
LINE
  5
F4
330
1F
100
AcDbEntity
  8
0
  6
Continuous
 62
     7
370
    35
100
AcDbLine
 10
103.4797474384
 20
76.4481961824
 30
0.0
 11
102.5007434048
 21
76.2443553073
 31
0.0
  0
ARC
  5
F5
330
1F
100
AcDbEntity
  8
0
  6
Continuous
 62
     7
370
    35
100
AcDbCircle
 10
87.815682902
 20
73.1867421815
 30
0.0
 40
15.00000000000001
100
AcDbArc
 50
11.7616533925
 51
58.4189387677
  0
LINE
  5
F6
330
1F
100
AcDbEntity
  8
0
  6
Continuous
 62
     7
370
    35
100
AcDbLine
 10
95.6712480657
 20
85.9652435005
 30
0.0
 11
96.1949524099
 21
86.8171435884
 31
0.0
  0
ARC
  5
F7
330
1F
100
AcDbEntity
  8
0
  6
Continuous
 62
     7
370
    35
100
AcDbCircle
 10
105.3454316351
 20
142.9481961824
 30
0.0
 40
2.5
100
AcDbArc
 50
90.0
 51
140.2466693447
  0
LINE
  5
F8
330
1F
100
AcDbEntity
  8
0
  6
Continuous
 62
     7
370
    35
100
AcDbLine
 10
105.3454316351
 20
145.4481961824
 30
0.0
 11
105.3454316351
 21
144.4481961824
 31
0.0
  0
ARC
  5
F9
330
1F
100
AcDbEntity
  8
0
  6
Continuous
 62
     7
370
    35
100
AcDbCircle
 10
105.3454316351
 20
142.9481961824
 30
0.0
 40
1.5
100
AcDbArc
 50
90.0
 51
140.2466693447
  0
LINE
  5
FA
330
1F
100
AcDbEntity
  8
0
  6
Continuous
 62
     7
370
    35
100
AcDbLine
 10
103.4234199861
 20
144.5469054183
 30
0.0
 11
104.1922246457
 21
143.9074217239
 31
0.0
  0
ARC
  5
FB
330
1F
100
AcDbEntity
  8
0
  6
Continuous
 62
     7
370
    35
100
AcDbCircle
 10
135.4727782285
 20
73.1867421815
 30
0.0
 40
16.00000000000001
100
AcDbArc
 50
121.5810612323
 51
168.2383466075
  0
ARC
  5
FC
330
1F
100
AcDbEntity
  8
0
  6
Continuous
 62
     7
370
    35
100
AcDbCircle
 10
135.4727782285
 20
73.1867421815
 30
0.0
 40
15.00000000000002
100
AcDbArc
 50
121.5810612323
 51
168.2383466075
  0
LINE
  5
FD
330
1F
100
AcDbEntity
  8
0
  6
Continuous
 62
     7
370
    35
100
AcDbLine
 10
119.8087136921
 20
76.4481961824
 30
0.0
 11
120.7877177256
 21
76.2443553073
 31
0.0
  0
LINE
  5
FE
330
1F
100
AcDbEntity
  8
0
  6
Continuous
 62
     7
370
    35
100
AcDbLine
 10
103.4797474384
 20
76.4481961824
 30
0.0
 11
119.8087136921
 21
76.4481961824
 31
0.0
  0
ARC
  5
FF
330
1F
100
AcDbEntity
  8
0
  6
Continuous
 62
     7
370
    35
100
AcDbCircle
 10
111.6442305652
 20
111.9481961824
 30
0.0
 40
29.50000000000001
100
AcDbArc
 50
121.138368479
 51
238.4189387677
  0
ARC
  5
100
330
1F
100
AcDbEntity
  8
0
  6
Continuous
 62
     7
370
    35
100
AcDbCircle
 10
80.3592801978
 20
163.7314162494
 30
0.0
 40
31.00000000000007
100
AcDbArc
 50
301.138368479
 51
320.2466693447
  0
LINE
  5
101
330
1F
100
AcDbEntity
  8
0
  6
Continuous
 62
     7
370
    35
100
AcDbLine
 10
117.9430294954
 20
144.4481961824
 30
0.0
 11
105.3454316351
 21
144.4481961824
 31
0.0
  0
ARC
  5
102
330
1F
100
AcDbEntity
  8
0
  6
Continuous
 62
     7
370
    35
100
AcDbCircle
 10
117.9430294954
 20
142.9481961824
 30
0.0
 40
1.500000000000002
100
AcDbArc
 50
39.7533306553
 51
90.0
  0
CIRCLE
  5
103
330
1F
100
AcDbEntity
  8
0
  6
Continuous
 62
     7
370
    35
100
AcDbCircle
 10
111.6442305652
 20
111.9481961824
 30
0.0
 40
26.49999999999999
  0
ARC
  5
104
330
1F
100
AcDbEntity
  8
0
  6
Continuous
 62
     7
370
    35
100
AcDbCircle
 10
111.6442305652
 20
111.9481961824
 30
0.0
 40
30.50000000000003
100
AcDbArc
 50
121.138368479
 51
238.4189387677
  0
LINE
  5
105
330
1F
100
AcDbEntity
  8
0
  6
Continuous
 62
     7
370
    35
100
AcDbLine
 10
95.8724787271
 20
138.0537864641
 30
0.0
 11
96.3895853448
 21
137.1978654712
 31
0.0
  0
LINE
  5
106
330
1F
100
AcDbEntity
  8
0
  6
Continuous
 62
     7
370
    35
100
AcDbLine
 10
119.8087136921
 20
76.4481961824
 30
0.0
 11
119.8087136921
 21
75.4481961824
 31
0.0
  0
LINE
  5
107
330
1F
100
AcDbEntity
  8
0
  6
Continuous
 62
     7
370
    35
100
AcDbLine
 10
119.8087136921
 20
75.4481961824
 30
0.0
 11
103.4797474384
 21
75.4481961824
 31
0.0
  0
LINE
  5
108
330
1F
100
AcDbEntity
  8
0
  6
Continuous
 62
     7
370
    35
100
AcDbLine
 10
103.4797474384
 20
76.4481961824
 30
0.0
 11
103.4797474384
 21
75.4481961824
 31
0.0
  0
ARC
  5
109
330
1F
100
AcDbEntity
  8
0
  6
Continuous
 62
     7
370
    35
100
AcDbCircle
 10
103.4797474384
 20
76.4481961824
 30
0.0
 40
0.9999999999999996
100
AcDbArc
 50
191.7616533925
 51
270.0
  0
ARC
  5
10A
330
1F
100
AcDbEntity
  8
0
  6
Continuous
 62
     7
370
    35
100
AcDbCircle
 10
119.8087136921
 20
76.4481961824
 30
0.0
 40
0.9999999999999858
100
AcDbArc
 50
270.0
 51
348.2383466075
  0
ARC
  5
10B
330
1F
100
AcDbEntity
  8
0
  6
Continuous
 62
     7
370
    35
100
AcDbCircle
 10
117.9430294954
 20
142.9481961824
 30
0.0
 40
2.500000000000015
100
AcDbArc
 50
39.7533306553
 51
90.0
  0
LINE
  5
10C
330
1F
100
AcDbEntity
  8
0
  6
Continuous
 62
     7
370
    35
100
AcDbLine
 10
117.9430294954
 20
145.4481961824
 30
0.0
 11
117.9430294954
 21
144.4481961824
 31
0.0
  0
LINE
  5
10D
330
1F
100
AcDbEntity
  8
0
  6
Continuous
 62
     7
370
    35
100
AcDbLine
 10
105.3454316351
 20
145.4481961824
 30
0.0
 11
117.9430294954
 21
145.4481961824
 31
0.0
  0
ARC
  5
10E
330
1F
100
AcDbEntity
  8
0
  6
Continuous
 62
     7
370
    35
100
AcDbCircle
 10
80.3592801978
 20
163.7314162494
 30
0.0
 40
30.00000000000007
100
AcDbArc
 50
301.138368479
 51
320.2466693447
  0
LINE
  5
10F
330
1F
100
AcDbEntity
  8
0
  6
Continuous
 62
     7
370
    35
100
AcDbLine
 10
87.8942305652
 20
111.9481961824
 30
0.0
 11
87.9048688631
 21
111.2374177531
 31
0.0
  0
ARC
  5
110
330
1F
100
AcDbEntity
  8
0
  6
Continuous
 62
     7
370
    35
100
AcDbCircle
 10
111.6442305652
 20
111.9481961824
 30
0.0
 40
23.74999999999999
100
AcDbArc
 50
358.2850237547
 51
1.7149762453
  0
LINE
  5
111
330
1F
100
AcDbEntity
  8
0
  6
Continuous
 62
     7
370
    35
100
AcDbLine
 10
87.9048688631
 20
112.6589746117
 30
0.0
 11
87.8942305652
 21
111.9481961824
 31
0.0
  0
LWPOLYLINE
  5
112
330
1F
100
AcDbEntity
  8
0
  6
Continuous
 62
     7
370
    35
100
AcDbPolyline
 90
        3
 70
   128
 43
0.0
 10
135.6375816291
 20
111.383302628
 10
135.6427733917
 20
112.2126620716
 10
135.6375816291
 20
112.5130897368
  0
LWPOLYLINE
  5
113
330
1F
100
AcDbEntity
  8
0
  6
Continuous
 62
     7
370
    35
100
AcDbPolyline
 90
        3
 70
   128
 43
0.0
 10
87.6508795014
 20
112.5130897368
 10
87.6456877388
 20
111.6837302931
 10
87.6508795014
 20
111.383302628
  0
CIRCLE
  5
114
330
1F
100
AcDbEntity
  8
0
  6
Continuous
 62
     7
370
    35
100
AcDbCircle
 10
111.6442305652
 20
111.9481961824
 30
0.0
 40
22.24999999999999
  0
CIRCLE
  5
115
330
1F
100
AcDbEntity
  8
0
  6
Continuous
 62
     7
370
    35
100
AcDbCircle
 10
111.6442305652
 20
111.9481961824
 30
0.0
 40
25.8
  0
CIRCLE
  5
116
330
1F
100
AcDbEntity
  8
0
  6
Continuous
 62
     7
370
    35
100
AcDbCircle
 10
135.1442305652
 20
111.9481961824
 30
0.0
 40
0.75
  0
CIRCLE
  5
117
330
1F
100
AcDbEntity
  8
0
  6
Continuous
 62
     7
370
    35
100
AcDbCircle
 10
88.1442305652
 20
111.9481961824
 30
0.0
 40
0.75
  0
LINE
  5
118
330
1F
100
AcDbEntity
  8
0
  6
Continuous
 62
     7
370
    35
100
AcDbLine
 10
87.6942305652
 20
111.9481961824
 30
0.0
 11
87.7018901397
 21
112.5538651909
 31
0.0
  0
LWPOLYLINE
  5
119
330
1F
100
AcDbEntity
  8
0
  6
Continuous
 62
     7
370
    35
100
AcDbPolyline
 90
        3
 70
   128
 43
0.0
 10
135.5865709908
 20
112.5538651909
 10
135.5942305652
 20
111.9481961824
 10
135.5865709908
 20
111.3425271738
  0
LINE
  5
11A
330
1F
100
AcDbEntity
  8
0
  6
Continuous
 62
     7
370
    35
100
AcDbLine
 10
87.7018901397
 20
111.3425271738
 30
0.0
 11
87.6942305652
 21
111.9481961824
 31
0.0
  0
POINT
  5
11B
330
1F
100
AcDbEntity
  8
SLD-0
 62
     7
370
    18
100
AcDbPoint
 10
142.144002967
 20
112.0660241926
 30
0.0
  0
POINT
  5
11C
330
1F
100
AcDbEntity
  8
SLD-0
 62
     7
370
    18
100
AcDbPoint
 10
81.1444581635
 20
112.0660241926
 30
0.0
  0
DIMENSION
  5
11D
330
1F
100
AcDbEntity
  8
SLD-0
 62
     7
100
AcDbDimension
  2
_D
 10
142.144002967
 20
64.0442808376
 30
0.0
 11
111.6442305652
 21
64.0442808376
 31
0.0
 70
   160
  1
<>
 71
     2
 42
-1.0
  3
SLDDIMSTYLE0
100
AcDbAlignedDimension
 13
81.1444581635
 23
112.0660241926
 33
0.0
 14
142.144002967
 24
112.0660241926
 34
0.0
100
AcDbRotatedDimension
  0
DIMENSION
  5
128
330
1F
100
AcDbEntity
  8
SLD-0
 62
     7
100
AcDbDimension
  2
_D_1
 10
153.7693804753
 20
75.4481961824
 30
0.0
 11
153.7693804753
 21
110.4481961824
 31
0.0
 70
   160
  1
<>
 71
     2
 42
-1.0
  3
SLDDIMSTYLE0
100
AcDbAlignedDimension
 13
117.9430294954
 23
145.4481961824
 33
0.0
 14
119.8087136921
 24
75.4481961824
 34
0.0
 50
90.0
100
AcDbRotatedDimension
  0
DIMENSION
  5
132
330
1F
100
AcDbEntity
  8
SLD-0
100
AcDbDimension
  2
_D_2
 10
96.7020788871
 20
95.4620018602
 30
0.0
 11
64.843570213
 21
73.1887683052
 31
0.0
 70
   163
  1
C.A.<>
 71
     1
 42
-1.0
  3
SLDDIMSTYLE1
100
AcDbDiametricDimension
 15
126.5863822434
 25
128.4343905045
 35
0.0
 40
0.0
  0
INSERT
  5
148
330
1F
100
AcDbEntity
  8
SLD-0
100
AcDbBlockReference
  2
SW_NOTE_0
 10
85.240455242
 20
143.466516259
 30
0.0
  0
LEADER
  5
14A
330
1F
100
AcDbEntity
  8
SLD-0
100
AcDbLeader
  3
SLDDIMSTYLE2
 76
     2
 10
94.9825959307
 20
131.6466715372
 30
0.0
 10
85.240455242
 20
143.466516259
 30
0.0
  0
INSERT
  5
156
330
1F
100
AcDbEntity
  8
SLD-0
100
AcDbBlockReference
  2
SW_CENTERMARKSYMBOL_0
 10
111.6442305652
 20
111.9481961824
 30
0.0
  0
SPLINE
  5
157
330
1F
100
AcDbEntity
  8
0
  6
Continuous
 62
     7
370
    35
100
AcDbSpline
210
0.0
220
0.0
230
1.0
 70
     8
 71
     3
 72
    11
 73
     7
 74
     0
 42
0.00000001
 43
0.00000001
 40
0.0
 40
0.0
 40
0.0
 40
0.0
 40
0.1973142883249166
 40
0.5593959080625354
 40
0.9201062195723452
 40
1.0
 40
1.0
 40
1.0
 40
1.0
 10
249.8819591896393
 20
111.2342195164194
 30
0.0
 10
250.0816528377372
 20
111.2635213843137
 30
0.0
 10
250.6477943501453
 20
111.3465936500773
 30
0.0
 10
251.548138713468
 20
111.5646866960381
 30
0.0
 10
252.3159504165103
 20
111.7997013828406
 30
0.0
 10
252.7122570483422
 20
111.9798570351231
 30
0.0
 10
252.7841184668015
 20
112.0125242672021
 30
0.0
  0
LINE
  5
158
330
1F
100
AcDbEntity
  8
0
  6
Continuous
 62
     7
370
    35
100
AcDbLine
 10
254.0749799081
 20
112.6380400278
 30
0.0
 11
263.2673680635
 21
117.9446927546
 31
0.0
  0
SPLINE
  5
159
330
1F
100
AcDbEntity
  8
0
  6
Continuous
 62
     7
370
    35
100
AcDbSpline
210
0.0
220
0.0
230
1.0
 70
     8
 71
     3
 72
    38
 73
    34
 74
     0
 42
0.00000001
 43
0.00000001
 40
0.0
 40
0.0
 40
0.0
 40
0.0
 40
0.0035058401367637
 40
0.0363028516475352
 40
0.0691654526648108
 40
0.1021412541223576
 40
0.1352622360510569
 40
0.168542452754847
 40
0.2019791339846466
 40
0.2355564236212801
 40
0.2692504265996228
 40
0.303034174176378
 40
0.3368815216970993
 40
0.3707695906803186
 40
0.4046798659393261
 40
0.4385978824470607
 40
0.4725115382227049
 40
0.5064151441634639
 40
0.5403053913553058
 40
0.5741807326133551
 40
0.6080408840475905
 40
0.6418864432771862
 40
0.6757186076609107
 40
0.709538972530265
 40
0.743349390627245
 40
0.7771518769065305
 40
0.8109485461046545
 40
0.8447415733595555
 40
0.8785331704594839
 40
0.9123255669863878
 40
0.9461202695782467
 40
0.9799195360200136
 40
1.0
 40
1.0
 40
1.0
 40
1.0
 10
264.4285943238806
 20
118.7247366123754
 30
0.0
 10
264.4595769217335
 20
118.7463810703357
 30
0.0
 10
264.7804006357728
 20
118.9705086733269
 30
0.0
 10
265.3380663081307
 20
119.4789898734423
 30
0.0
 10
266.0939241677602
 20
120.253084500615
 30
0.0
 10
266.7824334277436
 20
121.1175787642651
 30
0.0
 10
267.4087508051646
 20
122.0588549675334
 30
0.0
 10
267.9686710777077
 20
123.0773412164858
 30
0.0
 10
268.4605461718052
 20
124.16911600692
 30
0.0
 10
268.8822121330164
 20
125.3307884459589
 30
0.0
 10
269.2319600231321
 20
126.5582021642298
 30
0.0
 10
269.5083809963306
 20
127.8468800228879
 30
0.0
 10
269.7104635436503
 20
129.1920338807051
 30
0.0
 10
269.8375745698876
 20
130.5886887567626
 30
0.0
 10
269.8894385119865
 20
132.0317438370552
 30
0.0
 10
269.8661037719874
 20
133.5159961998812
 30
0.0
 10
269.7679147139621
 20
135.0362074178578
 30
0.0
 10
269.5954785384882
 20
136.5871210609091
 30
0.0
 10
269.3496341096873
 20
138.1634918659369
 30
0.0
 10
269.0314403659452
 20
139.7600381639286
 30
0.0
 10
268.6421682947599
 20
141.3714444834346
 30
0.0
 10
268.1832955653026
 20
142.9923669233663
 30
0.0
 10
267.6565024318848
 20
144.6174413520339
 30
0.0
 10
267.0636681186692
 20
146.2412943900155
 30
0.0
 10
266.406866369467
 20
147.8585557859497
 30
0.0
 10
265.6883622603892
 20
149.4638751089007
 30
0.0
 10
264.9106007328028
 20
151.051929476784
 30
0.0
 10
264.076221510791
 20
152.6174696579043
 30
0.0
 10
263.1879706902096
 20
154.1552258822368
 30
0.0
 10
262.2489999151865
 20
155.6603273313414
 30
0.0
 10
261.2617274263033
 20
157.1267870252875
 30
0.0
 10
260.3714040558886
 20
158.3601892625541
 30
0.0
 10
259.803691116406
 20
159.0934419356662
 30
0.0
 10
259.5921098938754
 20
159.3667182452432
 30
0.0
  0
SPLINE
  5
15A
330
1F
100
AcDbEntity
  8
0
  6
Continuous
 62
     7
370
    35
100
AcDbSpline
210
0.0
220
0.0
230
1.0
 70
     8
 71
     3
 72
    14
 73
    10
 74
     0
 42
0.00000001
 43
0.00000001
 40
0.0
 40
0.0
 40
0.0
 40
0.0
 40
0.0910864022578339
 40
0.2647425706737267
 40
0.4384440765493908
 40
0.6121695239137792
 40
0.7859079278564832
 40
0.9505152649918618
 40
1.0
 40
1.0
 40
1.0
 40
1.0
 10
259.5921098938754
 20
159.3667182452431
 30
0.0
 10
259.4068693789443
 20
159.6055819397255
 30
0.0
 10
258.8684679392107
 20
160.299839116981
 30
0.0
 10
258.0060137237728
 20
161.4865558790551
 30
0.0
 10
257.0216314046771
 20
162.9373264963544
 30
0.0
 10
256.0832499442968
 20
164.4269973666354
 30
0.0
 10
255.2098160378436
 20
165.9229708781362
 30
0.0
 10
254.5847052988017
 20
167.0756155885858
 30
0.0
 10
254.2553753050728
 20
167.7181814474035
 30
0.0
 10
254.1792547495252
 20
167.8667025996839
 30
0.0
  0
SPLINE
  5
15B
330
1F
100
AcDbEntity
  8
0
  6
Continuous
 62
     7
370
    35
100
AcDbSpline
210
0.0
220
0.0
230
1.0
 70
     8
 71
     3
 72
    40
 73
    36
 74
     0
 42
0.00000001
 43
0.00000001
 40
0.0
 40
0.0
 40
0.0
 40
0.0
 40
0.0255464299602199
 40
0.0572716020518355
 40
0.0889766840342923
 40
0.1206739221194761
 40
0.1523702871655164
 40
0.1840709365017789
 40
0.2157795736190693
 40
0.2474980950594369
 40
0.2792271393565928
 40
0.3109664943288823
 40
0.3427153881248267
 40
0.3744726910335597
 40
0.4062370515035681
 40
0.4380069850392391
 40
0.4697809301536656
 40
0.5015572818796957
 40
0.5333344105725004
 40
0.5651103781746883
 40
0.5968832773992427
 40
0.6286514536587352
 40
0.6604132615962701
 40
0.6921670855749098
 40
0.7239113761153939
 40
0.7556447104210295
 40
0.7873658881903469
 40
0.8190740778133003
 40
0.8507690327261004
 40
0.8814493652022891
 40
0.898084269460264
 40
0.9297505298723363
 40
0.9614144792307106
 40
0.993079796462498
 40
1.0
 40
1.0
 40
1.0
 40
1.0
 10
252.6940197938938
 20
123.4326346968056
 30
0.0
 10
252.4099818694642
 20
123.5166591948133
 30
0.0
 10
251.7732076900234
 20
123.7050306275338
 30
0.0
 10
250.7624909603544
 20
124.1058045751666
 30
0.0
 10
249.6723675813517
 20
124.6126998017873
 30
0.0
 10
248.5752241398458
 20
125.2086274992612
 30
0.0
 10
247.4766216616006
 20
125.8877713485288
 30
0.0
 10
246.3811991801772
 20
126.6482901340723
 30
0.0
 10
245.2938640889108
 20
127.4867946504259
 30
0.0
 10
244.2194366756703
 20
128.39983905166
 30
0.0
 10
243.1627160039695
 20
129.3835322619224
 30
0.0
 10
242.1284241588839
 20
130.4336653806838
 30
0.0
 10
241.1211844933882
 20
131.5457060486717
 30
0.0
 10
240.1454947593937
 20
132.7148303291876
 30
0.0
 10
239.2057048649409
 20
133.9359455832796
 30
0.0
 10
238.3059959865935
 20
135.2037163832397
 30
0.0
 10
237.4503613885096
 20
136.5125900304892
 30
0.0
 10
236.6425884617556
 20
137.8568225141383
 30
0.0
 10
235.8862441602964
 20
139.230500438203
 30
0.0
 10
235.1846578037115
 20
140.6275676298321
 30
0.0
 10
234.5409032053559
 20
142.0418556632164
 30
0.0
 10
233.9577825446056
 20
143.4671158441639
 30
0.0
 10
233.4378138318061
 20
144.8970464766528
 30
0.0
 10
232.9832197300254
 20
146.3253173268024
 30
0.0
 10
232.5959155659511
 20
147.7455978661346
 30
0.0
 10
232.2774968532618
 20
149.1515888035036
 30
0.0
 10
232.0292325751916
 20
150.5370459933647
 30
0.0
 10
231.8520419173138
 20
151.8958389813634
 30
0.0
 10
231.7476513017637
 20
153.2079142962466
 30
0.0
 10
231.7186911424452
 20
154.2788025720769
 30
0.0
 10
231.7345182312926
 20
155.321756889381
 30
0.0
 10
231.7952011312039
 20
156.3493047304347
 30
0.0
 10
231.9441401546248
 20
157.5122829242651
 30
0.0
 10
232.0900952480846
 20
158.3449876877545
 30
0.0
 10
232.2071102056922
 20
158.7682208434725
 30
0.0
 10
232.2280965059269
 20
158.8441265076438
 30
0.0
  0
SPLINE
  5
15C
330
1F
100
AcDbEntity
  8
0
  6
Continuous
 62
     7
370
    35
100
AcDbSpline
210
0.0
220
0.0
230
1.0
 70
     8
 71
     3
 72
    11
 73
     7
 74
     0
 42
0.00000001
 43
0.00000001
 40
0.0
 40
0.0
 40
0.0
 40
0.0
 40
0.1524855955617052
 40
0.4269435742506565
 40
0.7062505616605822
 40
1.0
 40
1.0
 40
1.0
 40
1.0
 10
254.1792547495252
 20
167.8667025996839
 30
0.0
 10
254.134289849003
 20
167.9501700702207
 30
0.0
 10
254.0083928731341
 20
168.1838701785709
 30
0.0
 10
253.7495763204694
 20
168.5392977842793
 30
0.0
 10
253.3932212758715
 20
168.9142377879415
 30
0.0
 10
253.1150705849541
 20
169.0976141059936
 30
0.0
 10
252.972490193985
 20
169.191613035265
 30
0.0
  0
LINE
  5
15D
330
1F
100
AcDbEntity
  8
0
  6
Continuous
 62
     7
370
    35
100
AcDbLine
 10
233.1049684377
 20
169.0906892197
 30
0.0
 11
232.9269647864
 21
168.9671652681
 31
0.0
  0
LINE
  5
15E
330
1F
100
AcDbEntity
  8
0
  6
Continuous
 62
     7
370
    35
100
AcDbLine
 10
242.3147855382
 20
174.4082656523
 30
0.0
 11
233.1223973828
 21
169.1016129255
 31
0.0
  0
LINE
  5
15F
330
1F
100
AcDbEntity
  8
0
  6
Continuous
 62
     7
370
    35
100
AcDbLine
 10
252.972490194
 20
169.1916130353
 30
0.0
 11
244.0646433203
 21
174.3340035766
 31
0.0
  0
LINE
  5
160
330
1F
100
AcDbEntity
  8
0
  6
Continuous
 62
     7
370
    35
100
AcDbLine
 10
232.9269647864
 20
168.9671652681
 30
0.0
 11
232.7883969601
 21
168.8606232795
 31
0.0
  0
SPLINE
  5
161
330
1F
100
AcDbEntity
  8
0
  6
Continuous
 62
     7
370
    35
100
AcDbSpline
210
0.0
220
0.0
230
1.0
 70
     8
 71
     3
 72
    12
 73
     8
 74
     0
 42
0.00000001
 43
0.00000001
 40
0.0
 40
0.0
 40
0.0
 40
0.0
 40
0.1554762185312116
 40
0.3821600219244644
 40
0.5959145222977651
 40
0.8023113103790045
 40
1.0
 40
1.0
 40
1.0
 40
1.0
 10
244.0646433202896
 20
174.3340035765891
 30
0.0
 10
243.9792205280849
 20
174.3792998169806
 30
0.0
 10
243.7692515923197
 20
174.4906378234272
 30
0.0
 10
243.4179933116196
 20
174.5954955812613
 30
0.0
 10
243.0242120877094
 20
174.6253790542972
 30
0.0
 10
242.6459544659427
 20
174.5699995722519
 30
0.0
 10
242.4233059887622
 20
174.4602099234901
 30
0.0
 10
242.3143808030559
 20
174.4064980902387
 30
0.0
  0
SPLINE
  5
162
330
1F
100
AcDbEntity
  8
0
  6
Continuous
 62
     7
370
    35
100
AcDbSpline
210
0.0
220
0.0
230
1.0
 70
     8
 71
     3
 72
    10
 73
     6
 74
     0
 42
0.00000001
 43
0.00000001
 40
0.0
 40
0.0
 40
0.0
 40
0.0
 40
0.181364751690668
 40
0.5904443139098259
 40
1.0
 40
1.0
 40
1.0
 40
1.0
 10
239.5130492946185
 20
172.7908577464207
 30
0.0
 10
239.3775644817744
 20
172.7366107497861
 30
0.0
 10
238.9364851837343
 20
172.560006252986
 30
0.0
 10
238.1399373129373
 20
172.3519266598917
 30
0.0
 10
237.4550730909307
 20
172.2482692955558
 30
0.0
 10
237.1124418190647
 20
172.1964104694711
 30
0.0
  0
SPLINE
  5
163
330
1F
100
AcDbEntity
  8
0
  6
Continuous
 62
     7
370
    35
100
AcDbSpline
210
0.0
220
0.0
230
1.0
 70
     8
 71
     3
 72
    37
 73
    33
 74
     0
 42
0.00000001
 43
0.00000001
 40
0.0
 40
0.0
 40
0.0
 40
0.0
 40
0.0278907624339563
 40
0.0610283831269675
 40
0.0942745496540555
 40
0.1276638585733395
 40
0.1612129292097103
 40
0.1949210799485153
 40
0.2287738114365009
 40
0.2627478058191096
 40
0.2968160168933445
 40
0.3309517831350593
 40
0.3651314912286048
 40
0.3993358469640512
 40
0.4335501005568654
 40
0.4677609502223731
 40
0.5019622803148779
 40
0.5361504684829232
 40
0.5703237466734647
 40
0.6044816817579637
 40
0.6386247753790004
 40
0.6727541672954026
 40
0.7068714221415984
 40
0.7409783803254761
 40
0.7750770566456139
 40
0.809169573492443
 40
0.8432581184726142
 40
0.8773449186953631
 40
0.9114322257385127
 40
0.9455216492499666
 40
0.9796153694174765
 40
0.9999999999999999
 40
0.9999999999999999
 40
0.9999999999999999
 40
0.9999999999999999
 10
222.3088142251063
 20
164.6015245503945
 30
0.0
 10
222.0757856714956
 20
164.4135021399897
 30
0.0
 10
221.5658908314763
 20
164.002086219546
 30
0.0
 10
220.8505326263812
 20
163.2656882844536
 30
0.0
 10
220.1511107850733
 20
162.4158010101088
 30
0.0
 10
219.5167484900982
 20
161.4840345057914
 30
0.0
 10
218.9476298417524
 20
160.4759659507726
 30
0.0
 10
218.4464996103181
 20
159.3938143088876
 30
0.0
 10
218.0152579390959
 20
158.2413424309553
 30
0.0
 10
217.65573474993
 20
157.022526797522
 30
0.0
 10
217.3693676372312
 20
155.7418292488862
 30
0.0
 10
217.1572261376038
 20
154.4039962850279
 30
0.0
 10
217.0199921514497
 20
153.0139842250397
 30
0.0
 10
216.9579875708494
 20
151.5768745641318
 30
0.0
 10
216.9712065837237
 20
150.0978641223886
 30
0.0
 10
217.0593426784413
 20
148.5821874544536
 30
0.0
 10
217.2218214600546
 20
147.0351046476045
 30
0.0
 10
217.4578345384543
 20
145.4618559742638
 30
0.0
 10
217.7663520748052
 20
143.8677182977133
 30
0.0
 10
218.1461312894341
 20
142.2580027842761
 30
0.0
 10
218.5957220985242
 20
140.6380499228752
 30
0.0
 10
219.1134713233057
 20
139.0132217027396
 30
0.0
 10
219.6975263051348
 20
137.3888909552208
 30
0.0
 10
220.345839293405
 20
135.7704292289665
 30
0.0
 10
221.0561704952702
 20
134.1631903030777
 30
0.0
 10
221.8260995064176
 20
132.5725025195525
 30
0.0
 10
222.6530098884883
 20
131.0036229988808
 30
0.0
 10
223.5341788351907
 20
129.4618308645482
 30
0.0
 10
224.4664736639734
 20
127.9520099254754
 30
0.0
 10
225.4475078294581
 20
126.4801538490812
 30
0.0
 10
226.3340905454778
 20
125.2397265264061
 30
0.0
 10
226.9003554445797
 20
124.5012678917277
 30
0.0
 10
227.1122396264817
 20
124.2249525066041
 30
0.0
  0
LINE
  5
164
330
1F
100
AcDbEntity
  8
0
  6
Continuous
 62
     7
370
    35
100
AcDbLine
 10
232.7698467181
 20
170.7736733599
 30
0.0
 11
223.5774585627
 21
165.467020633
 31
0.0
  0
SPLINE
  5
165
330
1F
100
AcDbEntity
  8
0
  6
Continuous
 62
     7
370
    35
100
AcDbSpline
210
0.0
220
0.0
230
1.0
 70
     8
 71
     3
 72
    11
 73
     7
 74
     0
 42
0.00000001
 43
0.00000001
 40
0.0
 40
0.0
 40
0.0
 40
0.0
 40
0.1901617157286315
 40
0.5393909062195056
 40
0.8872778827234467
 40
1.0
 40
1.0
 40
1.0
 40
1.0
 10
237.1124418190648
 20
172.196410469471
 30
0.0
 10
236.9119496009694
 20
172.1694438660053
 30
0.0
 10
236.3432563769204
 20
172.0929534924024
 30
0.0
 10
235.4376300564546
 20
171.8866358872042
 30
0.0
 10
234.6310190417898
 20
171.647673181979
 30
0.0
 10
234.198905470786
 20
171.4566655398141
 30
0.0
 10
234.0931568929025
 20
171.4099213783731
 30
0.0
  0
SPLINE
  5
166
330
1F
100
AcDbEntity
  8
0
  6
Continuous
 62
     7
370
    35
100
AcDbSpline
210
0.0
220
0.0
230
1.0
 70
     8
 71
     3
 72
    11
 73
     7
 74
     0
 42
0.00000001
 43
0.00000001
 40
0.0
 40
0.0
 40
0.0
 40
0.0
 40
0.1873791684668619
 40
0.5829088823291099
 40
0.9461195793188978
 40
1.0
 40
1.0
 40
1.0
 40
1.0
 10
248.240529166174
 20
110.68797239401
 30
0.0
 10
248.331548805545
 20
110.7416887022985
 30
0.0
 10
248.6146974430901
 20
110.9087921934899
 30
0.0
 10
249.1286039746059
 20
111.0871110288705
 30
0.0
 10
249.5973308554226
 20
111.1947938552856
 30
0.0
 10
249.8493969366441
 20
111.2297091139119
 30
0.0
 10
249.8819591896393
 20
111.2342195164194
 30
0.0
  0
SPLINE
  5
167
330
1F
100
AcDbEntity
  8
0
  6
Continuous
 62
     7
370
    35
100
AcDbSpline
210
0.0
220
0.0
230
1.0
 70
     8
 71
     3
 72
    10
 73
     6
 74
     0
 42
0.00000001
 43
0.00000001
 40
0.0
 40
0.0
 40
0.0
 40
0.0
 40
0.2790825844919384
 40
0.8148974086401839
 40
1.0
 40
1.0
 40
1.0
 40
1.0
 10
254.7721119139605
 20
111.8419090087995
 30
0.0
 10
254.8036008711827
 20
111.9862314154474
 30
0.0
 10
254.8955459478987
 20
112.4076405671514
 30
0.0
 10
255.0352302159601
 20
112.8984256566638
 30
0.0
 10
255.1690134590311
 20
113.209556254378
 30
0.0
 10
255.2033636140423
 20
113.2894420757625
 30
0.0
  0
ARC
  5
168
330
1F
100
AcDbEntity
  8
0
  6
Continuous
 62
     7
370
    35
100
AcDbCircle
 10
244.5993806193
 20
106.7325563817
 30
0.0
 40
1.000000000000007
100
AcDbArc
 50
240.0026882664
 51
299.9973117337
  0
LINE
  5
169
330
1F
100
AcDbEntity
  8
0
  6
Continuous
 62
     7
370
    35
100
AcDbLine
 10
232.5530984852
 20
112.5320577729
 30
0.0
 11
244.099421253
 21
105.8665075193
 31
0.0
  0
LINE
  5
16A
330
1F
100
AcDbEntity
  8
0
  6
Continuous
 62
     7
370
    35
100
AcDbLine
 10
245.0993399856
 20
105.8665075193
 30
0.0
 11
254.291728141
 21
111.1731602461
 31
0.0
  0
SPLINE
  5
16B
330
1F
100
AcDbEntity
  8
0
  6
Continuous
 62
     7
370
    35
100
AcDbSpline
210
0.0
220
0.0
230
1.0
 70
     8
 71
     3
 72
    18
 73
    14
 74
     0
 42
0.00000001
 43
0.00000001
 40
0.0
 40
0.0
 40
0.0
 40
0.0
 40
0.0519455116573812
 40
0.151299942904909
 40
0.2507093671618428
 40
0.3501409473775728
 40
0.4495691498049295
 40
0.5489621000187671
 40
0.6482950116806917
 40
0.7475432423877335
 40
0.8466827664943308
 40
0.9456911233514546
 40
1.0
 40
1.0
 40
1.0
 40
1.0
 10
227.1122396264817
 20
124.2249525066041
 30
0.0
 10
227.241874917608
 20
124.0554359350105
 30
0.0
 10
227.6194592655156
 20
123.5616907242076
 30
0.0
 10
228.215818895516
 20
122.7078195981153
 30
0.0
 10
228.8826703359206
 20
121.6557259707336
 30
0.0
 10
229.5003740840713
 20
120.5707640055371
 30
0.0
 10
230.0650762423992
 20
119.4615982780527
 30
0.0
 10
230.5726632411761
 20
118.3359436102791
 30
0.0
 10
231.0195914201943
 20
117.2020210028032
 30
0.0
 10
231.4032024908576
 20
116.0678660785307
 30
0.0
 10
231.7198253013602
 20
114.9422405096521
 30
0.0
 10
231.9343395452827
 20
113.9980203669985
 30
0.0
 10
232.0316588296681
 20
113.4360109628685
 30
0.0
 10
232.0661318037126
 20
113.236932889867
 30
0.0
  0
ARC
  5
16C
330
1F
100
AcDbEntity
  8
0
  6
Continuous
 62
     7
370
    35
100
AcDbCircle
 10
253.7917687747
 20
112.0392091085
 30
0.0
 40
1.000000000000005
100
AcDbArc
 50
299.9973117337
 51
348.6208795607
  0
ARC
  5
16D
330
1F
100
AcDbEntity
  8
0
  6
Continuous
 62
     7
370
    35
100
AcDbCircle
 10
233.0530578515
 20
113.3981066353
 30
0.0
 40
1.000000000000008
100
AcDbArc
 50
189.275031159
 51
240.0026882664
  0
LINE
  5
16E
330
1F
100
AcDbEntity
  8
0
  6
Continuous
 62
     7
370
    35
100
AcDbLine
 10
225.71513555
 20
161.2741297631
 30
0.0
 11
225.2201608032
 21
160.9883869239
 31
0.0
  0
LINE
  5
16F
330
1F
100
AcDbEntity
  8
0
  6
Continuous
 62
     7
370
    35
100
AcDbLine
 10
251.0180641052
 20
116.3002656251
 30
0.0
 11
251.513038852
 21
116.5860084642
 31
0.0
  0
ARC
  5
170
330
1F
100
AcDbEntity
  8
0
  6
Continuous
 62
     7
370
    35
100
AcDbCircle
 10
250.0997451958
 20
105.6649709015
 30
0.0
 40
6.242394133603134
100
AcDbArc
 50
99.7425221475
 51
173.9365598674
  0
LINE
  5
171
330
1F
100
AcDbEntity
  8
0
  6
Continuous
 62
     7
370
    35
100
AcDbLine
 10
232.3459510703
 20
112.9899025794
 30
0.0
 11
243.8922738381
 21
106.3243523257
 31
0.0
  0
ARC
  5
172
330
1F
100
AcDbEntity
  8
0
  6
Continuous
 62
     7
370
    35
100
AcDbCircle
 10
206.7882678506
 20
108.3621589227
 30
0.0
 40
25.97327824733945
100
AcDbArc
 50
10.2633754097
 51
38.2168497942
  0
LWPOLYLINE
  5
173
330
1F
100
AcDbEntity
  8
0
  6
Continuous
 62
     7
370
    35
100
AcDbPolyline
 90
       33
 70
   128
 43
0.0
 10
227.3324493742
 20
165.488719786
 10
226.2132148242
 20
165.2964464838
 10
225.1426793782
 20
164.9951570944
 10
224.1252218844
 20
164.5860839921
 10
223.1650040841
 20
164.0709004228
 10
222.2659535895
 20
163.4517136596
 10
221.4317478179
 20
162.7310563836
 10
220.6657989497
 20
161.9118763239
 10
219.9712399723
 20
160.9975242012
 10
219.3509118641
 20
159.9917400214
 10
218.8073519745
 20
158.8986377783
 10
218.3427836455
 20
157.7226886257
 10
217.9591071168
 20
156.4687025891
 10
217.6578917538
 20
155.1418088908
 10
217.440369628
 20
153.74743497
 10
217.3074304779
 20
152.2912842823
 10
217.2596180689
 20
150.7793129712
 10
217.2971279697
 20
149.2177055051
 10
217.4198067524
 20
147.6128493811
 10
217.6271526198
 20
145.9713089974
 10
217.9183174577
 20
144.2997988034
 10
218.2921103047
 20
142.6051558348
 10
218.7470022229
 20
140.8943117485
 10
219.2811325523
 20
139.1742644688
 10
219.8923165211
 20
137.4520495647
 10
220.5780541825
 20
135.7347114711
 10
221.33554064
 20
134.0292746755
 10
222.1616775206
 20
132.3427149846
 10
223.0530856481
 20
130.681930992
 10
224.006118865
 20
129.0537158596
 10
225.0168789468
 20
127.464729532
 10
226.0812315466
 20
125.9214714949
 10
227.1948231061
 20
124.4302541898
  0
ARC
  5
174
330
1F
100
AcDbEntity
  8
0
  6
Continuous
 62
     7
370
    35
100
AcDbCircle
 10
226.1585031042
 20
176.0956092073
 30
0.0
 40
10.671656527497
100
AcDbArc
 50
276.315661562
 51
308.8299380645
  0
ARC
  5
175
330
1F
100
AcDbEntity
  8
0
  6
Continuous
 62
     7
370
    35
100
AcDbCircle
 10
233.2365539061
 20
167.1832047883
 30
0.0
 40
0.7130962439862679
100
AcDbArc
 50
53.0519878612
 51
122.8492682221
  0
LINE
  5
176
330
1F
100
AcDbEntity
  8
0
  6
Continuous
 62
     7
370
    35
100
AcDbLine
 10
242.5730358911
 20
162.6107073901
 30
0.0
 11
233.6651890174
 21
167.7530979314
 31
0.0
  0
ARC
  5
177
330
1F
100
AcDbEntity
  8
0
  6
Continuous
 62
     7
370
    35
100
AcDbCircle
 10
241.388381174
 20
160.7312546529
 30
0.0
 40
2.221654651431576
100
AcDbArc
 50
25.8060544358
 51
57.7759910857
  0
ARC
  5
178
330
1F
100
AcDbEntity
  8
0
  6
Continuous
 62
     7
370
    35
100
AcDbCircle
 10
290.7260338526
 20
185.7557267787
 30
0.0
 40
53.09989979383964
100
AcDbArc
 50
206.9400437236
 51
218.0403511254
  0
LWPOLYLINE
  5
179
330
1F
100
AcDbEntity
  8
0
  6
Continuous
 62
     7
370
    35
100
AcDbPolyline
 90
       33
 70
   128
 43
0.0
 10
249.0434018023
 20
111.817338182
 10
250.1569933618
 20
112.0228300398
 10
251.2213459616
 20
112.3372127226
 10
252.2321060434
 20
112.7592003
 10
253.1851392603
 20
113.2870667017
 10
254.0765473878
 20
113.9186527774
 10
254.9026842684
 20
114.6513751289
 10
255.6601707259
 20
115.4822366767
 10
256.3459083873
 20
116.407838919
 10
256.9570923561
 20
117.4243958331
 10
257.4912226855
 20
118.5277493611
 10
257.9461146037
 20
119.713386418
 10
258.3199074507
 20
120.9764573517
 10
258.6110722887
 20
122.3117957794
 10
258.818418156
 20
123.7139397204
 10
258.9410969387
 20
125.1771539369
 10
258.9786068396
 20
126.6954533932
 10
258.9307944305
 20
128.2626277367
 10
258.7978552804
 20
129.8722667001
 10
258.5803331546
 20
131.5177863216
 10
258.2791177916
 20
133.1924558754
 10
257.8954412629
 20
134.8894254029
 10
257.4308729339
 20
136.601753731
 10
256.8873130443
 20
138.3224368641
 10
256.2669849361
 20
140.0444366326
 10
255.5724259587
 20
141.7607094813
 10
254.8064770906
 20
143.4642352802
 10
253.9722713189
 20
145.148046039
 10
253.0732208243
 20
146.8052544083
 10
252.113003024
 20
148.4290818516
 10
251.0955455302
 20
150.0128863715
 10
250.0250100842
 20
151.5501896775
 10
248.9057755342
 20
153.034703685
  0
LWPOLYLINE
  5
17A
330
1F
100
AcDbEntity
  8
0
  6
Continuous
 62
     7
370
    35
100
AcDbPolyline
 90
       96
 70
   128
 43
0.0
 10
219.3807827528
 20
149.4617337562
 10
219.4217517268
 20
150.8681728445
 10
219.544479502
 20
152.2211601621
 10
219.748429421
 20
153.5147794395
 10
220.0327096627
 20
154.7433740088
 10
220.3960771419
 20
155.9015715385
 10
220.8369429452
 20
156.9843075257
 10
221.3533792785
 20
157.9868474411
 10
221.9431278971
 20
158.904807433
 10
222.6036099804
 20
159.7341734958
 10
223.3319374084
 20
160.4713190228
 10
224.1249253904
 20
161.1130206641
 10
224.9791063917
 20
161.6564724217
 10
225.8907452963
 20
162.0992979193
 10
226.8558557391
 20
162.4395607938
 10
227.8702175377
 20
162.6757731621
 10
228.9293951461
 20
162.8069021277
 10
230.0287570501
 20
162.8323742969
 10
231.1634960197
 20
162.7520782865
 10
232.3286501303
 20
162.5663652105
 10
233.5191244592
 20
162.2760471448
 10
234.7297133653
 20
161.8823935766
 10
235.9551232512
 20
161.3871258527
 10
237.1899957113
 20
160.7924096529
 10
238.4289309625
 20
160.1008455198
 10
239.6665114562
 20
159.3154574873
 10
240.8973255678
 20
158.4396798576
 10
242.1159912603
 20
157.4773421833
 10
243.3171796187
 20
156.4326525223
 10
244.495638152
 20
155.3101790366
 10
245.6462137609
 20
154.1148300172
 10
246.7638752709
 20
152.8518324213
 10
247.8437354327
 20
151.5267090158
 10
248.8810722925
 20
150.1452542284
 10
249.8713498402
 20
148.7135088094
 10
250.810237844
 20
147.237733417
 10
251.6936307856
 20
145.7243812418
 10
252.5176658124
 20
144.1800697876
 10
253.2787396289
 20
142.6115519355
 10
253.9735242529
 20
141.025686415
 10
254.5989815681
 20
139.4294078125
 10
255.1523766087
 20
137.8296962482
 10
255.6312895191
 20
136.2335468538
 10
256.033626135
 20
134.6479391843
 10
256.3576271406
 20
133.0798066988
 10
256.6018757621
 20
131.5360064415
 10
256.7653039624
 20
130.0232890583
 10
256.8471971114
 20
128.5482692773
 10
256.8471971114
 20
127.1173969847
 10
256.7653039624
 20
125.736929021
 10
256.6018757621
 20
124.4129018214
 10
256.3576271406
 20
123.1511050199
 10
256.033626135
 20
121.9570561329
 10
255.6312895191
 20
120.8359764324
 10
255.1523766087
 20
119.7927681146
 10
254.5989815681
 20
118.8319928641
 10
253.9735242529
 20
117.9578519066
 10
253.2787396289
 20
117.174167638
 10
252.5176658124
 20
116.4843669104
 10
251.6936307856
 20
115.8914660468
 10
250.810237844
 20
115.3980576518
 10
249.8713498402
 20
115.0062992747
 10
248.8810722925
 20
114.7179039753
 10
247.8437354327
 20
114.5341328328
 10
246.7638752709
 20
114.4557894317
 10
245.6462137609
 20
114.4832163478
 10
244.495638152
 20
114.6162936501
 10
243.3171796187
 20
114.8544394254
 10
242.1159912603
 20
115.1966123228
 10
240.8973255678
 20
115.6413161074
 10
239.6665114562
 20
116.1866062026
 10
238.4289309625
 20
116.8300981936
 10
237.1899957113
 20
117.5689782536
 10
235.9551232512
 20
118.4000154482
 10
234.7297133653
 20
119.3195758631
 10
233.5191244592
 20
120.3236384946
 10
232.3286501303
 20
121.4078128323
 10
231.1634960197
 20
122.5673580577
 10
230.0287570501
 20
123.7972037745
 10
228.9293951461
 20
125.0919721803
 10
227.8702175377
 20
126.4460015824
 10
226.8558557391
 20
127.8533711546
 10
225.8907452963
 20
129.3079268279
 10
224.9791063917
 20
130.8033082005
 10
224.1249253904
 20
132.3329763501
 10
223.3319374084
 20
133.890242427
 10
222.6036099804
 20
135.468296903
 10
221.9431278971
 20
137.0602393474
 10
221.3533792785
 20
138.6591086008
 10
220.8369429452
 20
140.2579132148
 10
220.3960771419
 20
141.8496620238
 10
220.0327096627
 20
143.427394715
 10
219.748429421
 20
144.984212265
 10
219.544479502
 20
146.5133071066
 10
219.4217517268
 20
148.0079928972
 10
219.3807827528
 20
149.4617337562
  0
ARC
  5
17B
330
1F
100
AcDbEntity
  8
0
  6
Continuous
 62
     7
370
    35
100
AcDbCircle
 10
252.0374935719
 20
150.3754274338
 30
0.0
 40
4.108455676687352
100
AcDbArc
 50
120.0762592204
 51
139.6639841167
  0
ARC
  5
17C
330
1F
100
AcDbEntity
  8
0
  6
Continuous
 62
     7
370
    35
100
AcDbCircle
 10
248.9687551085
 20
121.4833578279
 30
0.0
 40
10.21325106950296
100
AcDbArc
 50
292.4361127958
 51
307.9606080462
  0
LINE
  5
17D
330
1F
100
AcDbEntity
  8
0
  6
Continuous
 62
     7
370
    35
100
AcDbLine
 10
259.1709200668
 20
159.2373698715
 30
0.0
 11
249.9785319113
 21
153.9307171446
 31
0.0
  0
LWPOLYLINE
  5
17E
330
1F
100
AcDbEntity
  8
0
  6
Continuous
 62
     7
370
    35
100
AcDbPolyline
 90
        3
 70
   128
 43
0.0
 10
263.2673680635
 20
117.9446927546
 10
263.4792274392
 20
118.0704426847
 10
264.3602331106
 20
118.6732771231
  0
ARC
  5
17F
330
1F
100
AcDbEntity
  8
0
  6
Continuous
 62
     7
370
    35
100
AcDbCircle
 10
239.331706593
 20
171.5050178213
 30
0.0
 40
10.6125939217353
100
AcDbArc
 50
292.4737405217
 51
300.0075222238
  0
ARC
  5
180
330
1F
100
AcDbEntity
  8
0
  6
Continuous
 62
     7
370
    35
100
AcDbCircle
 10
290.4497496388
 20
185.5962233643
 30
0.0
 40
51.38699980048636
100
AcDbArc
 50
206.9400437236
 51
218.0403511254
  0
LINE
  5
181
330
1F
100
AcDbEntity
  8
0
  6
Continuous
 62
     7
370
    35
100
AcDbLine
 10
253.8315982982
 20
167.6215913419
 30
0.0
 11
244.6392101428
 21
162.314938615
 31
0.0
  0
ARC
  5
182
330
1F
100
AcDbEntity
  8
0
  6
Continuous
 62
     7
370
    35
100
AcDbCircle
 10
299.6421377942
 20
190.9028760912
 30
0.0
 40
51.38699980048509
100
AcDbArc
 50
206.9400437236
 51
218.0403511254
  0
ARC
  5
183
330
1F
100
AcDbEntity
  8
0
  6
Continuous
 62
     7
370
    35
100
AcDbCircle
 10
241.3057181438
 20
160.7030310292
 30
0.0
 40
3.702757752385521
100
AcDbArc
 50
25.8060544358
 51
57.7759910857
  0
ARC
  5
184
330
1F
100
AcDbEntity
  8
0
  6
Continuous
 62
     7
370
    35
100
AcDbCircle
 10
244.1082519924
 20
162.5408465379
 30
0.0
 40
1.536804807572026
100
AcDbArc
 50
122.60547834
 51
177.3945215143
  0
LINE
  5
185
330
1F
100
AcDbEntity
  8
0
  6
Continuous
 62
     7
370
    35
100
AcDbLine
 10
252.4725308277
 20
169.1421049848
 30
0.0
 11
243.2801426722
 21
163.8354522579
 31
0.0
  0
ARC
  5
186
330
1F
100
AcDbEntity
  8
0
  6
Continuous
 62
     7
370
    35
100
AcDbCircle
 10
250.4981062992
 20
166.009683756
 30
0.0
 40
3.702757752385667
100
AcDbArc
 50
25.8060544358
 51
57.7759910857
  0
LINE
  5
187
330
1F
100
AcDbEntity
  8
0
  6
Continuous
 62
     7
370
    35
100
AcDbLine
 10
234.3722957985
 20
168.9778427992
 30
0.0
 11
243.2801426722
 21
163.8354522579
 31
0.0
  0
ARC
  5
188
330
1F
100
AcDbEntity
  8
0
  6
Continuous
 62
     7
370
    35
100
AcDbCircle
 10
235.2004051187
 20
167.6832370792
 30
0.0
 40
1.536804807572016
100
AcDbArc
 50
122.60547834
 51
177.3945215143
  0
LINE
  5
189
330
1F
100
AcDbEntity
  8
0
  6
Continuous
 62
     7
370
    35
100
AcDbLine
 10
243.564683954
 20
174.2844955261
 30
0.0
 11
234.3722957985
 21
168.9778427992
 31
0.0
  0
LINE
  5
18A
330
1F
100
AcDbEntity
  8
0
  6
Continuous
 62
     7
370
    35
100
AcDbLine
 10
252.4725308277
 20
169.1421049848
 30
0.0
 11
243.564683954
 21
174.2844955261
 31
0.0
  0
LWPOLYLINE
  5
18B
330
1F
100
AcDbEntity
  8
0
  6
Continuous
 62
     7
370
    35
100
AcDbPolyline
 90
       24
 70
   128
 43
0.0
 10
244.5891395021
 20
169.7335105843
 10
244.2310951715
 20
169.8902520415
 10
243.8130746069
 20
169.9854155666
 10
243.3660804813
 20
170.0119433163
 10
242.9232643042
 20
169.9678678488
 10
242.5174677255
 20
169.8564580399
 10
242.1787868213
 20
169.6859766454
 10
241.9323400048
 20
169.4690674904
 10
241.7964051089
 20
169.2218177348
 10
241.781063803
 20
168.9625647617
 10
241.8874538816
 20
168.7105361781
 10
242.1076848793
 20
168.4844237913
 10
242.4254232704
 20
168.3009973224
 10
242.8171038521
 20
168.1738606736
 10
243.2536774674
 20
168.1124429886
 10
243.7027654484
 20
168.121299336
 10
244.1310609941
 20
168.199772881
 10
244.5067993832
 20
168.3420435999
 10
244.8021138181
 20
168.5375599242
 10
244.9951021784
 20
168.7718213026
 10
245.0714514
 20
169.0274536404
 10
245.0254990106
 20
169.2854978565
 10
244.8606530887
 20
169.5268159918
 10
244.5891395021
 20
169.7335105843
  0
ARC
  5
18C
330
1F
100
AcDbEntity
  8
0
  6
Continuous
 62
     7
370
    35
100
AcDbCircle
 10
226.6849077513
 20
176.817984548
 30
0.0
 40
10.03758935867894
100
AcDbArc
 50
292.6754634636
 51
308.0159872384
  0
ARC
  5
18D
330
1F
100
AcDbEntity
  8
0
  6
Continuous
 62
     7
370
    35
100
AcDbCircle
 10
228.3061515839
 20
165.9398123358
 30
0.0
 40
1.073117179809361
100
AcDbArc
 50
126.0979047037
 51
204.8571420588
  0
LINE
  5
18E
330
1F
100
AcDbEntity
  8
0
  6
Continuous
 62
     7
370
    35
100
AcDbLine
 10
236.8662947149
 20
172.1135560098
 30
0.0
 11
227.6739065595
 21
166.8069032829
 31
0.0
  0
ARC
  5
18F
330
1F
100
AcDbEntity
  8
0
  6
Continuous
 62
     7
370
    35
100
AcDbCircle
 10
228.6837527945
 20
156.6215717676
 30
0.0
 40
10.21340371350356
100
AcDbArc
 50
112.2934446037
 51
128.0920634626
  0
LWPOLYLINE
  5
190
330
1F
100
AcDbEntity
  8
0
  6
Continuous
 62
     7
370
    35
100
AcDbPolyline
 90
        3
 70
   128
 43
0.0
 10
234.0076235509
 20
171.3806430759
 10
233.6435967625
 20
171.2233340842
 10
232.7698467181
 20
170.7736733599
  0
LINE
  5
191
330
1F
100
AcDbEntity
  8
0
  6
Continuous
 62
     7
370
    35
100
AcDbLine
 10
248.2431749231
 20
110.7040480424
 30
0.0
 11
248.1761563792
 21
110.6660443438
 31
0.0
  0
ARC
  5
192
330
1F
100
AcDbEntity
  8
0
  6
Continuous
 62
     7
370
    35
100
AcDbCircle
 10
244.716811012
 20
107.352097254
 30
0.0
 40
1.317619515912796
100
AcDbArc
 50
231.2606939376
 51
295.865753288
  0
LINE
  5
193
330
1F
100
AcDbEntity
  8
0
  6
Continuous
 62
     7
370
    35
100
AcDbLine
 10
254.4840291656
 20
111.4731312977
 30
0.0
 11
245.2916410102
 21
106.1664785708
 31
0.0
  0
LWPOLYLINE
  5
194
330
1F
100
AcDbEntity
  8
0
  6
Continuous
 62
     7
370
    35
100
AcDbPolyline
 90
       88
 70
   128
 43
0.0
 10
253.8522383356
 20
129.5617860305
 10
253.8112257189
 20
130.8964266034
 10
253.6884016897
 20
132.2714611376
 10
253.4844065956
 20
133.6797208398
 10
253.2003039724
 20
135.1138636959
 10
252.8375749999
 20
136.5664127492
 10
252.3981107788
 20
138.0297950814
 10
251.8842024721
 20
139.4963812947
 10
251.2985293598
 20
140.9585252877
 10
250.6441448703
 20
142.4086041186
 10
249.9244606613
 20
143.8390577479
 10
249.143228833
 20
145.2424284525
 10
248.3045223666
 20
146.6113997076
 10
247.412713889
 20
147.9388343308
 10
246.4724528769
 20
149.2178116927
 10
245.4886414156
 20
150.4416637975
 10
244.4664086428
 20
151.6040100471
 10
243.4110840066
 20
152.6987905063
 10
242.3281694811
 20
153.7202974967
 10
241.2233108813
 20
154.6632053539
 10
240.1022684282
 20
155.5225981929
 10
238.9708867181
 20
156.2939955373
 10
237.8350642514
 20
156.9733756786
 10
236.7007226805
 20
157.5571966434
 10
235.5737759371
 20
158.0424146594
 10
234.4600993997
 20
158.4265000245
 10
233.3654992622
 20
158.7074502956
 10
232.2956822627
 20
158.883800728
 10
231.2562259318
 20
158.9546319121
 10
230.2525495135
 20
158.9195745671
 10
229.2898857118
 20
158.7788114657
 10
228.3732534102
 20
158.5330764814
 10
227.5074315049
 20
158.1836507628
 10
226.6969339905
 20
157.7323560537
 10
225.9459864257
 20
157.1815451958
 10
225.2585039034
 20
156.5340898618
 10
224.6380706392
 20
155.7933655841
 10
224.0879212848
 20
154.9632341561
 10
223.6109240642
 20
154.0480234986
 10
223.2095658201
 20
153.0525050962
 10
222.8859390484
 20
151.9818691209
 10
222.6417309894
 20
150.8416973731
 10
222.4782148308
 20
149.6379341801
 10
222.3962430701
 20
148.3768554059
 10
222.3962430701
 20
147.0650357314
 10
222.4782148308
 20
145.7093143768
 10
222.6417309894
 20
144.3167594457
 10
222.8859390484
 20
142.8946310745
 10
223.2095658201
 20
141.4503435821
 10
223.6109240642
 20
139.9914268148
 10
224.0879212848
 20
138.525486889
 10
224.6380706392
 20
137.0601665367
 10
225.2585039034
 20
135.6031052598
 10
225.9459864257
 20
134.1618995011
 10
226.6969339905
 20
132.74406304
 10
227.5074315049
 20
131.3569878194
 10
228.3732534102
 20
130.0079054072
 10
229.2898857118
 20
128.7038492945
 10
230.2525495135
 20
127.4516182259
 10
231.2562259318
 20
126.2577407545
 10
232.2956822627
 20
125.1284412045
 10
233.3654992622
 20
124.0696072209
 10
234.4600993997
 20
123.0867590739
 10
235.5737759371
 20
122.1850208785
 10
236.7007226805
 20
121.3690938803
 10
237.8350642514
 20
120.6432319446
 10
238.9708867181
 20
120.0112193797
 10
240.1022684282
 20
119.4763512063
 10
241.2233108813
 20
119.0414159795
 10
242.3281694811
 20
118.70868125
 10
243.4110840066
 20
118.4798817429
 10
244.4664086428
 20
118.3562103126
 10
245.4886414156
 20
118.3383117249
 10
246.4724528769
 20
118.4262792946
 10
247.412713889
 20
118.6196543995
 10
248.3045223666
 20
118.9174288715
 10
249.143228833
 20
119.3180502523
 10
249.9244606613
 20
119.8194298875
 10
250.6441448703
 20
120.4189538158
 10
251.2985293598
 20
121.1134963972
 10
251.8842024721
 20
121.8994366081
 10
252.3981107788
 20
122.7726769203
 10
252.8375749999
 20
123.7286646631
 10
253.2003039724
 20
124.762415759
 10
253.4844065956
 20
125.8685407085
 10
253.6884016897
 20
127.0412726883
 10
253.8112257189
 20
128.2744976169
 10
253.8522383356
 20
129.5617860305
  0
LWPOLYLINE
  5
195
330
1F
100
AcDbEntity
  8
0
  6
Continuous
 62
     7
370
    35
100
AcDbPolyline
 90
       95
 70
   128
 43
0.0
 10
256.3624674088
 20
128.112661632
 10
256.3217277829
 20
129.5432840312
 10
256.1996908581
 20
131.0145538944
 10
255.9969016811
 20
132.5199001732
 10
255.7142659575
 20
134.0525996257
 10
255.3530460071
 20
135.605806844
 10
254.9148551258
 20
137.1725848277
 10
254.4016503805
 20
138.7459359661
 10
253.8157238682
 20
140.3188332908
 10
253.1596924789
 20
141.8842518608
 10
252.436486208
 20
143.4352001365
 10
251.6493350704
 20
144.9647512066
 10
250.801754674
 20
146.4660737247
 10
249.8975305188
 20
147.9324624198
 10
248.9407010892
 20
149.3573680443
 10
247.9355398178
 20
150.7344266235
 10
246.8865359988
 20
152.0574878797
 10
245.7983747379
 20
153.3206427
 10
244.6759160275
 20
154.5182495285
 10
243.5241730407
 20
155.6449595622
 10
242.3482897412
 20
156.6957406408
 10
241.1535179092
 20
157.6658997207
 10
239.9451936859
 20
158.551103836
 10
238.7287137406
 20
159.3473994503
 10
237.5095111679
 20
160.0512301141
 10
236.2930312225
 20
160.6594523487
 10
235.0847069992
 20
161.169349686
 10
233.8899351672
 20
161.5786448007
 10
232.7140518677
 20
161.8855096815
 10
231.5623088809
 20
162.0885737954
 10
230.4398501705
 20
162.1869302086
 10
229.3516889096
 20
162.1801396376
 10
228.3026850906
 20
162.0682324107
 10
227.2975238192
 20
161.8517083327
 10
226.3406943896
 20
161.5315344528
 10
225.4364702344
 20
161.1091407452
 10
224.588889838
 20
160.5864137228
 10
223.8017387004
 20
159.9656880113
 10
223.0785324296
 20
159.2497359225
 10
222.4225010403
 20
158.4417550721
 10
221.8365745279
 20
157.5453540989
 10
221.3233697826
 20
156.564536547
 10
220.8851789014
 20
155.5036829859
 10
220.5239589509
 20
154.3675314451
 10
220.2413232273
 20
153.1611562531
 10
220.0385340503
 20
151.8899453744
 10
219.9164971255
 20
150.5595763453
 10
219.8757574996
 20
149.175990917
 10
219.9164971255
 20
147.7453685178
 10
220.0385340503
 20
146.2740986546
 10
220.2413232273
 20
144.7687523758
 10
220.5239589509
 20
143.2360529234
 10
220.8851789014
 20
141.682845705
 10
221.3233697826
 20
140.1160677213
 10
221.8365745279
 20
138.5427165829
 10
222.4225010403
 20
136.9698192582
 10
223.0785324296
 20
135.4044006882
 10
223.8017387004
 20
133.8534524125
 10
224.588889838
 20
132.3239013424
 10
225.4364702344
 20
130.8225788243
 10
226.3406943896
 20
129.3561901292
 10
227.2975238192
 20
127.9312845047
 10
228.3026850906
 20
126.5542259255
 10
229.3516889096
 20
125.2311646693
 10
230.4398501705
 20
123.968009849
 10
231.5623088809
 20
122.7704030205
 10
232.7140518677
 20
121.6436929868
 10
233.8899351672
 20
120.5929119082
 10
235.0847069992
 20
119.6227528283
 10
236.2930312225
 20
118.737548713
 10
237.5095111679
 20
117.9412530987
 10
238.7287137406
 20
117.2374224349
 10
239.9451936859
 20
116.6292002003
 10
241.1535179092
 20
116.119302863
 10
242.3482897412
 20
115.7100077483
 10
243.5241730407
 20
115.4031428675
 10
244.6759160275
 20
115.2000787536
 10
245.7983747379
 20
115.1017223404
 10
246.8865359988
 20
115.1085129114
 10
247.9355398178
 20
115.2204201383
 10
248.9407010892
 20
115.4369442163
 10
249.8975305188
 20
115.7571180962
 10
250.801754674
 20
116.1795118038
 10
251.6493350704
 20
116.7022388262
 10
252.436486208
 20
117.3229645377
 10
253.1596924789
 20
118.0389166265
 10
253.8157238682
 20
118.8468974769
 10
254.4016503805
 20
119.7432984501
 10
254.9148551258
 20
120.724116002
 10
255.3530460071
 20
121.7849695631
 10
255.7142659575
 20
122.9211211039
 10
255.9969016811
 20
124.1274962959
 10
256.1996908581
 20
125.3987071746
 10
256.3217277829
 20
126.7290762037
 10
256.3624674088
 20
128.112661632
  0
LWPOLYLINE
  5
196
330
1F
100
AcDbEntity
  8
0
  6
Continuous
 62
     7
370
    35
100
AcDbPolyline
 90
       17
 70
   128
 43
0.0
 10
255.266451898
 20
128.7453779187
 10
255.2260829239
 20
129.0030399117
 10
255.1111218121
 20
129.2680842275
 10
254.9390703496
 20
129.5001602713
 10
254.7361218121
 20
129.6639365695
 10
254.5331732745
 20
129.7344796652
 10
254.3611218121
 20
129.7010500115
 10
254.2461607003
 20
129.5687369703
 10
254.2057917262
 20
129.3576840025
 10
254.2461607003
 20
129.1000220094
 10
254.3611218121
 20
128.8349776937
 10
254.5331732745
 20
128.6029016498
 10
254.7361218121
 20
128.4391253517
 10
254.9390703496
 20
128.368582256
 10
255.1111218121
 20
128.4020119097
 10
255.2260829239
 20
128.5343249509
 10
255.266451898
 20
128.7453779187
  0
LWPOLYLINE
  5
197
330
1F
100
AcDbEntity
  8
0
  6
Continuous
 62
     7
370
    35
100
AcDbPolyline
 90
       17
 70
   128
 43
0.0
 10
220.9717730104
 20
148.5432746304
 10
221.0121419845
 20
148.2856126373
 10
221.1271030963
 20
148.0205683215
 10
221.2991545588
 20
147.7884922777
 10
221.5021030963
 20
147.6247159795
 10
221.7050516339
 20
147.5541728838
 10
221.8771030963
 20
147.5876025375
 10
221.9920642082
 20
147.7199155787
 10
222.0324331822
 20
147.9309685465
 10
221.9920642082
 20
148.1886305396
 10
221.8771030963
 20
148.4536748553
 10
221.7050516339
 20
148.6857508992
 10
221.5021030963
 20
148.8495271973
 10
221.2991545588
 20
148.920070293
 10
221.1271030963
 20
148.8866406393
 10
221.0121419845
 20
148.7543275981
 10
220.9717730104
 20
148.5432746304
  0
LWPOLYLINE
  5
198
330
1F
100
AcDbEntity
  8
0
  6
Continuous
 62
     7
370
    35
100
AcDbPolyline
 90
       42
 70
   128
 43
0.0
 10
228.3014709739
 20
158.5087156975
 10
227.7333776375
 20
157.9628040575
 10
227.1129443733
 20
157.2220797798
 10
226.5627950189
 20
156.3919483518
 10
226.0857977984
 20
155.4767376943
 10
225.6844395542
 20
154.4812192919
 10
225.3608127826
 20
153.4105833166
 10
225.1166047236
 20
152.2704115688
 10
224.953088565
 20
151.0666483758
 10
224.8711168043
 20
149.8055696016
 10
224.8711168043
 20
148.4937499271
 10
224.953088565
 20
147.1380285725
 10
225.1166047236
 20
145.7454736414
 10
225.3608127826
 20
144.3233452702
 10
225.6844395542
 20
142.8790577778
 10
226.0857977984
 20
141.4201410105
 10
226.5627950189
 20
139.9542010847
 10
227.1129443733
 20
138.4888807324
 10
227.7333776375
 20
137.0318194555
 10
228.4208601598
 20
135.5906136968
 10
229.1718077246
 20
134.1727772357
 10
229.982305239
 20
132.7857020151
 10
230.8481271443
 20
131.4366196029
 10
231.764759446
 20
130.1325634902
 10
232.7274232477
 20
128.8803324216
 10
233.731099666
 20
127.6864549501
 10
234.7705559969
 20
126.5571554002
 10
235.8403729963
 20
125.4983214166
 10
236.9349731339
 20
124.5154732696
 10
238.0486496713
 20
123.6137350742
 10
239.1755964146
 20
122.7978080759
 10
240.3099379855
 20
122.0719461403
 10
241.4457604522
 20
121.4399335754
 10
242.5771421623
 20
120.905065402
 10
243.6981846154
 20
120.4701301751
 10
244.8030432153
 20
120.1373954457
 10
245.8859577408
 20
119.9085959386
 10
246.9412823769
 20
119.7849245083
 10
247.9635151498
 20
119.7670259206
 10
248.947326611
 20
119.8549934902
 10
249.8875876232
 20
120.0483685952
 10
250.4116276687
 20
120.2086510471
  0
LWPOLYLINE
  5
199
330
1F
100
AcDbEntity
  8
0
  6
Continuous
 62
     7
370
    35
100
AcDbPolyline
 90
       32
 70
   128
 43
0.0
 10
230.1896206551
 20
158.9137234329
 10
230.0094527443
 20
158.1250182433
 10
229.8024230444
 20
156.8713084584
 10
229.6770287466
 20
155.5573581333
 10
229.633854497
 20
154.189293511
 10
229.673101594
 20
152.7734931403
 10
229.7945870494
 20
151.316558136
 10
229.9977444419
 20
149.8252814017
 10
230.281626558
 20
148.3066159579
 10
230.6449098083
 20
146.767642524
 10
231.0859003986
 20
145.2155365045
 10
231.602542227
 20
143.6575345341
 10
232.192426471
 20
142.1009007374
 10
232.8528028179
 20
140.5528928595
 10
233.5805922882
 20
139.0207284279
 10
234.3724015917
 20
137.5115511003
 10
235.2245389476
 20
136.0323973582
 10
236.1330312985
 20
134.590163699
 10
237.0936428334
 20
133.1915744819
 10
238.101894738
 20
131.8431505755
 10
239.1530860766
 20
130.5511789543
 10
240.2423157098
 20
129.3216833866
 10
241.3645051462
 20
128.1603963482
 10
242.5144222208
 20
127.0727322953
 10
243.6867054892
 20
126.06376242
 10
244.8758892257
 20
125.1381910054
 10
246.0764289069
 20
124.3003334927
 10
247.2827270624
 20
123.5540963606
 10
248.4891593735
 20
122.9029589109
 10
249.6901008959
 20
122.349957047
 10
250.8799522857
 20
121.8976691189
 10
251.7065839313
 20
121.6412112595
  0
LWPOLYLINE
  5
19A
330
1F
100
AcDbEntity
  8
0
  6
Continuous
 62
     7
370
    35
100
AcDbPolyline
 90
       33
 70
   128
 43
0.0
 10
231.0536711075
 20
158.9560974794
 10
230.8965694475
 20
158.4006529903
 10
230.6361159958
 20
157.2166354463
 10
230.4569033418
 20
155.9679889577
 10
230.3598045914
 20
154.6607968044
 10
230.3452928001
 20
153.3014274954
 10
230.4134386678
 20
151.8965037412
 10
230.5639101947
 20
150.4528701891
 10
230.7959742986
 20
148.9775600767
 10
231.1085003865
 20
147.4777609667
 10
231.4999658629
 20
145.9607797294
 10
231.9684635471
 20
144.4340069449
 10
232.5117109657
 20
142.9048808969
 10
233.1270614717
 20
141.3808513337
 10
233.8115171394
 20
139.8693431742
 10
234.5617433695
 20
138.3777203341
 10
235.3740851353
 20
136.91324985
 10
236.2445847894
 20
135.4830664749
 10
237.1690013449
 20
134.0941379184
 10
238.1428311373
 20
132.7532309009
 10
239.1613297657
 20
131.4668781866
 10
240.2195352072
 20
130.2413467565
 10
241.3122919913
 20
129.0826072766
 10
242.4342763167
 20
127.9963050092
 10
243.5800219887
 20
126.9877323098
 10
244.7439470493
 20
126.0618028431
 10
245.9203809729
 20
125.2230276444
 10
247.1035922915
 20
124.4754931422
 10
248.2878165185
 20
123.8228412494
 10
249.4672842325
 20
123.2682516205
 10
250.6362491854
 20
122.8144261604
 10
251.7890162975
 20
122.463575861
 10
252.1753743862
 20
122.3682698909
  0
LWPOLYLINE
  5
19B
330
1F
100
AcDbEntity
  8
0
  6
Continuous
 62
     7
370
    35
100
AcDbPolyline
 90
       32
 70
   128
 43
0.0
 10
231.6387954382
 20
158.9406554813
 10
231.6036762287
 20
158.8088570462
 10
231.343222777
 20
157.6248395023
 10
231.164010123
 20
156.3761930136
 10
231.0669113726
 20
155.0690008603
 10
231.0523995813
 20
153.7096315513
 10
231.120545449
 20
152.3047077971
 10
231.2710169759
 20
150.861074245
 10
231.5030810798
 20
149.3857641327
 10
231.8156071677
 20
147.8859650226
 10
232.2070726441
 20
146.3689837853
 10
232.6755703283
 20
144.8422110008
 10
233.2188177469
 20
143.3130849528
 10
233.8341682529
 20
141.7890553896
 10
234.5186239206
 20
140.2775472301
 10
235.2688501507
 20
138.78592439
 10
236.0811919165
 20
137.3214539059
 10
236.9516915706
 20
135.8912705308
 10
237.8761081261
 20
134.5023419744
 10
238.8499379184
 20
133.1614349568
 10
239.8684365469
 20
131.8750822425
 10
240.9266419884
 20
130.6495508124
 10
242.0193987725
 20
129.4908113325
 10
243.1413830979
 20
128.4045090652
 10
244.2871287698
 20
127.3959363657
 10
245.4510538305
 20
126.470006899
 10
246.6274877541
 20
125.6312317003
 10
247.8106990726
 20
124.8836971981
 10
248.9949232997
 20
124.2310453053
 10
250.1743910137
 20
123.6764556764
 10
251.3433559666
 20
123.2226302163
 10
252.4546116632
 20
122.8826972238
  0
LWPOLYLINE
  5
19C
330
1F
100
AcDbEntity
  8
0
  6
Continuous
 62
     7
370
    35
100
AcDbPolyline
 90
       29
 70
   128
 43
0.0
 10
249.9785319113
 20
153.9307171446
 10
251.1013570849
 20
152.4432249768
 10
252.1769687666
 20
150.9042285847
 10
253.2012298637
 20
149.3196473637
 10
254.1702007918
 20
147.6955760406
 10
255.0801546273
 20
146.038261232
 10
255.9275914421
 20
144.3540774177
 10
256.7092517657
 20
142.649502423
 10
257.4221291217
 20
140.9310925032
 10
258.0634815912
 20
139.2054571265
 10
258.6308423598
 20
137.4792335521
 10
259.1220292049
 20
135.7590613015
 10
259.5351528893
 20
134.0515566214
 10
259.8686244278
 20
132.3632870353
 10
260.1211611991
 20
130.7007460836
 10
260.2917918784
 20
129.0703283474
 10
260.3798601743
 20
127.478304853
 10
260.3850273522
 20
125.9307989523
 10
260.3072735379
 20
124.4337627707
 10
260.1468977934
 20
122.9929543129
 10
259.9045169672
 20
121.6139153172
 10
259.5810633212
 20
120.3019499396
 10
259.1777809456
 20
119.0621043527
 10
258.696220973
 20
117.8991473373
 10
258.1382356131
 20
116.8175519398
 10
257.505971028
 20
115.8214782679
 10
256.8018590781
 20
114.9147574896
 10
256.0286079677
 20
114.1008770978
 10
255.2511255847
 20
113.4308850022
  0
ARC
  5
19D
330
1F
100
AcDbEntity
  8
0
  6
Continuous
 62
     7
370
    35
100
AcDbCircle
 10
249.8257466663
 20
112.0478632501
 30
0.0
 40
0.8156011852203492
100
AcDbArc
 50
196.4180914618
 51
273.9320559349
  0
LWPOLYLINE
  5
19E
330
1F
100
AcDbEntity
  8
0
  6
Continuous
 62
     7
370
    35
100
AcDbPolyline
 90
       30
 70
   128
 43
0.0
 10
264.3602331106
 20
118.6732771231
 10
264.3815799847
 20
118.6896202227
 10
265.2209961231
 20
119.4075298246
 10
265.9942472335
 20
120.2214102165
 10
266.6983591835
 20
121.1281309948
 10
267.3306237685
 20
122.1242046667
 10
267.8886091284
 20
123.2058000642
 10
268.370169101
 20
124.3687570796
 10
268.7734514767
 20
125.6086026664
 10
269.0969051226
 20
126.9205680441
 10
269.3392859488
 20
128.2996070398
 10
269.4996616933
 20
129.7404154975
 10
269.5774155077
 20
131.2374516792
 10
269.5722483297
 20
132.7849575798
 10
269.4841800339
 20
134.3769810742
 10
269.3135493545
 20
136.0073988105
 10
269.0610125832
 20
137.6699397622
 10
268.7275410447
 20
139.3582093482
 10
268.3144173603
 20
141.0657140284
 10
267.8232305153
 20
142.7858862789
 10
267.2558697467
 20
144.5121098534
 10
266.6145172771
 20
146.2377452301
 10
265.9016399212
 20
147.9561551499
 10
265.1199795976
 20
149.6607301446
 10
264.2725427827
 20
151.3449139589
 10
263.3625889473
 20
153.0022287675
 10
262.3936180192
 20
154.6263000905
 10
261.369356922
 20
156.2108813115
 10
260.2937452403
 20
157.7498777036
 10
259.1709200668
 20
159.2373698715
  0
ARC
  5
19F
330
1F
100
AcDbEntity
  8
0
  6
Continuous
 62
     7
370
    35
100
AcDbCircle
 10
259.5223610453
 20
158.8435176748
 30
0.0
 40
0.5278544441716337
100
AcDbArc
 50
82.4093675379
 51
131.7430723578
  0
ARC
  5
1A0
330
1F
100
AcDbEntity
  8
0
  6
Continuous
 62
     7
370
    35
100
AcDbCircle
 10
249.2724574213
 20
154.3124939468
 30
0.0
 40
18.18991690997581
100
AcDbArc
 50
165.2676558511
 51
180.5569796848
  0
LWPOLYLINE
  5
1A1
330
1F
100
AcDbEntity
  8
0
  6
Continuous
 62
     7
370
    35
100
AcDbPolyline
 90
       28
 70
   128
 43
0.0
 10
252.4734170937
 20
122.9200494044
 10
252.1156048697
 20
123.0187856168
 10
250.9593752959
 20
123.402463335
 10
249.7888185964
 20
123.8882400851
 10
248.609637606
 20
124.4737492116
 10
247.4275771757
 20
125.1561381729
 10
246.2483961852
 20
125.9320824387
 10
245.0778394858
 20
126.7978016864
 10
243.921609912
 20
127.7490782188
 10
242.785340498
 20
128.7812775124
 10
241.6745670344
 20
129.8893707959
 10
240.5947010976
 20
131.0679595502
 10
239.5510036861
 20
132.3113018094
 10
238.5485595887
 20
133.6133401351
 10
237.5922526122
 20
134.9677311272
 10
236.6867417881
 20
136.3678763292
 10
235.8364386742
 20
137.8069543742
 10
235.0454858618
 20
139.2779542188
 10
234.3177367933
 20
140.7737092995
 10
233.6567369892
 20
142.2869324479
 10
233.0657067741
 20
143.810251393
 10
232.5475255877
 20
145.336244678
 10
232.1047179567
 20
146.857477817
 10
231.7394411954
 20
148.3665395151
 10
231.4534748954
 20
149.8560777753
 10
231.2482122558
 20
151.318835717
 10
231.1246532955
 20
152.7476869305
 10
231.0833999814
 20
154.1356701963
  0
ARC
  5
1A2
330
1F
100
AcDbEntity
  8
0
  6
Continuous
 62
     7
370
    35
100
AcDbCircle
 10
253.4714525489
 20
168.5016552457
 30
0.0
 40
0.9509034838484621
100
AcDbArc
 50
292.2556938861
 51
318.1046199106
  0
ARC
  5
1A3
330
1F
100
AcDbEntity
  8
0
  6
Continuous
 62
     7
370
    35
100
AcDbCircle
 10
249.6906080549
 20
154.4287878197
 30
0.0
 40
18.11303728505984
100
AcDbArc
 50
165.7052015963
 51
180.5398341734
  0
LWPOLYLINE
  5
1A4
330
1F
100
AcDbEntity
  8
0
  6
Continuous
 62
     7
370
    35
100
AcDbPolyline
 90
       28
 70
   128
 43
0.0
 10
252.6701894233
 20
123.3351126856
 10
252.4349453377
 20
123.4010955566
 10
251.2883711257
 20
123.7815692855
 10
250.12758943
 20
124.2632894447
 10
248.9582554624
 20
124.8439091422
 10
247.7860661004
 20
125.5205996571
 10
246.6167321328
 20
126.2900642213
 10
245.4559504371
 20
127.1485540807
 10
244.3093762251
 20
128.091886759
 10
243.1825954911
 20
129.1154664342
 10
242.0810977975
 20
130.2143063291
 10
241.0102495303
 20
131.3830530062
 10
239.9752677548
 20
132.6160124491
 10
238.9811947981
 20
133.9071778033
 10
238.0328736836
 20
135.250258641
 10
237.1349245366
 20
136.6387116075
 10
236.291722075
 20
138.0657722993
 10
235.5073742964
 20
139.5244882204
 10
234.7857024645
 20
141.0077526532
 10
234.1302224918
 20
142.5083392827
 10
233.5441278108
 20
144.0189374015
 10
233.0302738159
 20
145.5321875275
 10
232.5911639522
 20
147.0407172583
 10
232.2289375187
 20
148.5371771885
 10
231.9453592463
 20
150.0142767158
 10
231.7418106997
 20
151.4648195599
 10
231.619283547
 20
152.8817388217
 10
231.5783747282
 20
154.2581314131
  0
LWPOLYLINE
  5
1A5
330
1F
100
AcDbEntity
  8
0
  6
Continuous
 62
     7
370
    35
100
AcDbPolyline
 90
       28
 70
   128
 43
0.0
 10
231.3662426939
 20
154.1356701963
 10
231.4071515126
 20
152.7592776049
 10
231.5296786653
 20
151.3423583431
 10
231.7332272119
 20
149.8918154991
 10
232.0168054844
 20
148.4147159717
 10
232.3790319178
 20
146.9182560415
 10
232.8181417816
 20
145.4097263108
 10
233.3319957764
 20
143.8964761847
 10
233.9180904574
 20
142.3858780659
 10
234.5735704301
 20
140.8852914364
 10
235.2952422621
 20
139.4020270036
 10
236.0795900406
 20
137.9433110826
 10
236.9227925022
 20
136.5162503907
 10
237.8207416493
 20
135.1277974243
 10
238.7690627637
 20
133.7847165865
 10
239.7631357205
 20
132.4935512323
 10
240.798117496
 20
131.2605917894
 10
241.8689657631
 20
130.0918451124
 10
242.9704634567
 20
128.9930052174
 10
244.0972441908
 20
127.9694255422
 10
245.2438184028
 20
127.0260928639
 10
246.4046000985
 20
126.1676030045
 10
247.5739340661
 20
125.3981384404
 10
248.746123428
 20
124.7214479255
 10
249.9154573956
 20
124.140828228
 10
251.0762390913
 20
123.6591080687
 10
252.2228133033
 20
123.2786343398
 10
252.5971526591
 20
123.1756157071
  0
ARC
  5
1A6
330
1F
100
AcDbEntity
  8
0
  6
Continuous
 62
     7
370
    35
100
AcDbCircle
 10
249.3911613612
 20
154.3117825594
 30
0.0
 40
18.02577899920888
100
AcDbArc
 50
165.1959938916
 51
180.5597902683
  0
ARC
  5
1A7
330
1F
100
AcDbEntity
  8
0
  6
Continuous
 62
     7
370
    35
100
AcDbCircle
 10
252.7627353205
 20
168.7605283144
 30
0.0
 40
0.479394829965858
100
AcDbArc
 50
64.0329812838
 51
127.2544571256
  0
ARC
  5
1A8
330
1F
100
AcDbEntity
  8
0
  6
Continuous
 62
     7
370
    35
100
AcDbCircle
 10
233.6441817328
 20
167.9873153703
 30
0.0
 40
1.229347257844891
100
AcDbArc
 50
53.681244246
 51
115.6551989178
  0
ARC
  5
1A9
330
1F
100
AcDbEntity
  8
0
  6
Continuous
 62
     7
370
    35
100
AcDbCircle
 10
233.542587554
 20
168.3320044689
 30
0.0
 40
0.8844353460563582
100
AcDbArc
 50
134.0248014273
 51
218.4299409322
  0
ARC
  5
1AA
330
1F
100
AcDbEntity
  8
0
  6
Continuous
 62
     7
370
    35
100
AcDbCircle
 10
242.835080915
 20
173.2895289752
 30
0.0
 40
1.233806723916722
100
AcDbArc
 50
53.7476264185
 51
114.9419151524
  0
ARC
  5
1AB
330
1F
100
AcDbEntity
  8
0
  6
Continuous
 62
     7
370
    35
100
AcDbCircle
 10
243.8576040088
 20
173.875614197
 30
0.0
 40
0.5029772359019824
100
AcDbArc
 50
65.6928809539
 51
125.6175774752
  0
ARC
  5
1AC
330
1F
100
AcDbEntity
  8
0
  6
Continuous
 62
     7
370
    35
100
AcDbCircle
 10
226.4430407999
 20
177.4497049799
 30
0.0
 40
10.71374157237386
100
AcDbArc
 50
276.597086601
 51
292.566560773
  0
ARC
  5
1AD
330
1F
100
AcDbEntity
  8
0
  6
Continuous
 62
     7
370
    35
100
AcDbCircle
 10
235.604516001
 20
182.8927210768
 30
0.0
 40
10.85276393664192
100
AcDbArc
 50
276.6764986162
 51
290.4618801842
  0
LWPOLYLINE
  5
1AE
330
1F
100
AcDbEntity
  8
0
  6
Continuous
 62
     7
370
    35
100
AcDbPolyline
 90
        3
 70
   128
 43
0.0
 10
236.8662947149
 20
172.1135560098
 10
237.011270259
 20
172.1757076707
 10
237.1113959547
 20
172.1962836945
  0
ARC
  5
1AF
330
1F
100
AcDbEntity
  8
0
  6
Continuous
 62
     7
370
    35
100
AcDbCircle
 10
228.9391433468
 20
155.9307167894
 30
0.0
 40
10.94953226260678
100
AcDbArc
 50
96.635445799
 51
112.1585705405
  0
LWPOLYLINE
  5
1B0
330
1F
100
AcDbEntity
  8
0
  6
Continuous
 62
     7
370
    35
100
AcDbPolyline
 90
        5
 70
   128
 43
0.0
 10
227.1122817112
 20
124.2248984426
 10
227.1082561546
 20
124.2313569322
 10
227.1069350305
 20
124.2769373855
 10
227.1361651129
 20
124.3440967705
 10
227.1948231061
 20
124.4302541898
  0
ARC
  5
1B1
330
1F
100
AcDbEntity
  8
0
  6
Continuous
 62
     7
370
    35
100
AcDbCircle
 10
238.1317283341
 20
161.2363571986
 30
0.0
 40
10.95056054374519
100
AcDbArc
 50
96.6358567293
 51
112.1239357438
  0
ARC
  5
1B2
330
1F
100
AcDbEntity
  8
0
  6
Continuous
 62
     7
370
    35
100
AcDbCircle
 10
251.7265140624
 20
105.2156691144
 30
0.0
 40
6.504739027811718
100
AcDbArc
 50
123.0800974474
 51
171.5948581887
  0
LWPOLYLINE
  5
1B3
330
1F
100
AcDbEntity
  8
0
  6
Continuous
 62
     7
370
    35
100
AcDbPolyline
 90
        3
 70
   128
 43
0.0
 10
254.4840291656
 20
111.4731312977
 10
254.7218621818
 20
112.4090863174
 10
255.0014859915
 20
113.1729006049
  0
ARC
  5
1B4
330
1F
100
AcDbEntity
  8
0
  6
Continuous
 62
     7
370
    35
100
AcDbCircle
 10
254.2311704469
 20
111.9676280132
 30
0.0
 40
0.5553958348266104
100
AcDbArc
 50
297.082731579
 51
346.7855040491
  0
ARC
  5
1B5
330
1F
100
AcDbEntity
  8
0
  6
Continuous
 62
     7
370
    35
100
AcDbCircle
 10
244.8741518136
 20
106.222492117
 30
0.0
 40
0.4212300400237453
100
AcDbArc
 50
302.3165619421
 51
352.358393694
  0
ARC
  5
1B6
330
1F
100
AcDbEntity
  8
0
  6
Continuous
 62
     7
370
    35
100
AcDbCircle
 10
244.3679593941
 20
106.2637882972
 30
0.0
 40
0.4795255464903538
100
AcDbArc
 50
172.7441704437
 51
235.9436491629
  0
ARC
  5
1B7
330
1F
100
AcDbEntity
  8
0
  6
Continuous
 62
     7
370
    35
100
AcDbCircle
 10
232.8216366262
 20
112.9293385508
 30
0.0
 40
0.4795255464352171
100
AcDbArc
 50
172.7441704397
 51
235.943649167
  0
ARC
  5
1B8
330
1F
100
AcDbEntity
  8
0
  6
Continuous
 62
     7
370
    35
100
AcDbCircle
 10
254.0665399691
 20
111.5291448438
 30
0.0
 40
0.4212300400240958
100
AcDbArc
 50
302.3165619421
 51
352.358393694
  0
ARC
  5
1B9
330
1F
100
AcDbEntity
  8
0
  6
Continuous
 62
     7
370
    35
100
AcDbCircle
 10
232.4080884392
 20
113.3422435708
 30
0.0
 40
0.357778181116183
100
AcDbArc
 50
197.0854453611
 51
259.998399928
  0
LINE
  5
1BA
330
1F
100
AcDbEntity
  8
0
  6
Continuous
 62
     7
370
    35
100
AcDbLine
 10
191.5254567415
 20
137.1978654712
 30
0.0
 11
191.5254567415
 21
86.8171435884
 31
0.0
  0
ARC
  5
1BB
330
1F
100
AcDbEntity
  8
0
  6
Continuous
 62
     7
370
    35
100
AcDbCircle
 10
190.5940233016
 20
86.89763021
 30
0.0
 40
0.9349044599993392
100
AcDbArc
 50
265.7941104122
 51
355.0612500992
  0
LINE
  5
1BC
330
1F
100
AcDbEntity
  8
0
  6
Continuous
 62
     7
370
    35
100
AcDbLine
 10
190.5254567415
 20
85.9652435005
 30
0.0
 11
190.5254567415
 21
138.0537864641
 31
0.0
  0
ARC
  5
1BD
330
1F
100
AcDbEntity
  8
0
  6
Continuous
 62
     7
370
    35
100
AcDbCircle
 10
190.592306555
 20
137.119762686
 30
0.0
 40
0.936413004835505
100
AcDbArc
 50
4.7843896674
 51
94.0937845123
  0
LINE
  5
1BE
330
1F
100
AcDbEntity
  8
0
  6
Continuous
 62
     7
370
    35
100
AcDbLine
 10
177.5254567415
 20
138.0537864641
 30
0.0
 11
177.5254567415
 21
85.9652435005
 31
0.0
  0
LINE
  5
1BF
330
1F
100
AcDbEntity
  8
0
  6
Continuous
 62
     7
370
    35
100
AcDbLine
 10
190.5254567415
 20
138.0537864641
 30
0.0
 11
177.5254567415
 21
138.0537864641
 31
0.0
  0
LINE
  5
1C0
330
1F
100
AcDbEntity
  8
0
  6
Continuous
 62
     7
370
    35
100
AcDbLine
 10
190.5254567415
 20
85.9652435005
 30
0.0
 11
177.5254567415
 21
85.9652435005
 31
0.0
  0
LINE
  5
1C1
330
1F
100
AcDbEntity
  8
0
  6
Continuous
 62
     7
370
    35
100
AcDbLine
 10
176.5254567415
 20
86.8171435884
 30
0.0
 11
176.5254567415
 21
137.1978654712
 31
0.0
  0
ARC
  5
1C2
330
1F
100
AcDbEntity
  8
0
  6
Continuous
 62
     7
370
    35
100
AcDbCircle
 10
177.458606928
 20
137.119762686
 30
0.0
 40
0.9364130048354508
100
AcDbArc
 50
85.9062154877
 51
175.2156103326
  0
ARC
  5
1C3
330
1F
100
AcDbEntity
  8
0
  6
Continuous
 62
     7
370
    35
100
AcDbCircle
 10
177.4568901815
 20
86.89763021
 30
0.0
 40
0.9349044599992825
100
AcDbArc
 50
184.9387499008
 51
274.2058895879
  0
ARC
  5
1C4
330
1F
100
AcDbEntity
  8
0
  6
Continuous
 62
     7
370
    35
100
AcDbCircle
 10
190.7650689659
 20
77.623682818
 30
0.0
 40
1.39998514268995
100
AcDbArc
 50
260.1451127642
 51
302.8976416156
  0
LINE
  5
1C5
330
1F
100
AcDbEntity
  8
0
  6
Continuous
 62
     7
370
    35
100
AcDbLine
 10
190.5254567415
 20
76.2443553073
 30
0.0
 11
190.5254567415
 21
85.9652435005
 31
0.0
  0
LINE
  5
1C6
330
1F
100
AcDbEntity
  8
0
  6
Continuous
 62
     7
370
    35
100
AcDbLine
 10
191.5254567415
 20
86.8171435884
 30
0.0
 11
191.5254567415
 21
76.4481961824
 31
0.0
  0
LINE
  5
1C7
330
1F
100
AcDbEntity
  8
0
  6
Continuous
 62
     7
370
    35
100
AcDbLine
 10
177.5254567415
 20
85.9652435005
 30
0.0
 11
177.5254567415
 21
76.2443553073
 31
0.0
  0
LINE
  5
1C8
330
1F
100
AcDbEntity
  8
0
  6
Continuous
 62
     7
370
    35
100
AcDbLine
 10
190.5254567415
 20
76.2443553073
 30
0.0
 11
177.5254567415
 21
76.2443553073
 31
0.0
  0
ARC
  5
1C9
330
1F
100
AcDbEntity
  8
0
  6
Continuous
 62
     7
370
    35
100
AcDbCircle
 10
177.2858445171
 20
77.623682818
 30
0.0
 40
1.399985142689839
100
AcDbArc
 50
237.1023583844
 51
279.8548872358
  0
LINE
  5
1CA
330
1F
100
AcDbEntity
  8
0
  6
Continuous
 62
     7
370
    35
100
AcDbLine
 10
176.5254567415
 20
76.4481961824
 30
0.0
 11
176.5254567415
 21
86.8171435884
 31
0.0
  0
LINE
  5
1CB
330
1F
100
AcDbEntity
  8
0
  6
Continuous
 62
     7
370
    35
100
AcDbLine
 10
190.5254567415
 20
138.0537864641
 30
0.0
 11
190.5254567415
 21
144.5469054183
 31
0.0
  0
LWPOLYLINE
  5
1CC
330
1F
100
AcDbEntity
  8
0
  6
Continuous
 62
     7
370
    35
100
AcDbPolyline
 90
        9
 70
   128
 43
0.0
 10
190.5254567415
 20
144.5469054183
 10
190.7205470635
 20
144.5346179184
 10
190.9081401739
 20
144.4982276205
 10
191.0810269745
 20
144.4391329833
 10
191.2325635227
 20
144.3596049807
 10
191.3569263538
 20
144.262699829
 10
191.449336274
 20
144.152141539
 10
191.5062420219
 20
144.0321788038
 10
191.5254567415
 20
143.9074217239
  0
LINE
  5
1CD
330
1F
100
AcDbEntity
  8
0
  6
Continuous
 62
     7
370
    35
100
AcDbLine
 10
191.5254567415
 20
143.9074217239
 30
0.0
 11
191.5254567415
 21
137.1978654712
 31
0.0
  0
LINE
  5
1CE
330
1F
100
AcDbEntity
  8
0
  6
Continuous
 62
     7
370
    35
100
AcDbLine
 10
177.5254567415
 20
144.5469054183
 30
0.0
 11
177.5254567415
 21
138.0537864641
 31
0.0
  0
LINE
  5
1CF
330
1F
100
AcDbEntity
  8
0
  6
Continuous
 62
     7
370
    35
100
AcDbLine
 10
190.5254567415
 20
144.5469054183
 30
0.0
 11
177.5254567415
 21
144.5469054183
 31
0.0
  0
LWPOLYLINE
  5
1D0
330
1F
100
AcDbEntity
  8
0
  6
Continuous
 62
     7
370
    35
100
AcDbPolyline
 90
        9
 70
   128
 43
0.0
 10
177.5254567415
 20
144.5469054183
 10
177.3303664195
 20
144.5346179184
 10
177.1427733091
 20
144.4982276205
 10
176.9698865085
 20
144.4391329833
 10
176.8183499603
 20
144.3596049807
 10
176.6939871292
 20
144.262699829
 10
176.601577209
 20
144.152141539
 10
176.5446714611
 20
144.0321788038
 10
176.5254567415
 20
143.9074217239
  0
LINE
  5
1D1
330
1F
100
AcDbEntity
  8
0
  6
Continuous
 62
     7
370
    35
100
AcDbLine
 10
176.5254567415
 20
137.1978654712
 30
0.0
 11
176.5254567415
 21
143.9074217239
 31
0.0
  0
ARC
  5
1D2
330
1F
100
AcDbEntity
  8
0
  6
Continuous
 62
     7
370
    35
100
AcDbCircle
 10
190.5254567415
 20
76.4481961824
 30
0.0
 40
1.000000000000028
100
AcDbArc
 50
270.0
 51
0.0
  0
LINE
  5
1D3
330
1F
100
AcDbEntity
  8
0
  6
Continuous
 62
     7
370
    35
100
AcDbLine
 10
190.5254567415
 20
75.4481961824
 30
0.0
 11
190.5254567415
 21
76.2443553073
 31
0.0
  0
LINE
  5
1D4
330
1F
100
AcDbEntity
  8
0
  6
Continuous
 62
     7
370
    35
100
AcDbLine
 10
177.5254567415
 20
76.2443553073
 30
0.0
 11
177.5254567415
 21
75.4481961824
 31
0.0
  0
LINE
  5
1D5
330
1F
100
AcDbEntity
  8
0
  6
Continuous
 62
     7
370
    35
100
AcDbLine
 10
190.5254567415
 20
75.4481961824
 30
0.0
 11
177.5254567415
 21
75.4481961824
 31
0.0
  0
ARC
  5
1D6
330
1F
100
AcDbEntity
  8
0
  6
Continuous
 62
     7
370
    35
100
AcDbCircle
 10
177.5254567415
 20
76.4481961824
 30
0.0
 40
1.0
100
AcDbArc
 50
180.0
 51
270.0
  0
LINE
  5
1D7
330
1F
100
AcDbEntity
  8
0
  6
Continuous
 62
     7
370
    35
100
AcDbLine
 10
190.5254567415
 20
144.5469054183
 30
0.0
 11
190.5254567415
 21
145.4481961824
 31
0.0
  0
ARC
  5
1D8
330
1F
100
AcDbEntity
  8
0
  6
Continuous
 62
     7
370
    35
100
AcDbCircle
 10
190.5254567415
 20
144.4481961824
 30
0.0
 40
1.000000000000028
100
AcDbArc
 50
0.0
 51
90.0
  0
LINE
  5
1D9
330
1F
100
AcDbEntity
  8
0
  6
Continuous
 62
     7
370
    35
100
AcDbLine
 10
191.5254567415
 20
144.4481961824
 30
0.0
 11
191.5254567415
 21
143.9074217239
 31
0.0
  0
LINE
  5
1DA
330
1F
100
AcDbEntity
  8
0
  6
Continuous
 62
     7
370
    35
100
AcDbLine
 10
177.5254567415
 20
145.4481961824
 30
0.0
 11
177.5254567415
 21
144.5469054183
 31
0.0
  0
LINE
  5
1DB
330
1F
100
AcDbEntity
  8
0
  6
Continuous
 62
     7
370
    35
100
AcDbLine
 10
190.5254567415
 20
145.4481961824
 30
0.0
 11
177.5254567415
 21
145.4481961824
 31
0.0
  0
ARC
  5
1DC
330
1F
100
AcDbEntity
  8
0
  6
Continuous
 62
     7
370
    35
100
AcDbCircle
 10
177.5254567415
 20
144.4481961824
 30
0.0
 40
1.0
100
AcDbArc
 50
90.0
 51
180.0
  0
LINE
  5
1DD
330
1F
100
AcDbEntity
  8
0
  6
Continuous
 62
     7
370
    35
100
AcDbLine
 10
176.5254567415
 20
143.9074217239
 30
0.0
 11
176.5254567415
 21
144.4481961824
 31
0.0
  0
LINE
  5
1DE
330
1F
100
AcDbEntity
  8
SLD-0
  6
CENTERX2
100
AcDbLine
 10
182.3754567415
 20
145.4481961824
 30
0.0
 11
182.3754567415
 21
140.4481961824
 31
0.0
  0
LINE
  5
1DF
330
1F
100
AcDbEntity
  8
SLD-0
  6
CENTERX2
100
AcDbLine
 10
182.3754567415
 20
140.4481961824
 30
0.0
 11
184.0254567415
 21
139.456776161
 31
0.0
  0
LINE
  5
1E0
330
1F
100
AcDbEntity
  8
SLD-0
  6
CENTERX2
100
AcDbLine
 10
184.0254567415
 20
139.456776161
 30
0.0
 11
185.6754567415
 21
140.4481961824
 31
0.0
  0
LINE
  5
1E1
330
1F
100
AcDbEntity
  8
SLD-0
  6
CENTERX2
100
AcDbLine
 10
185.6754567415
 20
140.4481961824
 30
0.0
 11
185.6754567415
 21
145.4481961824
 31
0.0
  0
LINE
  5
1E2
330
1F
100
AcDbEntity
  8
SLD-0
  6
CENTERX2
100
AcDbLine
 10
182.3754567415
 20
140.4481961824
 30
0.0
 11
185.6754567415
 21
140.4481961824
 31
0.0
  0
LINE
  5
1E3
330
1F
100
AcDbEntity
  8
SLD-0
  6
CENTERX2
100
AcDbLine
 10
186.5254567415
 20
82.4481961824
 30
0.0
 11
186.5254567415
 21
75.4481961824
 31
0.0
  0
LINE
  5
1E4
330
1F
100
AcDbEntity
  8
SLD-0
  6
CENTERX2
100
AcDbLine
 10
186.5254567415
 20
82.4481961824
 30
0.0
 11
184.0254567415
 21
83.9503477299
 31
0.0
  0
LINE
  5
1E5
330
1F
100
AcDbEntity
  8
SLD-0
  6
CENTERX2
100
AcDbLine
 10
184.0254567415
 20
83.9503477299
 30
0.0
 11
181.5254567415
 21
82.4481961824
 31
0.0
  0
LINE
  5
1E6
330
1F
100
AcDbEntity
  8
SLD-0
  6
CENTERX2
100
AcDbLine
 10
181.5254567415
 20
82.4481961824
 30
0.0
 11
181.5254567415
 21
75.4481961824
 31
0.0
  0
LINE
  5
1E7
330
1F
100
AcDbEntity
  8
SLD-0
  6
CENTERX2
100
AcDbLine
 10
181.5254567415
 20
82.4481961824
 30
0.0
 11
186.5254567415
 21
82.4481961824
 31
0.0
  0
DIMENSION
  5
1E8
330
1F
100
AcDbEntity
  8
SLD-0
 62
     7
100
AcDbDimension
  2
_D_3
 10
184.0254567415
 20
64.7621030092
 30
0.0
 11
180.2754567415
 21
64.7621030092
 31
0.0
 70
   160
  1
<>
 71
     2
 42
-1.0
  3
SLDDIMSTYLE0
100
AcDbAlignedDimension
 13
176.5254567415
 23
76.4481961824
 33
0.0
 14
184.0254567415
 24
74.4481961824
 34
0.0
100
AcDbRotatedDimension
  0
DIMENSION
  5
1F2
330
1F
100
AcDbEntity
  8
SLD-0
 62
     7
100
AcDbDimension
  2
_D_4
 10
191.5254567415
 20
57.608256876
 30
0.0
 11
184.0254567415
 21
57.608256876
 31
0.0
 70
   160
  1
<>
 71
     2
 42
-1.0
  3
SLDDIMSTYLE0
100
AcDbAlignedDimension
 13
176.5254567415
 23
76.4481961824
 33
0.0
 14
191.5254567415
 24
76.4481961824
 34
0.0
100
AcDbRotatedDimension
  0
INSERT
  5
207
330
1F
100
AcDbEntity
  8
SLD-0
 62
     7
100
AcDbBlockReference
  2
SW_NOTE_0_1
 10
179.8895027624
 20
155.6906077348
 30
0.0
  0
LEADER
  5
208
330
1F
100
AcDbEntity
  8
SLD-0
 62
     7
100
AcDbLeader
  3
SLDDIMSTYLE2
 76
     2
 10
184.0521167073
 20
145.4481961824
 30
0.0
 10
179.8895027624
 20
155.6906077348
 30
0.0
  0
INSERT
  5
214
330
1F
100
AcDbEntity
  8
SLD-0
 62
     7
100
AcDbBlockReference
  2
SW_NOTE_0_2
 10
197.679558011
 20
59.7790055249
 30
0.0
  0
LEADER
  5
215
330
1F
100
AcDbEntity
  8
SLD-0
 62
     7
100
AcDbLeader
  3
SLDDIMSTYLE2
 76
     2
 10
184.1117138765
 20
75.4481961824
 30
0.0
 10
197.679558011
 20
59.7790055249
 30
0.0
  0
LINE
  5
216
330
1F
100
AcDbEntity
  8
SLD-0
  6
CENTERX2
370
    18
100
AcDbLine
 10
184.0254567415
 20
146.4481961824
 30
0.0
 11
184.0254567415
 21
74.4481961824
 31
0.0
  0
ENDSEC
  0
SECTION
  2
OBJECTS
  0
DICTIONARY
  5
C
330
0
100
AcDbDictionary
281
     1
  3
ACAD_DETAILVIEWSTYLE
350
220
  3
ACAD_GROUP
350
D
  3
ACAD_LAYOUT
350
1A
  3
ACAD_MATERIAL
350
43
  3
ACAD_MLEADERSTYLE
350
5B
  3
ACAD_MLINESTYLE
350
17
  3
ACAD_PLOTSETTINGS
350
19
  3
ACAD_PLOTSTYLENAME
350
E
  3
ACAD_SCALELIST
350
47
  3
ACAD_SECTIONVIEWSTYLE
350
221
  3
ACAD_TABLESTYLE
350
59
  3
ACDB_RECOMPOSE_DATA
350
21D
  3
AcDbVariableDictionary
350
217
  0
DICTIONARY
  5
220
102
{ACAD_REACTORS
330
C
102
}
330
C
100
AcDbDictionary
281
     1
  0
DICTIONARY
  5
D
102
{ACAD_REACTORS
330
C
102
}
330
C
100
AcDbDictionary
281
     1
  0
DICTIONARY
  5
1A
102
{ACAD_REACTORS
330
C
102
}
330
C
100
AcDbDictionary
281
     1
  3
Layout1
350
1E
  3
Layout2
350
26
  3
Model
350
22
  0
DICTIONARY
  5
43
102
{ACAD_REACTORS
330
C
102
}
330
C
100
AcDbDictionary
281
     1
  3
ByBlock
350
45
  3
ByLayer
350
44
  3
Global
350
46
  0
DICTIONARY
  5
5B
102
{ACAD_REACTORS
330
C
102
}
330
C
100
AcDbDictionary
281
     1
  3
Standard
350
5C
  0
DICTIONARY
  5
17
102
{ACAD_REACTORS
330
C
102
}
330
C
100
AcDbDictionary
281
     1
  3
Standard
350
18
  0
DICTIONARY
  5
19
102
{ACAD_REACTORS
330
C
102
}
330
C
100
AcDbDictionary
281
     1
  0
ACDBDICTIONARYWDFLT
  5
E
102
{ACAD_REACTORS
330
C
102
}
330
C
100
AcDbDictionary
281
     1
  3
Normal
350
F
100
AcDbDictionaryWithDefault
340
F
  0
DICTIONARY
  5
47
102
{ACAD_REACTORS
330
C
102
}
330
C
100
AcDbDictionary
281
     1
  3
A0
350
48
  3
A1
350
49
  3
A2
350
4A
  3
A3
350
4B
  3
A4
350
4C
  3
A5
350
4D
  3
A6
350
4E
  3
A7
350
4F
  3
A8
350
50
  3
A9
350
51
  3
B0
350
52
  3
B1
350
53
  3
B2
350
54
  3
B3
350
55
  3
B4
350
56
  3
B5
350
57
  3
B6
350
58
  0
DICTIONARY
  5
221
102
{ACAD_REACTORS
330
C
102
}
330
C
100
AcDbDictionary
281
     1
  0
DICTIONARY
  5
59
102
{ACAD_REACTORS
330
C
102
}
330
C
100
AcDbDictionary
281
     1
  3
Standard
350
5A
  0
XRECORD
  5
21D
102
{ACAD_REACTORS
330
C
102
}
330
C
100
AcDbXrecord
280
     1
 90
        1
330
5A
  0
DICTIONARY
  5
217
102
{ACAD_REACTORS
330
C
102
}
330
C
100
AcDbDictionary
281
     1
  3
CANNOSCALE
350
218
  3
CENTEREXE
350
222
  3
CENTERLTYPEFILE
350
223
  3
CMLEADERSTYLE
350
21F
  3
CTABLESTYLE
350
21E
  0
LAYOUT
  5
1E
102
{ACAD_REACTORS
330
1A
102
}
330
1A
100
AcDbPlotSettings
  1

  2
none_device
  4

  6

 40
0.0
 41
0.0
 42
0.0
 43
0.0
 44
0.0
 45
0.0
 46
0.0
 47
0.0
 48
0.0
 49
0.0
140
0.0
141
0.0
142
1.0
143
1.0
 70
   688
 72
     1
 73
     0
 74
     5
  7

 75
    16
 76
     0
 77
     2
 78
   300
147
1.0
148
0.0
149
0.0
100
AcDbLayout
  1
Layout1
 70
     1
 71
     1
 10
0.0
 20
0.0
 11
420.0
 21
297.0
 12
0.0
 22
0.0
 32
0.0
 14
1.0000000000E+20
 24
1.0000000000E+20
 34
1.0000000000E+20
 15
-1.0000000000E+20
 25
-1.0000000000E+20
 35
-1.0000000000E+20
146
0.0
 13
0.0
 23
0.0
 33
0.0
 16
1.0
 26
0.0
 36
0.0
 17
0.0
 27
1.0
 37
0.0
 76
     0
330
1B
  0
LAYOUT
  5
26
102
{ACAD_REACTORS
330
1A
102
}
330
1A
100
AcDbPlotSettings
  1

  2
none_device
  4

  6

 40
0.0
 41
0.0
 42
0.0
 43
0.0
 44
0.0
 45
0.0
 46
0.0
 47
0.0
 48
0.0
 49
0.0
140
0.0
141
0.0
142
1.0
143
1.0
 70
   688
 72
     1
 73
     0
 74
     5
  7

 75
    16
 76
     0
 77
     2
 78
   300
147
1.0
148
0.0
149
0.0
100
AcDbLayout
  1
Layout2
 70
     1
 71
     2
 10
0.0
 20
0.0
 11
0.0
 21
0.0
 12
0.0
 22
0.0
 32
0.0
 14
0.0
 24
0.0
 34
0.0
 15
0.0
 25
0.0
 35
0.0
146
0.0
 13
0.0
 23
0.0
 33
0.0
 16
1.0
 26
0.0
 36
0.0
 17
0.0
 27
1.0
 37
0.0
 76
     0
330
23
  0
LAYOUT
  5
22
102
{ACAD_REACTORS
330
1A
102
}
330
1A
100
AcDbPlotSettings
  1

  2
none_device
  4
Letter_(8.50_x_11.00_Inches)
  6

 40
6.35
 41
6.35
 42
6.35000508
 43
6.35000508
 44
215.9
 45
279.4
 46
0.0
 47
0.0
 48
0.0
 49
0.0
140
0.0
141
0.0
142
1.0
143
1.0
 70
  1712
 72
     1
 73
     0
 74
     0
  7

 75
     0
 76
     0
 77
     2
 78
   300
147
1.0
148
0.0
149
0.0
100
AcDbLayout
  1
Model
 70
     1
 71
     0
 10
0.0
 20
0.0
 11
297.0
 21
210.0
 12
0.0
 22
0.0
 32
0.0
 14
0.0
 24
0.0
 34
0.0
 15
297.0
 25
210.0
 35
0.0
146
0.0
 13
0.0
 23
0.0
 33
0.0
 16
1.0
 26
0.0
 36
0.0
 17
0.0
 27
1.0
 37
0.0
 76
     0
330
1F
331
29
  0
MATERIAL
  5
45
102
{ACAD_REACTORS
330
43
102
}
330
43
100
AcDbMaterial
  1
ByBlock
  0
MATERIAL
  5
44
102
{ACAD_REACTORS
330
43
102
}
330
43
100
AcDbMaterial
  1
ByLayer
  0
MATERIAL
  5
46
102
{ACAD_REACTORS
330
43
102
}
330
43
100
AcDbMaterial
  1
Global
  0
MLEADERSTYLE
  5
5C
102
{ACAD_REACTORS
330
5B
102
}
330
5B
100
AcDbMLeaderStyle
170
     2
171
     1
172
     0
 90
        2
 40
0.0
 41
0.0
173
     1
 91
-1056964608
340
14
 92
       -2
290
     1
 42
2.0
291
     1
 43
8.0
  3
Standard
341
0
 44
4.0
300

342
11
174
     1
178
     6
175
     1
176
     0
 93
-1056964608
 45
4.0
292
     0
297
     0
 46
4.0
343
0
 94
-1056964608
 47
1.0
 49
1.0
140
1.0
293
     1
141
0.0
294
     1
177
     0
142
1.0
295
     0
296
     0
143
3.75
1001
ACAD_MLEADERVER
1070
     2
  0
MLINESTYLE
  5
18
102
{ACAD_REACTORS
330
17
102
}
330
17
100
AcDbMlineStyle
  2
Standard
 70
     0
  3

 62
   256
 51
90.0
 52
90.0
 71
     2
 49
0.5
 62
   256
  6
BYLAYER
 49
-0.5
 62
   256
  6
BYLAYER
  0
ACDBPLACEHOLDER
  5
F
102
{ACAD_REACTORS
330
E
102
}
330
E
  0
SCALE
  5
48
102
{ACAD_REACTORS
330
47
102
}
330
47
100
AcDbScale
 70
     0
300
1:1
140
1.0
141
1.0
290
     1
  0
SCALE
  5
49
102
{ACAD_REACTORS
330
47
102
}
330
47
100
AcDbScale
 70
     0
300
1:2
140
1.0
141
2.0
290
     0
  0
SCALE
  5
4A
102
{ACAD_REACTORS
330
47
102
}
330
47
100
AcDbScale
 70
     0
300
1:4
140
1.0
141
4.0
290
     0
  0
SCALE
  5
4B
102
{ACAD_REACTORS
330
47
102
}
330
47
100
AcDbScale
 70
     0
300
1:5
140
1.0
141
5.0
290
     0
  0
SCALE
  5
4C
102
{ACAD_REACTORS
330
47
102
}
330
47
100
AcDbScale
 70
     0
300
1:8
140
1.0
141
8.0
290
     0
  0
SCALE
  5
4D
102
{ACAD_REACTORS
330
47
102
}
330
47
100
AcDbScale
 70
     0
300
1:10
140
1.0
141
10.0
290
     0
  0
SCALE
  5
4E
102
{ACAD_REACTORS
330
47
102
}
330
47
100
AcDbScale
 70
     0
300
1:16
140
1.0
141
16.0
290
     0
  0
SCALE
  5
4F
102
{ACAD_REACTORS
330
47
102
}
330
47
100
AcDbScale
 70
     0
300
1:20
140
1.0
141
20.0
290
     0
  0
SCALE
  5
50
102
{ACAD_REACTORS
330
47
102
}
330
47
100
AcDbScale
 70
     0
300
1:30
140
1.0
141
30.0
290
     0
  0
SCALE
  5
51
102
{ACAD_REACTORS
330
47
102
}
330
47
100
AcDbScale
 70
     0
300
1:40
140
1.0
141
40.0
290
     0
  0
SCALE
  5
52
102
{ACAD_REACTORS
330
47
102
}
330
47
100
AcDbScale
 70
     0
300
1:50
140
1.0
141
50.0
290
     0
  0
SCALE
  5
53
102
{ACAD_REACTORS
330
47
102
}
330
47
100
AcDbScale
 70
     0
300
1:100
140
1.0
141
100.0
290
     0
  0
SCALE
  5
54
102
{ACAD_REACTORS
330
47
102
}
330
47
100
AcDbScale
 70
     0
300
2:1
140
2.0
141
1.0
290
     0
  0
SCALE
  5
55
102
{ACAD_REACTORS
330
47
102
}
330
47
100
AcDbScale
 70
     0
300
4:1
140
4.0
141
1.0
290
     0
  0
SCALE
  5
56
102
{ACAD_REACTORS
330
47
102
}
330
47
100
AcDbScale
 70
     0
300
8:1
140
8.0
141
1.0
290
     0
  0
SCALE
  5
57
102
{ACAD_REACTORS
330
47
102
}
330
47
100
AcDbScale
 70
     0
300
10:1
140
10.0
141
1.0
290
     0
  0
SCALE
  5
58
102
{ACAD_REACTORS
330
47
102
}
330
47
100
AcDbScale
 70
     0
300
100:1
140
100.0
141
1.0
290
     0
  0
TABLESTYLE
  5
5A
102
{ACAD_REACTORS
330
59
102
}
102
{ACAD_XDICTIONARY
360
219
102
}
330
59
100
AcDbTableStyle
  3
Standard
 70
     0
 71
     0
 40
0.06
 41
0.06
280
     0
281
     0
  7
Standard
140
4.5
170
     2
 62
     0
 63
   257
283
     0
274
    -2
284
     1
 64
     0
275
    -2
285
     1
 65
     0
276
    -2
286
     1
 66
     0
277
    -2
287
     1
 67
     0
278
    -2
288
     1
 68
     0
279
    -2
289
     1
 69
     0
  7
Standard
140
6.0
170
     5
 62
     0
 63
   257
283
     0
274
    -2
284
     1
 64
     0
275
    -2
285
     1
 65
     0
276
    -2
286
     1
 66
     0
277
    -2
287
     1
 67
     0
278
    -2
288
     1
 68
     0
279
    -2
289
     1
 69
     0
  7
Standard
140
4.5
170
     5
 62
     0
 63
   257
283
     0
274
    -2
284
     1
 64
     0
275
    -2
285
     1
 65
     0
276
    -2
286
     1
 66
     0
277
    -2
287
     1
 67
     0
278
    -2
288
     1
 68
     0
279
    -2
289
     1
 69
     0
  0
DICTIONARYVAR
  5
218
102
{ACAD_REACTORS
330
217
102
}
330
217
100
DictionaryVariables
280
     0
  1
1:1
  0
DICTIONARYVAR
  5
222
102
{ACAD_REACTORS
330
217
102
}
330
217
100
DictionaryVariables
280
     0
  1
3.500000
  0
DICTIONARYVAR
  5
223
102
{ACAD_REACTORS
330
217
102
}
330
217
100
DictionaryVariables
280
     0
  1
acadiso.lin
  0
DICTIONARYVAR
  5
21F
102
{ACAD_REACTORS
330
217
102
}
330
217
100
DictionaryVariables
280
     0
  1
Standard
  0
DICTIONARYVAR
  5
21E
102
{ACAD_REACTORS
330
217
102
}
330
217
100
DictionaryVariables
280
     0
  1
Standard
  0
DICTIONARY
  5
219
330
5A
100
AcDbDictionary
280
     1
281
     1
  3
ACAD_ROUNDTRIP_2008_TABLESTYLE_CELLSTYLEMAP
360
21B
  3
ACAD_XREC_ROUNDTRIP
360
21A
  0
CELLSTYLEMAP
  5
21B
102
{ACAD_REACTORS
330
219
102
}
330
219
100
AcDbCellStyleMap
 90
        3
300
CELLSTYLE
  1
TABLEFORMAT_BEGIN
 90
        5
170
     1
 91
        0
 92
    32768
 62
   257
 93
        1
300
CONTENTFORMAT
  1
CONTENTFORMAT_BEGIN
 90
        0
 91
        0
 92
        4
 93
        0
300

 40
0.0
140
1.0
 94
        5
 62
     0
340
11
144
6.0
309
CONTENTFORMAT_END
171
     1
301
MARGIN
  1
CELLMARGIN_BEGIN
 40
1.5
 40
1.5
 40
1.5
 40
1.5
 40
1.5
 40
1.5
309
CELLMARGIN_END
 94
        6
 95
        1
302
GRIDFORMAT
  1
GRIDFORMAT_BEGIN
 90
        0
 91
        1
 62
     0
 92
       -2
340
14
 93
        0
 40
0.045
309
GRIDFORMAT_END
 95
        2
302
GRIDFORMAT
  1
GRIDFORMAT_BEGIN
 90
        0
 91
        1
 62
     0
 92
       -2
340
14
 93
        0
 40
0.045
309
GRIDFORMAT_END
 95
        4
302
GRIDFORMAT
  1
GRIDFORMAT_BEGIN
 90
        0
 91
        1
 62
     0
 92
       -2
340
14
 93
        0
 40
0.045
309
GRIDFORMAT_END
 95
        8
302
GRIDFORMAT
  1
GRIDFORMAT_BEGIN
 90
        0
 91
        1
 62
     0
 92
       -2
340
14
 93
        0
 40
0.045
309
GRIDFORMAT_END
 95
       16
302
GRIDFORMAT
  1
GRIDFORMAT_BEGIN
 90
        0
 91
        1
 62
     0
 92
       -2
340
14
 93
        0
 40
0.045
309
GRIDFORMAT_END
 95
       32
302
GRIDFORMAT
  1
GRIDFORMAT_BEGIN
 90
        0
 91
        1
 62
     0
 92
       -2
340
14
 93
        0
 40
0.045
309
GRIDFORMAT_END
309
TABLEFORMAT_END
  1
CELLSTYLE_BEGIN
 90
        1
 91
        1
300
_TITLE
309
CELLSTYLE_END
300
CELLSTYLE
  1
TABLEFORMAT_BEGIN
 90
        5
170
     1
 91
        0
 92
        0
 62
   257
 93
        1
300
CONTENTFORMAT
  1
CONTENTFORMAT_BEGIN
 90
        0
 91
        0
 92
        4
 93
        0
300

 40
0.0
140
1.0
 94
        5
 62
     0
340
11
144
4.5
309
CONTENTFORMAT_END
171
     1
301
MARGIN
  1
CELLMARGIN_BEGIN
 40
1.5
 40
1.5
 40
1.5
 40
1.5
 40
1.5
 40
1.5
309
CELLMARGIN_END
 94
        6
 95
        1
302
GRIDFORMAT
  1
GRIDFORMAT_BEGIN
 90
        0
 91
        1
 62
     0
 92
       -2
340
14
 93
        0
 40
0.045
309
GRIDFORMAT_END
 95
        2
302
GRIDFORMAT
  1
GRIDFORMAT_BEGIN
 90
        0
 91
        1
 62
     0
 92
       -2
340
14
 93
        0
 40
0.045
309
GRIDFORMAT_END
 95
        4
302
GRIDFORMAT
  1
GRIDFORMAT_BEGIN
 90
        0
 91
        1
 62
     0
 92
       -2
340
14
 93
        0
 40
0.045
309
GRIDFORMAT_END
 95
        8
302
GRIDFORMAT
  1
GRIDFORMAT_BEGIN
 90
        0
 91
        1
 62
     0
 92
       -2
340
14
 93
        0
 40
0.045
309
GRIDFORMAT_END
 95
       16
302
GRIDFORMAT
  1
GRIDFORMAT_BEGIN
 90
        0
 91
        1
 62
     0
 92
       -2
340
14
 93
        0
 40
0.045
309
GRIDFORMAT_END
 95
       32
302
GRIDFORMAT
  1
GRIDFORMAT_BEGIN
 90
        0
 91
        1
 62
     0
 92
       -2
340
14
 93
        0
 40
0.045
309
GRIDFORMAT_END
309
TABLEFORMAT_END
  1
CELLSTYLE_BEGIN
 90
        2
 91
        1
300
_HEADER
309
CELLSTYLE_END
300
CELLSTYLE
  1
TABLEFORMAT_BEGIN
 90
        5
170
     1
 91
        0
 92
        0
 62
   257
 93
        1
300
CONTENTFORMAT
  1
CONTENTFORMAT_BEGIN
 90
        0
 91
        0
 92
        4
 93
        0
300

 40
0.0
140
1.0
 94
        2
 62
     0
340
11
144
4.5
309
CONTENTFORMAT_END
171
     1
301
MARGIN
  1
CELLMARGIN_BEGIN
 40
1.5
 40
1.5
 40
1.5
 40
1.5
 40
1.5
 40
1.5
309
CELLMARGIN_END
 94
        6
 95
        1
302
GRIDFORMAT
  1
GRIDFORMAT_BEGIN
 90
        0
 91
        1
 62
     0
 92
       -2
340
14
 93
        0
 40
0.045
309
GRIDFORMAT_END
 95
        2
302
GRIDFORMAT
  1
GRIDFORMAT_BEGIN
 90
        0
 91
        1
 62
     0
 92
       -2
340
14
 93
        0
 40
0.045
309
GRIDFORMAT_END
 95
        4
302
GRIDFORMAT
  1
GRIDFORMAT_BEGIN
 90
        0
 91
        1
 62
     0
 92
       -2
340
14
 93
        0
 40
0.045
309
GRIDFORMAT_END
 95
        8
302
GRIDFORMAT
  1
GRIDFORMAT_BEGIN
 90
        0
 91
        1
 62
     0
 92
       -2
340
14
 93
        0
 40
0.045
309
GRIDFORMAT_END
 95
       16
302
GRIDFORMAT
  1
GRIDFORMAT_BEGIN
 90
        0
 91
        1
 62
     0
 92
       -2
340
14
 93
        0
 40
0.045
309
GRIDFORMAT_END
 95
       32
302
GRIDFORMAT
  1
GRIDFORMAT_BEGIN
 90
        0
 91
        1
 62
     0
 92
       -2
340
14
 93
        0
 40
0.045
309
GRIDFORMAT_END
309
TABLEFORMAT_END
  1
CELLSTYLE_BEGIN
 90
        3
 91
        2
300
_DATA
309
CELLSTYLE_END
  0
XRECORD
  5
21A
102
{ACAD_REACTORS
330
219
102
}
330
219
100
AcDbXrecord
280
     1
102
ACAD_ROUNDTRIP_PRE2007_TABLESTYLE
 90
        4
 91
        0
  1

 92
        4
 93
        0
  2

 94
        4
 95
        0
  3

  0
ENDSEC
  0
EOF
