  0
SECTION
  2
HEADER
  9
$ACADVER
  1
AC1018
  9
$ACADMAINTVER
 70
     0
  9
$DWGCODEPAGE
  3
ANSI_950
  9
$LASTSAVEDBY
  1
R2591
  9
$INSBASE
 10
0.0
 20
0.0
 30
0.0
  9
$EXTMIN
 10
0.0
 20
0.0
 30
0.0
  9
$EXTMAX
 10
297.0
 20
210.0
 30
0.0
  9
$LIMMIN
 10
0.0
 20
0.0
  9
$LIMMAX
 10
297.0
 20
210.0
  9
$ORTHOMODE
 70
     0
  9
$REGENMODE
 70
     1
  9
$FILLMODE
 70
     1
  9
$QTEXTMODE
 70
     0
  9
$MIRRTEXT
 70
     1
  9
$LTSCALE
 40
1.0
  9
$ATTMODE
 70
     1
  9
$TEXTSIZE
 40
2.5
  9
$TRACEWID
 40
1.0
  9
$TEXTSTYLE
  7
Standard
  9
$CLAYER
  8
0
  9
$CELTYPE
  6
ByLayer
  9
$CECOLOR
 62
   256
  9
$CELTSCALE
 40
1.0
  9
$DISPSILH
 70
     0
  9
$DIMSCALE
 40
1.0
  9
$DIMASZ
 40
2.0
  9
$DIMEXO
 40
1.0
  9
$DIMDLI
 40
3.75
  9
$DIMRND
 40
0.0
  9
$DIMDLE
 40
0.0
  9
$DIMEXE
 40
1.0
  9
$DIMTP
 40
0.0
  9
$DIMTM
 40
0.0
  9
$DIMTXT
 40
2.5
  9
$DIMCEN
 40
2.5
  9
$DIMTSZ
 40
0.0
  9
$DIMTOL
 70
     0
  9
$DIMLIM
 70
     0
  9
$DIMTIH
 70
     1
  9
$DIMTOH
 70
     1
  9
$DIMSE1
 70
     0
  9
$DIMSE2
 70
     0
  9
$DIMTAD
 70
     1
  9
$DIMZIN
 70
     0
  9
$DIMBLK
  1

  9
$DIMASO
 70
     1
  9
$DIMSHO
 70
     1
  9
$DIMPOST
  1

  9
$DIMAPOST
  1

  9
$DIMALT
 70
     0
  9
$DIMALTD
 70
     3
  9
$DIMALTF
 40
0.0393700787
  9
$DIMLFAC
 40
1.0
  9
$DIMTOFL
 70
     1
  9
$DIMTVP
 40
0.0
  9
$DIMTIX
 70
     0
  9
$DIMSOXD
 70
     0
  9
$DIMSAH
 70
     0
  9
$DIMBLK1
  1

  9
$DIMBLK2
  1

  9
$DIMSTYLE
  2
ISO-25
  9
$DIMCLRD
 70
     0
  9
$DIMCLRE
 70
     0
  9
$DIMCLRT
 70
     0
  9
$DIMTFAC
 40
1.0
  9
$DIMGAP
 40
1.0
  9
$DIMJUST
 70
     0
  9
$DIMSD1
 70
     0
  9
$DIMSD2
 70
     0
  9
$DIMTOLJ
 70
     0
  9
$DIMTZIN
 70
     0
  9
$DIMALTZ
 70
     0
  9
$DIMALTTZ
 70
     0
  9
$DIMUPT
 70
     0
  9
$DIMDEC
 70
     2
  9
$DIMTDEC
 70
     2
  9
$DIMALTU
 70
     2
  9
$DIMALTTD
 70
     3
  9
$DIMTXSTY
  7
Standard
  9
$DIMAUNIT
 70
     0
  9
$DIMADEC
 70
     1
  9
$DIMALTRND
 40
0.0
  9
$DIMAZIN
 70
     0
  9
$DIMDSEP
 70
    44
  9
$DIMATFIT
 70
     3
  9
$DIMFRAC
 70
     0
  9
$DIMLDRBLK
  1

  9
$DIMLUNIT
 70
     2
  9
$DIMLWD
 70
    -2
  9
$DIMLWE
 70
    -2
  9
$DIMTMOVE
 70
     0
  9
$LUNITS
 70
     2
  9
$LUPREC
 70
     2
  9
$SKETCHINC
 40
1.0
  9
$FILLETRAD
 40
0.0
  9
$AUNITS
 70
     0
  9
$AUPREC
 70
     1
  9
$MENU
  1
.
  9
$ELEVATION
 40
0.0
  9
$PELEVATION
 40
0.0
  9
$THICKNESS
 40
0.0
  9
$LIMCHECK
 70
     0
  9
$CHAMFERA
 40
0.0
  9
$CHAMFERB
 40
0.0
  9
$CHAMFERC
 40
0.0
  9
$CHAMFERD
 40
0.0
  9
$SKPOLY
 70
     0
  9
$TDCREATE
 40
2460315.636169676
  9
$TDUCREATE
 40
2460315.302836343
  9
$TDUPDATE
 40
2460315.636174572
  9
$TDUUPDATE
 40
2460315.302841238
  9
$TDINDWG
 40
0.0000000116
  9
$TDUSRTIMER
 40
0.0000000116
  9
$USRTIMER
 70
     1
  9
$ANGBASE
 50
0.0
  9
$ANGDIR
 70
     0
  9
$PDMODE
 70
     0
  9
$PDSIZE
 40
-1.0
  9
$PLINEWID
 40
0.0
  9
$SPLFRAME
 70
     0
  9
$SPLINETYPE
 70
     6
  9
$SPLINESEGS
 70
     8
  9
$HANDSEED
  5
224
  9
$SURFTAB1
 70
     6
  9
$SURFTAB2
 70
     6
  9
$SURFTYPE
 70
     6
  9
$SURFU
 70
     6
  9
$SURFV
 70
     6
  9
$UCSBASE
  2

  9
$UCSNAME
  2

  9
$UCSORG
 10
0.0
 20
0.0
 30
0.0
  9
$UCSXDIR
 10
1.0
 20
0.0
 30
0.0
  9
$UCSYDIR
 10
0.0
 20
1.0
 30
0.0
  9
$UCSORTHOREF
  2

  9
$UCSORTHOVIEW
 70
     0
  9
$UCSORGTOP
 10
0.0
 20
0.0
 30
0.0
  9
$UCSORGBOTTOM
 10
0.0
 20
0.0
 30
0.0
  9
$UCSORGLEFT
 10
0.0
 20
0.0
 30
0.0
  9
$UCSORGRIGHT
 10
0.0
 20
0.0
 30
0.0
  9
$UCSORGFRONT
 10
0.0
 20
0.0
 30
0.0
  9
$UCSORGBACK
 10
0.0
 20
0.0
 30
0.0
  9
$PUCSBASE
  2

  9
$PUCSNAME
  2

  9
$PUCSORG
 10
0.0
 20
0.0
 30
0.0
  9
$PUCSXDIR
 10
1.0
 20
0.0
 30
0.0
  9
$PUCSYDIR
 10
0.0
 20
1.0
 30
0.0
  9
$PUCSORTHOREF
  2

  9
$PUCSORTHOVIEW
 70
     0
  9
$PUCSORGTOP
 10
0.0
 20
0.0
 30
0.0
  9
$PUCSORGBOTTOM
 10
0.0
 20
0.0
 30
0.0
  9
$PUCSORGLEFT
 10
0.0
 20
0.0
 30
0.0
  9
$PUCSORGRIGHT
 10
0.0
 20
0.0
 30
0.0
  9
$PUCSORGFRONT
 10
0.0
 20
0.0
 30
0.0
  9
$PUCSORGBACK
 10
0.0
 20
0.0
 30
0.0
  9
$USERI1
 70
     0
  9
$USERI2
 70
     0
  9
$USERI3
 70
     0
  9
$USERI4
 70
     0
  9
$USERI5
 70
     0
  9
$USERR1
 40
0.0
  9
$USERR2
 40
0.0
  9
$USERR3
 40
0.0
  9
$USERR4
 40
0.0
  9
$USERR5
 40
0.0
  9
$WORLDVIEW
 70
     1
  9
$SHADEDGE
 70
     3
  9
$SHADEDIF
 70
    70
  9
$TILEMODE
 70
     1
  9
$MAXACTVP
 70
    64
  9
$PINSBASE
 10
0.0
 20
0.0
 30
0.0
  9
$PLIMCHECK
 70
     0
  9
$PEXTMIN
 10
1.0000000000E+20
 20
1.0000000000E+20
 30
1.0000000000E+20
  9
$PEXTMAX
 10
-1.0000000000E+20
 20
-1.0000000000E+20
 30
-1.0000000000E+20
  9
$PLIMMIN
 10
0.0
 20
0.0
  9
$PLIMMAX
 10
420.0
 20
297.0
  9
$UNITMODE
 70
     0
  9
$VISRETAIN
 70
     1
  9
$PLINEGEN
 70
     0
  9
$PSLTSCALE
 70
     1
  9
$TREEDEPTH
 70
  3020
  9
$CMLSTYLE
  2
Standard
  9
$CMLJUST
 70
     0
  9
$CMLSCALE
 40
20.0
  9
$PROXYGRAPHICS
 70
     1
  9
$MEASUREMENT
 70
     1
  9
$CELWEIGHT
370
    -1
  9
$ENDCAPS
280
     0
  9
$JOINSTYLE
280
     0
  9
$LWDISPLAY
290
     1
  9
$INSUNITS
 70
     4
  9
$HYPERLINKBASE
  1

  9
$STYLESHEET
  1

  9
$XEDIT
290
     1
  9
$CEPSNTYPE
380
     0
  9
$PSTYLEMODE
290
     1
  9
$FINGERPRINTGUID
  2
{26aff371-afd5-4401-b423-3ca4200d0ff0}
  9
$VERSIONGUID
  2
{FAEB1C32-E019-11D5-929B-00C0DF256EC4}
  9
$EXTNAMES
290
     1
  9
$PSVPSCALE
 40
0.0
  9
$OLESTARTUP
290
     0
  9
$SORTENTS
280
   127
  9
$INDEXCTL
280
     0
  9
$HIDETEXT
280
     1
  9
$XCLIPFRAME
290
     0
  9
$HALOGAP
280
     0
  9
$OBSCOLOR
 70
   257
  9
$OBSLTYPE
280
     0
  9
$INTERSECTIONDISPLAY
280
     0
  9
$INTERSECTIONCOLOR
 70
   257
  9
$DIMASSOC
280
     2
  9
$PROJECTNAME
  1

  0
ENDSEC
  0
SECTION
  2
CLASSES
  0
CLASS
  1
ACDBDICTIONARYWDFLT
  2
AcDbDictionaryWithDefault
  3
ObjectDBX Classes
 90
        0
 91
        3
280
     0
281
     0
  0
CLASS
  1
VISUALSTYLE
  2
AcDbVisualStyle
  3
ObjectDBX Classes
 90
     4095
 91
        3
280
     0
281
     0
  0
CLASS
  1
MATERIAL
  2
AcDbMaterial
  3
ObjectDBX Classes
 90
     1153
 91
        3
280
     0
281
     0
  0
CLASS
  1
SCALE
  2
AcDbScale
  3
ObjectDBX Classes
 90
     1153
 91
        3
280
     0
281
     0
  0
CLASS
  1
TABLESTYLE
  2
AcDbTableStyle
  3
ObjectDBX Classes
 90
     4095
 91
        3
280
     0
281
     0
  0
CLASS
  1
MLEADERSTYLE
  2
AcDbMLeaderStyle
  3
ACDB_MLEADERSTYLE_CLASS
 90
     4095
 91
        3
280
     0
281
     0
  0
CLASS
  1
SUN
  2
AcDbSun
  3
SCENEOE
 90
     1153
 91
        3
280
     0
281
     0
  0
CLASS
  1
DICTIONARYVAR
  2
AcDbDictionaryVar
  3
ObjectDBX Classes
 90
        0
 91
        3
280
     0
281
     0
  0
CLASS
  1
CELLSTYLEMAP
  2
AcDbCellStyleMap
  3
ObjectDBX Classes
 90
     1152
 91
        3
280
     0
281
     0
  0
ENDSEC
  0
SECTION
  2
TABLES
  0
TABLE
  2
VPORT
  5
8
330
0
100
AcDbSymbolTable
 70
     1
  0
VPORT
  5
29
330
8
100
AcDbSymbolTableRecord
100
AcDbViewportTableRecord
  2
*Active
 70
     0
 10
0.0
 20
0.0
 11
1.0
 21
1.0
 12
148.5
 22
105.0
 13
0.0
 23
0.0
 14
10.0
 24
10.0
 15
10.0
 25
10.0
 16
0.0
 26
0.0
 36
1.0
 17
0.0
 27
0.0
 37
0.0
 40
210.0
 41
1.4142857143
 42
50.0
 43
0.0
 44
0.0
 50
0.0
 51
0.0
 71
     0
 72
  2000
 73
     1
 74
     3
 75
     0
 76
     0
 77
     0
 78
     0
281
     0
 65
     1
110
0.0
120
0.0
130
0.0
111
1.0
121
0.0
131
0.0
112
0.0
122
1.0
132
0.0
 79
     0
146
0.0
  0
ENDTAB
  0
TABLE
  2
LTYPE
  5
5
330
0
100
AcDbSymbolTable
 70
     6
  0
LTYPE
  5
14
330
5
100
AcDbSymbolTableRecord
100
AcDbLinetypeTableRecord
  2
ByBlock
 70
     0
  3

 72
    65
 73
     0
 40
0.0
  0
LTYPE
  5
15
330
5
100
AcDbSymbolTableRecord
100
AcDbLinetypeTableRecord
  2
ByLayer
 70
     0
  3

 72
    65
 73
     0
 40
0.0
  0
LTYPE
  5
16
330
5
100
AcDbSymbolTableRecord
100
AcDbLinetypeTableRecord
  2
Continuous
 70
     0
  3
Solid line
 72
    65
 73
     0
 40
0.0
  0
LTYPE
  5
5E
330
5
100
AcDbSymbolTableRecord
100
AcDbLinetypeTableRecord
  2
HIDDEN
 70
     0
  3
Hidden __ __ __ __ __ __ __ __ __ __ __ __ __ __
 72
    65
 73
     2
 40
1.905
 49
1.27
 74
     0
 49
-0.635
 74
     0
  0
LTYPE
  5
5F
330
5
100
AcDbSymbolTableRecord
100
AcDbLinetypeTableRecord
  2
PHANTOM
 70
     0
  3
Phantom ______  __  __  ______  __  __  ______
 72
    65
 73
     6
 40
12.7
 49
6.35
 74
     0
 49
-1.27
 74
     0
 49
1.27
 74
     0
 49
-1.27
 74
     0
 49
1.27
 74
     0
 49
-1.27
 74
     0
  0
LTYPE
  5
60
330
5
100
AcDbSymbolTableRecord
100
AcDbLinetypeTableRecord
  2
CENTER
 70
     0
  3
Center ____ _ ____ _ ____ _ ____ _ ____ _ ____
 72
    65
 73
     4
 40
10.16
 49
6.35
 74
     0
 49
-1.27
 74
     0
 49
1.27
 74
     0
 49
-1.27
 74
     0
  0
LTYPE
  5
61
330
5
100
AcDbSymbolTableRecord
100
AcDbLinetypeTableRecord
  2
CENTERX2
 70
     0
  3
Center (2x) ________  __  ________  __  _____
 72
    65
 73
     4
 40
20.32
 49
12.7
 74
     0
 49
-2.54
 74
     0
 49
2.54
 74
     0
 49
-2.54
 74
     0
  0
LTYPE
  5
62
330
5
100
AcDbSymbolTableRecord
100
AcDbLinetypeTableRecord
  2
DOT2
 70
     0
  3
Dot (.5x) ........................................
 72
    65
 73
     2
 40
0.635
 49
0.0
 74
     0
 49
-0.635
 74
     0
  0
ENDTAB
  0
TABLE
  2
LAYER
  5
2
330
0
100
AcDbSymbolTable
 70
     3
  0
LAYER
  5
10
330
2
100
AcDbSymbolTableRecord
100
AcDbLayerTableRecord
  2
0
 70
     0
 62
     7
  6
Continuous
370
    -3
390
F
  0
LAYER
  5
63
330
2
100
AcDbSymbolTableRecord
100
AcDbLayerTableRecord
  2
SLD-0
 70
     0
 62
     7
  6
Continuous
370
    25
390
F
  0
LAYER
  5
64
330
2
100
AcDbSymbolTableRecord
100
AcDbLayerTableRecord
  2
DIM
 70
     0
 62
     7
  6
Continuous
370
    -3
390
F
  0
ENDTAB
  0
TABLE
  2
STYLE
  5
3
330
0
100
AcDbSymbolTable
 70
     2
  0
STYLE
  5
11
330
3
100
AcDbSymbolTableRecord
100
AcDbTextStyleTableRecord
  2
Standard
 70
     0
 40
0.0
 41
1.0
 50
0.0
 71
     0
 42
2.5
  3
txt
  4

  0
STYLE
  5
B5
330
3
100
AcDbSymbolTableRecord
100
AcDbTextStyleTableRecord
  2
SLDTEXTSTYLE0
 70
     0
 40
0.0
 41
0.605
 50
0.0
 71
     0
 42
2.5
  3
TXT
  4

  0
ENDTAB
  0
TABLE
  2
VIEW
  5
6
330
0
100
AcDbSymbolTable
 70
     0
  0
ENDTAB
  0
TABLE
  2
UCS
  5
7
330
0
100
AcDbSymbolTable
 70
     0
  0
ENDTAB
  0
TABLE
  2
APPID
  5
9
330
0
100
AcDbSymbolTable
 70
     2
  0
APPID
  5
12
330
9
100
AcDbSymbolTableRecord
100
AcDbRegAppTableRecord
  2
ACAD
 70
     0
  0
APPID
  5
21C
330
9
100
AcDbSymbolTableRecord
100
AcDbRegAppTableRecord
  2
ACAD_MLEADERVER
 70
     0
  0
ENDTAB
  0
TABLE
  2
DIMSTYLE
  5
A
330
0
100
AcDbSymbolTable
 70
     4
100
AcDbDimStyleTable
  0
DIMSTYLE
105
27
330
A
100
AcDbSymbolTableRecord
100
AcDbDimStyleTableRecord
  2
ISO-25
 70
     0
 41
2.5
 42
0.625
 43
3.75
 44
1.25
 73
     0
 74
     0
 77
     1
 78
     8
140
2.5
141
2.5
143
0.0393700787
147
0.625
171
     3
172
     1
178
     0
271
     2
272
     2
274
     3
278
    44
283
     0
284
     8
340
11
  0
DIMSTYLE
105
11D
102
{ACAD_REACTORS
330
11C
330
127
330
1E8
330
1F2
102
}
330
A
100
AcDbSymbolTableRecord
100
AcDbDimStyleTableRecord
  2
SLDDIMSTYLE0
 70
     0
 41
2.0
 44
0.0
 45
0.000000001
 73
     0
 74
     0
 77
     1
 78
    12
 79
     3
140
2.5
147
0.625
173
     1
178
     0
271
     2
272
     2
276
     2
284
    12
340
B5
  0
DIMSTYLE
105
132
102
{ACAD_REACTORS
330
131
102
}
330
A
100
AcDbSymbolTableRecord
100
AcDbDimStyleTableRecord
  2
SLDDIMSTYLE1
 70
     0
 41
2.0
 44
0.0
 45
0.000000001
 78
    12
 79
     3
140
2.5
141
0.0
147
0.625
172
     1
173
     1
178
     0
271
     2
272
     2
276
     2
284
    12
340
B5
  0
DIMSTYLE
105
149
330
A
100
AcDbSymbolTableRecord
100
AcDbDimStyleTableRecord
  2
SLDDIMSTYLE2
 70
     0
 41
2.0
 44
0.0
 45
0.000000001
146
2.0
147
0.0
173
     1
178
     0
271
     0
272
     0
276
     2
340
11
  0
ENDTAB
  0
TABLE
  2
BLOCK_RECORD
  5
1
330
0
100
AcDbSymbolTable
 70
    10
  0
BLOCK_RECORD
  5
1F
330
1
100
AcDbSymbolTableRecord
100
AcDbBlockTableRecord
  2
*Model_Space
340
22
  0
BLOCK_RECORD
  5
1B
330
1
100
AcDbSymbolTableRecord
100
AcDbBlockTableRecord
  2
*Paper_Space
340
1E
  0
BLOCK_RECORD
  5
23
330
1
100
AcDbSymbolTableRecord
100
AcDbBlockTableRecord
  2
*Paper_Space0
340
26
  0
BLOCK_RECORD
  5
11E
330
1
100
AcDbSymbolTableRecord
100
AcDbBlockTableRecord
  2
_D
340
0
  0
BLOCK_RECORD
  5
128
330
1
100
AcDbSymbolTableRecord
100
AcDbBlockTableRecord
  2
_D_1
340
0
  0
BLOCK_RECORD
  5
133
330
1
100
AcDbSymbolTableRecord
100
AcDbBlockTableRecord
  2
_D_2
340
0
  0
BLOCK_RECORD
  5
13E
330
1
100
AcDbSymbolTableRecord
100
AcDbBlockTableRecord
  2
SW_NOTE_0
340
0
102
{BLKREFS
331
148
102
}
  0
BLOCK_RECORD
  5
14B
330
1
100
AcDbSymbolTableRecord
100
AcDbBlockTableRecord
  2
SW_CENTERMARKSYMBOL_0
340
0
102
{BLKREFS
331
156
102
}
  0
BLOCK_RECORD
  5
1E9
330
1
100
AcDbSymbolTableRecord
100
AcDbBlockTableRecord
  2
_D_3
340
0
  0
BLOCK_RECORD
  5
1F3
330
1
100
AcDbSymbolTableRecord
100
AcDbBlockTableRecord
  2
_D_4
340
0
  0
BLOCK_RECORD
  5
1FC
330
1
100
AcDbSymbolTableRecord
100
AcDbBlockTableRecord
  2
SW_NOTE_0_1
340
0
102
{BLKREFS
331
207
102
}
  0
BLOCK_RECORD
  5
209
330
1
100
AcDbSymbolTableRecord
100
AcDbBlockTableRecord
  2
SW_NOTE_0_2
340
0
102
{BLKREFS
331
214
102
}
  0
ENDTAB
  0
ENDSEC
  0
SECTION
  2
BLOCKS
  0
BLOCK
  5
20
330
1F
100
AcDbEntity
  8
0
100
AcDbBlockBegin
  2
*Model_Space
 70
     0
 10
0.0
 20
0.0
 30
0.0
  3
*Model_Space
  1

  0
ENDBLK
  5
21
330
1F
100
AcDbEntity
  8
0
100
AcDbBlockEnd
  0
BLOCK
  5
1C
330
1B
100
AcDbEntity
 67
     1
  8
0
100
AcDbBlockBegin
  2
*Paper_Space
 70
     0
 10
0.0
 20
0.0
 30
0.0
  3
*Paper_Space
  1

  0
ENDBLK
  5
1D
330
1B
100
AcDbEntity
 67
     1
  8
0
100
AcDbBlockEnd
  0
BLOCK
  5
24
330
23
100
AcDbEntity
  8
0
100
AcDbBlockBegin
  2
*Paper_Space0
 70
     0
 10
0.0
 20
0.0
 30
0.0
  3
*Paper_Space0
  1

  0
ENDBLK
  5
25
330
23
100
AcDbEntity
  8
0
100
AcDbBlockEnd
  0
BLOCK
  5
11F
330
11E
100
AcDbEntity
  8
0
100
AcDbBlockBegin
  2
_D
 70
     0
 10
0.0
 20
0.0
 30
0.0
  3
_D
  1

  0
SOLID
  5
121
330
11E
100
AcDbEntity
  8
SLD-0
 62
     7
100
AcDbTrace
 10
77.1498611443
 20
58.2222725143
 30
0.0
 11
79.1498611443
 21
57.9722725143
 31
0.0
 12
79.1498611443
 22
58.4722725143
 32
0.0
 13
79.1498611443
 23
58.4722725143
 33
0.0
  0
SOLID
  5
122
330
11E
100
AcDbEntity
  8
SLD-0
 62
     7
100
AcDbTrace
 10
138.1494059478
 20
58.2222725143
 30
0.0
 11
136.1494059478
 21
58.4722725143
 31
0.0
 12
136.1494059478
 22
57.9722725143
 32
0.0
 13
136.1494059478
 23
57.9722725143
 33
0.0
  0
LINE
  5
123
330
11E
100
AcDbEntity
  8
SLD-0
 62
     7
100
AcDbLine
 10
77.1498611443
 20
106.5569036999
 30
0.0
 11
77.1498611443
 21
57.2222725143
 31
0.0
  0
LINE
  5
124
330
11E
100
AcDbEntity
  8
SLD-0
 62
     7
100
AcDbLine
 10
138.1494059478
 20
106.5569036999
 30
0.0
 11
138.1494059478
 21
57.2222725143
 31
0.0
  0
LINE
  5
125
330
11E
100
AcDbEntity
  8
SLD-0
 62
     7
100
AcDbLine
 10
77.1498611443
 20
58.2222725143
 30
0.0
 11
138.1494059478
 21
58.2222725143
 31
0.0
  0
MTEXT
  5
126
330
11E
100
AcDbEntity
  8
SLD-0
 62
     7
100
AcDbMText
 10
105.7399113212
 20
61.4449416891
 30
0.0
 40
2.5
 41
0.0
 71
     1
 72
     1
  1
61
  7
SLDTEXTSTYLE0
 73
     1
 44
1.0
  0
ENDBLK
  5
120
330
11E
100
AcDbEntity
  8
0
100
AcDbBlockEnd
  0
BLOCK
  5
129
330
128
100
AcDbEntity
  8
0
100
AcDbBlockBegin
  2
_D_1
 70
     0
 10
0.0
 20
0.0
 30
0.0
  3
_D_1
  1

  0
SOLID
  5
12B
330
128
100
AcDbEntity
  8
SLD-0
 62
     7
100
AcDbTrace
 10
148.0576479526
 20
140.9390756897
 30
0.0
 11
147.8076479526
 21
138.9390756897
 31
0.0
 12
148.3076479526
 22
138.9390756897
 32
0.0
 13
148.3076479526
 23
138.9390756897
 33
0.0
  0
SOLID
  5
12C
330
128
100
AcDbEntity
  8
SLD-0
 62
     7
100
AcDbTrace
 10
148.0576479526
 20
70.9390756897
 30
0.0
 11
148.3076479526
 21
72.9390756897
 31
0.0
 12
147.8076479526
 22
72.9390756897
 32
0.0
 13
147.8076479526
 23
72.9390756897
 33
0.0
  0
LINE
  5
12D
330
128
100
AcDbEntity
  8
SLD-0
 62
     7
100
AcDbLine
 10
114.9484324762
 20
140.9390756897
 30
0.0
 11
149.0576479526
 21
140.9390756897
 31
0.0
  0
LINE
  5
12E
330
128
100
AcDbEntity
  8
SLD-0
 62
     7
100
AcDbLine
 10
116.8141166729
 20
70.9390756897
 30
0.0
 11
149.0576479526
 21
70.9390756897
 31
0.0
  0
LINE
  5
12F
330
128
100
AcDbEntity
  8
SLD-0
 62
     7
100
AcDbLine
 10
148.0576479526
 20
140.9390756897
 30
0.0
 11
148.0576479526
 21
70.9390756897
 31
0.0
  0
MTEXT
  5
130
330
128
100
AcDbEntity
  8
SLD-0
 62
     7
100
AcDbMText
 10
144.8349787778
 20
104.0293534649
 30
0.0
 40
2.5
 41
0.0
 71
     1
 72
     1
  1
70
  7
SLDTEXTSTYLE0
 11
-7.044195017643634E-15
 21
1.0
 31
0.0
 73
     1
 44
1.0
  0
ENDBLK
  5
12A
330
128
100
AcDbEntity
  8
0
100
AcDbBlockEnd
  0
BLOCK
  5
134
330
133
100
AcDbEntity
  8
0
100
AcDbBlockBegin
  2
_D_2
 70
     0
 10
0.0
 20
0.0
 30
0.0
  3
_D_2
  1

  0
SOLID
  5
136
330
133
100
AcDbEntity
  8
SLD-0
100
AcDbTrace
 10
122.4863796212
 20
124.0201934415
 30
0.0
 11
120.9664348307
 21
122.6964609029
 31
0.0
 12
121.3390442184
 22
122.3630508787
 32
0.0
 13
121.3390442184
 23
122.3630508787
 33
0.0
  0
SOLID
  5
137
330
133
100
AcDbEntity
  8
SLD-0
100
AcDbTrace
 10
92.8128874709
 20
90.8579579378
 30
0.0
 11
94.3328322614
 21
92.1816904765
 31
0.0
 12
93.9602228737
 22
92.5151005006
 32
0.0
 13
93.9602228737
 23
92.5151005006
 33
0.0
  0
LINE
  5
138
330
133
100
AcDbEntity
  8
SLD-0
100
AcDbLine
 10
92.8128874709
 20
90.8579579378
 30
0.0
 11
66.7850505455
 21
61.7700011378
 31
0.0
  0
LINE
  5
139
330
133
100
AcDbEntity
  8
SLD-0
100
AcDbLine
 10
122.4863796212
 20
124.0201934415
 30
0.0
 11
92.8128874709
 21
90.8579579378
 31
0.0
  0
LINE
  5
13A
330
133
100
AcDbEntity
  8
SLD-0
100
AcDbLine
 10
66.7850505455
 20
61.7700011378
 30
0.0
 11
48.5255017026
 21
61.7700011378
 31
0.0
  0
MTEXT
  5
13B
330
133
100
AcDbEntity
  8
SLD-0
100
AcDbMText
 10
48.5255017026
 20
64.9996147194
 30
0.0
 40
2.5
 41
0.0
 71
     1
 72
     1
  1
C.A.
  7
SLDTEXTSTYLE0
 73
     1
 44
1.0
  0
MTEXT
  5
13C
330
133
100
AcDbEntity
  8
SLD-0
100
AcDbMText
 10
55.2060573443
 20
64.9926702544
 30
0.0
 40
2.5
 41
0.0
 71
     1
 72
     1
  1
%%c
  7
SLDTEXTSTYLE0
 73
     1
 44
1.0
  0
MTEXT
  5
13D
330
133
100
AcDbEntity
  8
SLD-0
100
AcDbMText
 10
58.8510229333
 20
64.9996147194
 30
0.0
 40
2.5
 41
0.0
 71
     1
 72
     1
  1
44.5
  7
SLDTEXTSTYLE0
 73
     1
 44
1.0
  0
ENDBLK
  5
135
330
133
100
AcDbEntity
  8
0
100
AcDbBlockEnd
  0
BLOCK
  5
13F
330
13E
100
AcDbEntity
  8
0
100
AcDbBlockBegin
  2
SW_NOTE_0
 70
     0
 10
0.0
 20
0.0
 30
0.0
  3
SW_NOTE_0
  1

  0
LINE
  5
141
330
13E
100
AcDbEntity
  8
SLD-0
 62
     0
100
AcDbLine
 10
-54.6852066232
 20
0.0
 30
0.0
 11
0.0
 21
0.0
 31
0.0
  0
MTEXT
  5
142
330
13E
100
AcDbEntity
  8
SLD-0
 62
     0
100
AcDbMText
 10
-55.1719028121
 20
15.743830165
 30
0.0
 40
2.38125
 41
0.0
 71
     1
 72
     1
  1
ACCEPTS
  7
SLDTEXTSTYLE0
 73
     1
 44
1.0
  0
MTEXT
  5
143
330
13E
100
AcDbEntity
  8
SLD-0
 62
     0
100
AcDbMText
 10
-55.1719028121
 20
11.5143506956
 30
0.0
 40
2.38125
 41
0.0
 71
     1
 72
     1
  1
%%c
  7
SLDTEXTSTYLE0
 73
     1
 44
1.0
  0
MTEXT
  5
144
330
13E
100
AcDbEntity
  8
SLD-0
 62
     0
100
AcDbMText
 10
-51.7995677041
 20
11.5143506956
 30
0.0
 40
2.38125
 41
0.0
 71
     1
 72
     1
  1
1" OPTICS
  7
SLDTEXTSTYLE0
 73
     1
 44
1.0
  0
MTEXT
  5
145
330
13E
100
AcDbEntity
  8
SLD-0
 62
     0
100
AcDbMText
 10
-55.1719028121
 20
7.3393508029
 30
0.0
 40
2.38125
 41
0.0
 71
     1
 72
     1
  1
Max.THK
  7
SLDTEXTSTYLE0
 73
     1
 44
1.0
  0
MTEXT
  5
146
330
13E
100
AcDbEntity
  8
SLD-0
 62
     0
100
AcDbMText
 10
-41.0052357233
 20
7.4379484278
 30
0.0
 40
2.5
 41
0.0
 71
     1
 72
     1
  1
9.5
  7
SLDTEXTSTYLE0
 73
     1
 44
1.0
  0
MTEXT
  5
147
330
13E
100
AcDbEntity
  8
SLD-0
 62
     0
100
AcDbMText
 10
-55.1719028121
 20
3.1098713335
 30
0.0
 40
2.38125
 41
0.0
 71
     1
 72
     1
  1
SM2 (2.035"-40N) RETANIING RINGS
  7
SLDTEXTSTYLE0
 73
     1
 44
1.0
  0
ENDBLK
  5
140
330
13E
100
AcDbEntity
  8
0
100
AcDbBlockEnd
  0
BLOCK
  5
14C
330
14B
100
AcDbEntity
  8
0
100
AcDbBlockBegin
  2
SW_CENTERMARKSYMBOL_0
 70
     0
 10
0.0
 20
0.0
 30
0.0
  3
SW_CENTERMARKSYMBOL_0
  1

  0
LINE
  5
14E
330
14B
100
AcDbEntity
  8
SLD-0
 62
     0
100
AcDbLine
 10
0.0
 20
0.0
 30
0.0
 11
0.0
 21
1.0
 31
0.0
  0
LINE
  5
14F
330
14B
100
AcDbEntity
  8
SLD-0
 62
     0
100
AcDbLine
 10
0.0
 20
0.0
 30
0.0
 11
-1.0
 21
0.0
 31
0.0
  0
LINE
  5
150
330
14B
100
AcDbEntity
  8
SLD-0
 62
     0
100
AcDbLine
 10
0.0
 20
0.0
 30
0.0
 11
0.0
 21
-1.0
 31
0.0
  0
LINE
  5
151
330
14B
100
AcDbEntity
  8
SLD-0
 62
     0
100
AcDbLine
 10
0.0
 20
0.0
 30
0.0
 11
1.0
 21
0.0
 31
0.0
  0
LINE
  5
152
330
14B
100
AcDbEntity
  8
SLD-0
 62
     0
100
AcDbLine
 10
0.0
 20
2.0
 30
0.0
 11
0.0
 21
23.25
 31
0.0
  0
LINE
  5
153
330
14B
100
AcDbEntity
  8
SLD-0
 62
     0
100
AcDbLine
 10
-2.0
 20
0.0
 30
0.0
 11
-23.25
 21
0.0
 31
0.0
  0
LINE
  5
154
330
14B
100
AcDbEntity
  8
SLD-0
 62
     0
100
AcDbLine
 10
0.0
 20
-2.0
 30
0.0
 11
0.0
 21
-23.25
 31
0.0
  0
LINE
  5
155
330
14B
100
AcDbEntity
  8
SLD-0
 62
     0
100
AcDbLine
 10
2.0
 20
0.0
 30
0.0
 11
23.25
 21
0.0
 31
0.0
  0
ENDBLK
  5
14D
330
14B
100
AcDbEntity
  8
0
100
AcDbBlockEnd
  0
BLOCK
  5
1EA
330
1E9
100
AcDbEntity
  8
0
100
AcDbBlockBegin
  2
_D_3
 70
     0
 10
0.0
 20
0.0
 30
0.0
  3
_D_3
  1

  0
SOLID
  5
1EC
330
1E9
100
AcDbEntity
  8
SLD-0
 62
     7
100
AcDbTrace
 10
183.3096148122
 20
60.2529825165
 30
0.0
 11
185.3096148122
 21
60.0029825165
 31
0.0
 12
185.3096148122
 22
60.5029825165
 32
0.0
 13
185.3096148122
 23
60.5029825165
 33
0.0
  0
SOLID
  5
1ED
330
1E9
100
AcDbEntity
  8
SLD-0
 62
     7
100
AcDbTrace
 10
190.8096148122
 20
60.2529825165
 30
0.0
 11
188.8096148122
 21
60.5029825165
 31
0.0
 12
188.8096148122
 22
60.0029825165
 32
0.0
 13
188.8096148122
 23
60.0029825165
 33
0.0
  0
LINE
  5
1EE
330
1E9
100
AcDbEntity
  8
SLD-0
 62
     7
100
AcDbLine
 10
183.3096148122
 20
70.9390756897
 30
0.0
 11
183.3096148122
 21
59.2529825165
 31
0.0
  0
LINE
  5
1EF
330
1E9
100
AcDbEntity
  8
SLD-0
 62
     7
100
AcDbLine
 10
190.8096148122
 20
68.9390756897
 30
0.0
 11
190.8096148122
 21
59.2529825165
 31
0.0
  0
LINE
  5
1F0
330
1E9
100
AcDbEntity
  8
SLD-0
 62
     7
100
AcDbLine
 10
183.3096148122
 20
60.2529825165
 30
0.0
 11
190.8096148122
 21
60.2529825165
 31
0.0
  0
MTEXT
  5
1F1
330
1E9
100
AcDbEntity
  8
SLD-0
 62
     7
100
AcDbMText
 10
184.6724620603
 20
63.4756516913
 30
0.0
 40
2.5
 41
0.0
 71
     1
 72
     1
  1
7.5
  7
SLDTEXTSTYLE0
 73
     1
 44
1.0
  0
ENDBLK
  5
1EB
330
1E9
100
AcDbEntity
  8
0
100
AcDbBlockEnd
  0
BLOCK
  5
1F4
330
1F3
100
AcDbEntity
  8
0
100
AcDbBlockBegin
  2
_D_4
 70
     0
 10
0.0
 20
0.0
 30
0.0
  3
_D_4
  1

  0
SOLID
  5
1F6
330
1F3
100
AcDbEntity
  8
SLD-0
 62
     7
100
AcDbTrace
 10
183.3096148122
 20
52.3693073704
 30
0.0
 11
185.3096148122
 21
52.1193073704
 31
0.0
 12
185.3096148122
 22
52.6193073704
 32
0.0
 13
185.3096148122
 23
52.6193073704
 33
0.0
  0
SOLID
  5
1F7
330
1F3
100
AcDbEntity
  8
SLD-0
 62
     7
100
AcDbTrace
 10
198.3096148122
 20
52.3693073704
 30
0.0
 11
196.3096148122
 21
52.6193073704
 31
0.0
 12
196.3096148122
 22
52.1193073704
 32
0.0
 13
196.3096148122
 23
52.1193073704
 33
0.0
  0
LINE
  5
1F8
330
1F3
100
AcDbEntity
  8
SLD-0
 62
     7
100
AcDbLine
 10
183.3096148122
 20
70.9390756897
 30
0.0
 11
183.3096148122
 21
51.3693073704
 31
0.0
  0
LINE
  5
1F9
330
1F3
100
AcDbEntity
  8
SLD-0
 62
     7
100
AcDbLine
 10
198.3096148122
 20
70.9390756897
 30
0.0
 11
198.3096148122
 21
51.3693073704
 31
0.0
  0
LINE
  5
1FA
330
1F3
100
AcDbEntity
  8
SLD-0
 62
     7
100
AcDbLine
 10
183.3096148122
 20
52.3693073704
 30
0.0
 11
198.3096148122
 21
52.3693073704
 31
0.0
  0
MTEXT
  5
1FB
330
1F3
100
AcDbEntity
  8
SLD-0
 62
     7
100
AcDbMText
 10
188.8998925874
 20
55.5919765452
 30
0.0
 40
2.5
 41
0.0
 71
     1
 72
     1
  1
15
  7
SLDTEXTSTYLE0
 73
     1
 44
1.0
  0
ENDBLK
  5
1F5
330
1F3
100
AcDbEntity
  8
0
100
AcDbBlockEnd
  0
BLOCK
  5
1FD
330
1FC
100
AcDbEntity
  8
0
100
AcDbBlockBegin
  2
SW_NOTE_0_1
 70
     0
 10
0.0
 20
0.0
 30
0.0
  3
SW_NOTE_0_1
  1

  0
LINE
  5
1FF
330
1FC
100
AcDbEntity
  8
SLD-0
 62
     0
100
AcDbLine
 10
-13.2596685083
 20
0.0
 30
0.0
 11
0.0
 21
0.0
 31
0.0
  0
LINE
  5
200
330
1FC
100
AcDbEntity
  8
SLD-0
 62
     0
100
AcDbLine
 10
0.0
 20
0.0
 30
0.0
 11
-13.2596685083
 21
0.0
 31
0.0
  0
LINE
  5
201
330
1FC
100
AcDbEntity
  8
SLD-0
 62
     0
100
AcDbLine
 10
-13.2596685083
 20
0.0
 30
0.0
 11
0.0
 21
0.0
 31
0.0
  0
LINE
  5
202
330
1FC
100
AcDbEntity
  8
SLD-0
 62
     0
100
AcDbLine
 10
0.0
 20
0.0
 30
0.0
 11
-13.2596685083
 21
0.0
 31
0.0
  0
LINE
  5
203
330
1FC
100
AcDbEntity
  8
SLD-0
 62
     0
100
AcDbLine
 10
-13.2596685083
 20
0.0
 30
0.0
 11
0.0
 21
0.0
 31
0.0
  0
LINE
  5
204
330
1FC
100
AcDbEntity
  8
SLD-0
 62
     0
100
AcDbLine
 10
0.0
 20
0.0
 30
0.0
 11
-13.2596685083
 21
0.0
 31
0.0
  0
MTEXT
  5
205
330
1FC
100
AcDbEntity
  8
SLD-0
 62
     0
100
AcDbMText
 10
-13.1496627458
 20
6.7757975509
 30
0.0
 40
2.5
 41
0.0
 71
     1
 72
     1
  1
1 HOLE,
  7
SLDTEXTSTYLE0
 73
     1
 44
1.0
  0
MTEXT
  5
206
330
1FC
100
AcDbEntity
  8
SLD-0
 62
     0
100
AcDbMText
 10
-12.2121627458
 20
3.2757974428
 30
0.0
 40
2.5
 41
0.0
 71
     1
 72
     1
  1
8-32
  7
SLDTEXTSTYLE0
 73
     1
 44
1.0
  0
ENDBLK
  5
1FE
330
1FC
100
AcDbEntity
  8
0
100
AcDbBlockEnd
  0
BLOCK
  5
20A
330
209
100
AcDbEntity
  8
0
100
AcDbBlockBegin
  2
SW_NOTE_0_2
 70
     0
 10
0.0
 20
0.0
 30
0.0
  3
SW_NOTE_0_2
  1

  0
LINE
  5
20C
330
209
100
AcDbEntity
  8
SLD-0
 62
     0
100
AcDbLine
 10
0.0
 20
0.0
 30
0.0
 11
13.1491712707
 21
0.0
 31
0.0
  0
LINE
  5
20D
330
209
100
AcDbEntity
  8
SLD-0
 62
     0
100
AcDbLine
 10
13.1491712707
 20
0.0
 30
0.0
 11
0.0
 21
0.0
 31
0.0
  0
LINE
  5
20E
330
209
100
AcDbEntity
  8
SLD-0
 62
     0
100
AcDbLine
 10
0.0
 20
0.0
 30
0.0
 11
13.1491712707
 21
0.0
 31
0.0
  0
LINE
  5
20F
330
209
100
AcDbEntity
  8
SLD-0
 62
     0
100
AcDbLine
 10
13.1491712707
 20
0.0
 30
0.0
 11
0.0
 21
0.0
 31
0.0
  0
LINE
  5
210
330
209
100
AcDbEntity
  8
SLD-0
 62
     0
100
AcDbLine
 10
0.0
 20
0.0
 30
0.0
 11
13.1491712707
 21
0.0
 31
0.0
  0
LINE
  5
211
330
209
100
AcDbEntity
  8
SLD-0
 62
     0
100
AcDbLine
 10
13.1491712707
 20
0.0
 30
0.0
 11
0.0
 21
0.0
 31
0.0
  0
MTEXT
  5
212
330
209
100
AcDbEntity
  8
SLD-0
 62
     0
100
AcDbMText
 10
0.0492282275
 20
6.6605366142
 30
0.0
 40
2.5
 41
0.0
 71
     1
 72
     1
  1
1 HOLE,
  7
SLDTEXTSTYLE0
 73
     1
 44
1.0
  0
MTEXT
  5
213
330
209
100
AcDbEntity
  8
SLD-0
 62
     0
100
AcDbMText
 10
0.9867282275
 20
3.1605365061
 30
0.0
 40
2.5
 41
0.0
 71
     1
 72
     1
  1
1/4"-20
  7
SLDTEXTSTYLE0
 73
     1
 44
1.0
  0
ENDBLK
  5
20B
330
209
100
AcDbEntity
  8
0
100
AcDbBlockEnd
  0
ENDSEC
  0
SECTION
  2
ENTITIES
  0
HATCH
  5
65
330
1F
100
AcDbEntity
  8
DIM
 62
     7
100
AcDbHatch
 10
0.0
 20
0.0
 30
0.0
210
0.0
220
0.0
230
1.0
  2
SOLID
 70
     1
 71
     0
 91
        1
 92
        0
 93
       10
 72
     2
 10
192.1538469477433
 20
35.79072105648255
 40
3.045751395731247
 50
249.211220914341
 51
308.9221353953366
 73
     1
 72
     1
 10
194.0673819089779
 20
33.42112499032868
 11
195.032201570195
 21
32.57383820668633
 72
     1
 10
195.032201570195
 20
32.57383820668633
 11
191.8220615970392
 21
29.45679849392393
 72
     1
 10
191.8220615970392
 20
29.45679849392393
 11
190.8812611415453
 21
30.26679556403393
 72
     1
 10
190.8812611415453
 20
30.26679556403393
 11
191.5123130619604
 21
30.88269595450495
 72
     1
 10
191.5123130619604
 20
30.88269595450495
 11
187.5031107517648
 21
34.36729979477963
 72
     2
 10
188.5180521813055
 20
35.51486017054015
 40
1.531992467805808
 50
131.4906380929588
 51
229.7089352075141
 73
     0
 72
     1
 10
187.52735733379
 20
36.68341681894019
 11
188.8339855886717
 21
37.94500389544771
 72
     1
 10
188.8339855886717
 20
37.94500389544771
 11
189.8491794360741
 21
37.04947199462992
 72
     2
 10
191.8224497394468
 20
35.40207930723513
 40
2.570544369711283
 50
140.1430462780655
 51
253.0452525074004
 73
     1
 97
        0
 75
     0
 76
     1
 98
        1
 10
0.0
 20
0.0
  0
HATCH
  5
66
330
1F
100
AcDbEntity
  8
DIM
 62
     1
100
AcDbHatch
 10
0.0
 20
0.0
 30
0.0
210
0.0
220
0.0
230
1.0
  2
SOLID
 70
     1
 71
     0
 91
        1
 92
        0
 93
       10
 72
     2
 10
192.2870123867072
 20
35.03652141778052
 40
3.18163670452787
 50
234.1674444878508
 51
314.4407074583993
 73
     0
 72
     2
 10
192.6046686774317
 20
35.57734322325869
 40
2.57756748834625
 50
317.8184992995781
 51
398.056471157308
 73
     0
 72
     1
 10
194.6342545204792
 20
33.98843307391705
 11
195.619703413462
 21
33.12973613402756
 72
     1
 10
195.619703413462
 20
33.12973613402756
 11
196.8613847282557
 21
34.33416907643478
 72
     2
 10
195.9679924025936
 20
35.5621158082557
 40
1.518552937418265
 50
306.0377529468128
 51
403.4396461533869
 73
     1
 72
     1
 10
197.0706122672659
 20
36.60625778029384
 11
192.9438564089226
 21
40.19543404892779
 72
     1
 10
192.9438564089226
 20
40.19543404892779
 11
193.5681077108499
 21
40.80449247976512
 72
     1
 10
193.5681077108499
 20
40.80449247976512
 11
192.6376012006658
 21
41.63468469960965
 72
     1
 10
192.6376012006658
 20
41.63468469960965
 11
189.402015752256
 21
38.50776445299554
 72
     1
 10
189.402015752256
 20
38.50776445299554
 11
190.4244236296045
 21
37.61597392587475
 97
        0
 75
     0
 76
     1
 98
        1
 10
0.0
 20
0.0
  0
LINE
  5
67
330
1F
100
AcDbEntity
  8
0
  6
Continuous
 62
     7
370
    18
100
AcDbLine
 10
167.8593775185
 20
17.7745192513
 30
0.0
 11
168.8593775185
 21
17.7745192513
 31
0.0
  0
LINE
  5
68
330
1F
100
AcDbEntity
  8
0
  6
Continuous
 62
     7
370
    18
100
AcDbLine
 10
164.8593775185
 20
17.7745192513
 30
0.0
 11
167.3593775185
 21
17.7745192513
 31
0.0
  0
LINE
  5
69
330
1F
100
AcDbEntity
  8
0
  6
Continuous
 62
     7
370
    18
100
AcDbLine
 10
181.3593775185
 20
15.2745192513
 30
0.0
 11
181.3593775185
 21
20.2745192513
 31
0.0
  0
LINE
  5
6A
330
1F
100
AcDbEntity
  8
0
  6
Continuous
 62
     7
370
    18
100
AcDbLine
 10
174.3593775185
 20
16.2745192513
 30
0.0
 11
181.3593775185
 21
15.2745192513
 31
0.0
  0
LINE
  5
6B
330
1F
100
AcDbEntity
  8
0
  6
Continuous
 62
     7
370
    18
100
AcDbLine
 10
168.3593775185
 20
16.7745192513
 30
0.0
 11
168.3593775185
 21
14.2745192513
 31
0.0
  0
LINE
  5
6C
330
1F
100
AcDbEntity
  8
0
  6
Continuous
 62
     7
370
    18
100
AcDbLine
 10
181.3593775185
 20
20.2745192513
 30
0.0
 11
174.3593775185
 21
19.2745192513
 31
0.0
  0
LINE
  5
6D
330
1F
100
AcDbEntity
  8
0
  6
Continuous
 62
     7
370
    18
100
AcDbLine
 10
173.3593775185
 20
17.7745192513
 30
0.0
 11
182.3593775185
 21
17.7745192513
 31
0.0
  0
LINE
  5
6E
330
1F
100
AcDbEntity
  8
0
  6
Continuous
 62
     7
370
    18
100
AcDbLine
 10
168.3593775185
 20
18.2745192513
 30
0.0
 11
168.3593775185
 21
17.2745192513
 31
0.0
  0
LINE
  5
6F
330
1F
100
AcDbEntity
  8
0
  6
Continuous
 62
     7
370
    18
100
AcDbLine
 10
169.3593775185
 20
17.7745192513
 30
0.0
 11
171.8593775185
 21
17.7745192513
 31
0.0
  0
LINE
  5
70
330
1F
100
AcDbEntity
  8
0
  6
Continuous
 62
     7
370
    18
100
AcDbLine
 10
168.3593775185
 20
21.2745192513
 30
0.0
 11
168.3593775185
 21
18.7745192513
 31
0.0
  0
LINE
  5
71
330
1F
100
AcDbEntity
  8
0
  6
Continuous
 62
     7
370
    18
100
AcDbLine
 10
174.3593775185
 20
19.2745192513
 30
0.0
 11
174.3593775185
 21
16.2745192513
 31
0.0
  0
LINE
  5
72
330
1F
100
AcDbEntity
  8
0
370
    18
100
AcDbLine
 10
195.0322015702
 20
32.5738382067
 30
0.0
 11
191.822061597
 21
29.4567984939
 31
0.0
  0
LINE
  5
73
330
1F
100
AcDbEntity
  8
0
370
    18
100
AcDbLine
 10
191.822061597
 20
29.4567984939
 30
0.0
 11
190.8812611415
 21
30.266795564
 31
0.0
  0
LINE
  5
74
330
1F
100
AcDbEntity
  8
0
370
    18
100
AcDbLine
 10
190.8812611415
 20
30.266795564
 30
0.0
 11
191.512313062
 21
30.8826959545
 31
0.0
  0
LINE
  5
75
330
1F
100
AcDbEntity
  8
0
370
    18
100
AcDbLine
 10
187.5031107518
 20
34.3672997948
 30
0.0
 11
191.512313062
 21
30.8826959545
 31
0.0
  0
LINE
  5
76
330
1F
100
AcDbEntity
  8
0
370
    18
100
AcDbLine
 10
188.8339855887
 20
37.9450038954
 30
0.0
 11
187.5273573338
 21
36.6834168189
 31
0.0
  0
LINE
  5
77
330
1F
100
AcDbEntity
  8
0
370
    18
100
AcDbLine
 10
188.8339855887
 20
37.9450038954
 30
0.0
 11
189.8491794361
 21
37.0494719946
 31
0.0
  0
LINE
  5
78
330
1F
100
AcDbEntity
  8
0
370
    18
100
AcDbLine
 10
194.067381909
 20
33.4211249903
 30
0.0
 11
195.0322015702
 21
32.5738382067
 31
0.0
  0
LINE
  5
79
330
1F
100
AcDbEntity
  8
0
 62
     1
370
    18
100
AcDbLine
 10
190.4244236296
 20
37.6159739259
 30
0.0
 11
189.4020157523
 21
38.507764453
 31
0.0
  0
LINE
  5
7A
330
1F
100
AcDbEntity
  8
0
 62
     1
370
    18
100
AcDbLine
 10
189.4020157523
 20
38.507764453
 30
0.0
 11
192.6376012007
 21
41.6346846996
 31
0.0
  0
LINE
  5
7B
330
1F
100
AcDbEntity
  8
0
 62
     1
370
    18
100
AcDbLine
 10
192.6376012007
 20
41.6346846996
 30
0.0
 11
193.5681077108
 21
40.8044924798
 31
0.0
  0
LINE
  5
7C
330
1F
100
AcDbEntity
  8
0
 62
     1
370
    18
100
AcDbLine
 10
193.5681077108
 20
40.8044924798
 30
0.0
 11
192.9438564089
 21
40.1954340489
 31
0.0
  0
LINE
  5
7D
330
1F
100
AcDbEntity
  8
0
 62
     1
370
    18
100
AcDbLine
 10
192.9438564089
 20
40.1954340489
 30
0.0
 11
197.0706122673
 21
36.6062577803
 31
0.0
  0
LINE
  5
7E
330
1F
100
AcDbEntity
  8
0
 62
     1
370
    18
100
AcDbLine
 10
194.6342545205
 20
33.9884330739
 30
0.0
 11
195.6197034135
 21
33.129736134
 31
0.0
  0
LINE
  5
7F
330
1F
100
AcDbEntity
  8
0
 62
     1
370
    18
100
AcDbLine
 10
195.6197034135
 20
33.129736134
 30
0.0
 11
196.8613847283
 21
34.3341690764
 31
0.0
  0
LINE
  5
80
330
1F
100
AcDbEntity
  8
0
  6
Continuous
 62
     7
370
    18
100
AcDbLine
 10
185.6907965209
 20
13.1152464079
 30
0.0
 11
285.6907965209
 21
13.1152464079
 31
0.0
  0
LINE
  5
81
330
1F
100
AcDbEntity
  8
0
  6
Continuous
 62
     7
370
    18
100
AcDbLine
 10
185.6907965209
 20
18.1152464079
 30
0.0
 11
235.6907965209
 21
18.1152464079
 31
0.0
  0
LINE
  5
82
330
1F
100
AcDbEntity
  8
0
  6
Continuous
 62
     7
370
    18
100
AcDbLine
 10
185.6907965209
 20
23.1152464079
 30
0.0
 11
235.6907965209
 21
23.1152464079
 31
0.0
  0
LINE
  5
83
330
1F
100
AcDbEntity
  8
0
  6
Continuous
 62
     7
370
    18
100
AcDbLine
 10
185.6907965209
 20
28.1152464079
 30
0.0
 11
285.6907965209
 21
28.1152464079
 31
0.0
  0
LINE
  5
84
330
1F
100
AcDbEntity
  8
0
  6
Continuous
 62
     7
370
    18
100
AcDbLine
 10
235.6907965209
 20
33.1152464079
 30
0.0
 11
285.6907965209
 21
33.1152464079
 31
0.0
  0
LINE
  5
85
330
1F
100
AcDbEntity
  8
0
  6
Continuous
 62
     7
370
    25
100
AcDbLine
 10
235.6907965209
 20
18.1152464079
 30
0.0
 11
285.6907965209
 21
18.1152464079
 31
0.0
  0
LINE
  5
86
330
1F
100
AcDbEntity
  8
0
  6
Continuous
 62
     7
370
    18
100
AcDbLine
 10
185.6907965209
 20
43.1152464079
 30
0.0
 11
285.6907965209
 21
43.1152464079
 31
0.0
  0
LINE
  5
87
330
1F
100
AcDbEntity
  8
0
  6
Continuous
 62
     7
370
    18
100
AcDbLine
 10
251.237217675
 20
8.1152464079
 30
0.0
 11
251.237217675
 21
18.1152464079
 31
0.0
  0
LINE
  5
88
330
1F
100
AcDbEntity
  8
0
  6
Continuous
 62
     7
370
    18
100
AcDbLine
 10
235.6907965209
 20
8.1152464079
 30
0.0
 11
235.6907965209
 21
43.1152464079
 31
0.0
  0
LINE
  5
89
330
1F
100
AcDbEntity
  8
0
  6
Continuous
 62
     7
370
    18
100
AcDbLine
 10
251.237217675
 20
28.1152464079
 30
0.0
 11
251.237217675
 21
33.1152464079
 31
0.0
  0
LINE
  5
8A
330
1F
100
AcDbEntity
  8
0
  6
Continuous
 62
     7
370
    18
100
AcDbLine
 10
214.4164086353
 20
8.1152464079
 30
0.0
 11
214.4164086353
 21
28.1152464079
 31
0.0
  0
LINE
  5
8B
330
1F
100
AcDbEntity
  8
0
  6
Continuous
 62
     7
370
    18
100
AcDbLine
 10
199.7785887506
 20
8.1152464079
 30
0.0
 11
199.7785887506
 21
28.1152464079
 31
0.0
  0
LINE
  5
8C
330
1F
100
AcDbEntity
  8
0
  6
Continuous
 62
     7
370
    18
100
AcDbLine
 10
185.6907965209
 20
8.1152464079
 30
0.0
 11
185.6907965209
 21
43.1152464079
 31
0.0
  0
LINE
  5
8D
330
1F
100
AcDbEntity
  8
0
  6
Continuous
 62
     7
370
    25
100
AcDbLine
 10
8.6907965209
 20
104.7436369915
 30
0.0
 11
14.6907965209
 21
104.7436369915
 31
0.0
  0
LINE
  5
8E
330
1F
100
AcDbEntity
  8
0
  6
Continuous
 62
     7
370
    25
100
AcDbLine
 10
285.6907965209
 20
104.7436369915
 30
0.0
 11
279.6907965209
 21
104.7436369915
 31
0.0
  0
LINE
  5
8F
330
1F
100
AcDbEntity
  8
0
  6
Continuous
 62
     7
370
    25
100
AcDbLine
 10
147.1907965209
 20
8.1152464079
 30
0.0
 11
147.1907965209
 21
14.1152464079
 31
0.0
  0
LINE
  5
90
330
1F
100
AcDbEntity
  8
0
  6
Continuous
 62
     7
370
    25
100
AcDbLine
 10
147.1907965209
 20
201.3720275751
 30
0.0
 11
147.1907965209
 21
195.3720275751
 31
0.0
  0
LINE
  5
91
330
1F
100
AcDbEntity
  8
0
  6
Continuous
 62
     7
370
    25
100
AcDbLine
 10
43.3207965209
 20
201.3720275751
 30
0.0
 11
43.3207965209
 21
202.8720275751
 31
0.0
  0
LINE
  5
92
330
1F
100
AcDbEntity
  8
0
  6
Continuous
 62
     7
370
    25
100
AcDbLine
 10
77.9507965209
 20
201.3720275751
 30
0.0
 11
77.9507965209
 21
202.8720275751
 31
0.0
  0
LINE
  5
93
330
1F
100
AcDbEntity
  8
0
  6
Continuous
 62
     7
370
    25
100
AcDbLine
 10
112.5807965209
 20
201.3720275751
 30
0.0
 11
112.5807965209
 21
202.8720275751
 31
0.0
  0
LINE
  5
94
330
1F
100
AcDbEntity
  8
0
  6
Continuous
 62
     7
370
    25
100
AcDbLine
 10
147.2107965209
 20
201.3720275751
 30
0.0
 11
147.2107965209
 21
202.8720275751
 31
0.0
  0
LINE
  5
95
330
1F
100
AcDbEntity
  8
0
  6
Continuous
 62
     7
370
    25
100
AcDbLine
 10
181.8407965209
 20
201.3720275751
 30
0.0
 11
181.8407965209
 21
202.8720275751
 31
0.0
  0
LINE
  5
96
330
1F
100
AcDbEntity
  8
0
  6
Continuous
 62
     7
370
    25
100
AcDbLine
 10
216.4707965209
 20
201.3720275751
 30
0.0
 11
216.4707965209
 21
202.8720275751
 31
0.0
  0
LINE
  5
97
330
1F
100
AcDbEntity
  8
0
  6
Continuous
 62
     7
370
    25
100
AcDbLine
 10
251.1007965209
 20
201.3720275751
 30
0.0
 11
251.1007965209
 21
202.8720275751
 31
0.0
  0
LINE
  5
98
330
1F
100
AcDbEntity
  8
0
  6
Continuous
 62
     7
370
    25
100
AcDbLine
 10
43.3157965209
 20
8.1152464079
 30
0.0
 11
43.3157965209
 21
6.6152464079
 31
0.0
  0
LINE
  5
99
330
1F
100
AcDbEntity
  8
0
  6
Continuous
 62
     7
370
    25
100
AcDbLine
 10
77.9407965209
 20
8.1152464079
 30
0.0
 11
77.9407965209
 21
6.6152464079
 31
0.0
  0
LINE
  5
9A
330
1F
100
AcDbEntity
  8
0
  6
Continuous
 62
     7
370
    25
100
AcDbLine
 10
112.5657965209
 20
8.1152464079
 30
0.0
 11
112.5657965209
 21
6.6152464079
 31
0.0
  0
LINE
  5
9B
330
1F
100
AcDbEntity
  8
0
  6
Continuous
 62
     7
370
    25
100
AcDbLine
 10
147.1907965209
 20
8.1152464079
 30
0.0
 11
147.1907965209
 21
6.6152464079
 31
0.0
  0
LINE
  5
9C
330
1F
100
AcDbEntity
  8
0
  6
Continuous
 62
     7
370
    25
100
AcDbLine
 10
181.8157965209
 20
8.1152464079
 30
0.0
 11
181.8157965209
 21
6.6152464079
 31
0.0
  0
LINE
  5
9D
330
1F
100
AcDbEntity
  8
0
  6
Continuous
 62
     7
370
    25
100
AcDbLine
 10
216.4407965209
 20
8.1152464079
 30
0.0
 11
216.4407965209
 21
6.6152464079
 31
0.0
  0
LINE
  5
9E
330
1F
100
AcDbEntity
  8
0
  6
Continuous
 62
     7
370
    18
100
AcDbLine
 10
285.6907965209
 20
201.3720275751
 30
0.0
 11
8.6907965209
 21
201.3720275751
 31
0.0
  0
LINE
  5
9F
330
1F
100
AcDbEntity
  8
0
  6
Continuous
 62
     7
370
    18
100
AcDbLine
 10
285.6907965209
 20
8.1152464079
 30
0.0
 11
285.6907965209
 21
201.3720275751
 31
0.0
  0
LINE
  5
A0
330
1F
100
AcDbEntity
  8
0
  6
Continuous
 62
     7
370
    18
100
AcDbLine
 10
8.6907965209
 20
201.3720275751
 30
0.0
 11
8.6907965209
 21
8.1152464079
 31
0.0
  0
LINE
  5
A1
330
1F
100
AcDbEntity
  8
0
  6
Continuous
 62
     7
370
    18
100
AcDbLine
 10
8.6907965209
 20
8.1152464079
 30
0.0
 11
285.6907965209
 21
8.1152464079
 31
0.0
  0
LINE
  5
A2
330
1F
100
AcDbEntity
  8
0
  6
Continuous
 62
     7
370
    25
100
AcDbLine
 10
251.0657965209
 20
8.1152464079
 30
0.0
 11
251.0657965209
 21
6.6152464079
 31
0.0
  0
LINE
  5
A3
330
1F
100
AcDbEntity
  8
0
  6
Continuous
 62
     7
370
    25
100
AcDbLine
 10
8.6907965209
 20
40.3252464079
 30
0.0
 11
7.1907965209
 21
40.3252464079
 31
0.0
  0
LINE
  5
A4
330
1F
100
AcDbEntity
  8
0
  6
Continuous
 62
     7
370
    25
100
AcDbLine
 10
8.6907965209
 20
72.5352464079
 30
0.0
 11
7.1907965209
 21
72.5352464079
 31
0.0
  0
LINE
  5
A5
330
1F
100
AcDbEntity
  8
0
  6
Continuous
 62
     7
370
    25
100
AcDbLine
 10
8.6907965209
 20
104.7452464079
 30
0.0
 11
7.1907965209
 21
104.7452464079
 31
0.0
  0
LINE
  5
A6
330
1F
100
AcDbEntity
  8
0
  6
Continuous
 62
     7
370
    25
100
AcDbLine
 10
8.6907965209
 20
136.9552464079
 30
0.0
 11
7.1907965209
 21
136.9552464079
 31
0.0
  0
LINE
  5
A7
330
1F
100
AcDbEntity
  8
0
  6
Continuous
 62
     7
370
    25
100
AcDbLine
 10
8.6907965209
 20
169.1652464079
 30
0.0
 11
7.1907965209
 21
169.1652464079
 31
0.0
  0
LINE
  5
A8
330
1F
100
AcDbEntity
  8
0
  6
Continuous
 62
     7
370
    25
100
AcDbLine
 10
285.6907965209
 20
40.3252464079
 30
0.0
 11
287.1907965209
 21
40.3252464079
 31
0.0
  0
LINE
  5
A9
330
1F
100
AcDbEntity
  8
0
  6
Continuous
 62
     7
370
    25
100
AcDbLine
 10
285.6907965209
 20
72.5352464079
 30
0.0
 11
287.1907965209
 21
72.5352464079
 31
0.0
  0
LINE
  5
AA
330
1F
100
AcDbEntity
  8
0
  6
Continuous
 62
     7
370
    25
100
AcDbLine
 10
285.6907965209
 20
104.7452464079
 30
0.0
 11
287.1907965209
 21
104.7452464079
 31
0.0
  0
LINE
  5
AB
330
1F
100
AcDbEntity
  8
0
  6
Continuous
 62
     7
370
    25
100
AcDbLine
 10
285.6907965209
 20
136.9552464079
 30
0.0
 11
287.1907965209
 21
136.9552464079
 31
0.0
  0
LINE
  5
AC
330
1F
100
AcDbEntity
  8
0
  6
Continuous
 62
     7
370
    25
100
AcDbLine
 10
285.6907965209
 20
169.1652464079
 30
0.0
 11
287.1907965209
 21
169.1652464079
 31
0.0
  0
CIRCLE
  5
AD
330
1F
100
AcDbEntity
  8
0
  6
Continuous
 62
     7
370
    18
100
AcDbCircle
 10
168.3593775185
 20
17.7745192513
 30
0.0
 40
1.5
  0
CIRCLE
  5
AE
330
1F
100
AcDbEntity
  8
0
  6
Continuous
 62
     7
370
    18
100
AcDbCircle
 10
168.3593775185
 20
17.7745192513
 30
0.0
 40
2.5
  0
ARC
  5
AF
330
1F
100
AcDbEntity
  8
0
370
    18
100
AcDbCircle
 10
188.5180521813
 20
35.5148601705
 30
0.0
 40
1.531992467805807
100
AcDbArc
 50
130.2910647925
 51
228.509361907
  0
ARC
  5
B0
330
1F
100
AcDbEntity
  8
0
370
    18
100
AcDbCircle
 10
191.8224497394
 20
35.4020793072
 30
0.0
 40
2.570544369711287
100
AcDbArc
 50
140.1430462781
 51
253.0452525074
  0
ARC
  5
B1
330
1F
100
AcDbEntity
  8
0
370
    18
100
AcDbCircle
 10
192.1538469477
 20
35.7907210565
 30
0.0
 40
3.045751395731247
100
AcDbArc
 50
249.2112209143
 51
308.9221353953
  0
ARC
  5
B2
330
1F
100
AcDbEntity
  8
0
 62
     1
370
    18
100
AcDbCircle
 10
195.9679924026
 20
35.5621158083
 30
0.0
 40
1.518552937418275
100
AcDbArc
 50
306.0377529468
 51
43.4396461534
  0
ARC
  5
B3
330
1F
100
AcDbEntity
  8
0
 62
     1
370
    18
100
AcDbCircle
 10
192.2870123867
 20
35.0365214178
 30
0.0
 40
3.18163670452787
100
AcDbArc
 50
45.5592925416
 51
125.8325555121
  0
ARC
  5
B4
330
1F
100
AcDbEntity
  8
0
 62
     1
370
    18
100
AcDbCircle
 10
192.6046686774
 20
35.5773432233
 30
0.0
 40
2.577567488346255
100
AcDbArc
 50
321.9435288427
 51
42.1815007004
  0
MTEXT
  5
B6
330
1F
100
AcDbEntity
  8
SLD-0
 62
     7
100
AcDbMText
 10
253.3516603713
 20
16.6800285279
 30
0.0
 40
2.5
 41
0.0
 71
     1
 72
     1
  1
1:1
  7
SLDTEXTSTYLE0
 73
     1
 44
1.0
  0
MTEXT
  5
B7
330
1F
100
AcDbEntity
  8
0
  6
Continuous
 62
     7
370
     0
100
AcDbMText
 10
165.5426850804
 20
13.2208440369
 30
0.0
 40
2.6458333333
 41
0.0
 71
     1
 72
     1
  1
UNIT:m/m
  7
SLDTEXTSTYLE0
 73
     1
 44
1.0
  0
MTEXT
  5
B8
330
1F
100
AcDbEntity
  8
0
  6
Continuous
 62
     7
370
     0
100
AcDbMText
 10
12.2315076053
 20
197.3010888199
 30
0.0
 40
2.6458333333
 41
0.0
 71
     1
 72
     1
  1
PROPRIETARY AND CONFIDENTIAL
  7
SLDTEXTSTYLE0
 73
     1
 44
1.0
  0
MTEXT
  5
B9
330
1F
100
AcDbEntity
  8
0
  6
Continuous
 62
     7
370
     0
100
AcDbMText
 10
12.2315076053
 20
193.8084469451
 30
0.0
 40
1.8520833333
 41
0.0
 71
     1
 72
     1
  1
THE INFORMATION CONTAINED IN THIS DRAWING IS THE SOLE PROPERTY OF UNICE E-O SERVICES INC. ANY REPRODUCTION IN PART OR AS A WHOLE WITHOUT THE WRITTEN PERMISSION OF UNICE E-O SERVICES INC IS
  7
SLDTEXTSTYLE0
 73
     1
 44
1.0
  0
MTEXT
  5
BA
330
1F
100
AcDbEntity
  8
0
  6
Continuous
 62
     7
370
     0
100
AcDbMText
 10
12.2315076053
 20
191.3390025305
 30
0.0
 40
1.8520833333
 41
0.0
 71
     1
 72
     1
  1
PROHIBITED.
  7
SLDTEXTSTYLE0
 73
     1
 44
1.0
  0
MTEXT
  5
BB
330
1F
100
AcDbEntity
  8
0
  6
Continuous
 62
     7
370
     0
100
AcDbMText
 10
198.7251893935
 20
40.4406774139
 30
0.0
 40
2.38125
 41
0.0
 71
     1
 72
     1
  1
Unice E-O Services Inc.
  7
SLDTEXTSTYLE0
 73
     1
 44
1.0
  0
MTEXT
  5
BC
330
1F
100
AcDbEntity
  8
0
  6
Continuous
 62
     7
370
     0
100
AcDbMText
 10
217.5590538149
 20
21.5867148511
 30
0.0
 40
1.8520833333
 41
0.0
 71
     1
 72
     1
  1
2024/1/5
  7
SLDTEXTSTYLE0
 73
     1
 44
1.0
  0
MTEXT
  5
BD
330
1F
100
AcDbEntity
  8
0
  6
Continuous
 62
     7
370
     0
100
AcDbMText
 10
252.3075599985
 20
32.1519195438
 30
0.0
 40
2.5
 41
0.0
 71
     1
 72
     1
  1
04MTC-2
  7
SLDTEXTSTYLE0
 73
     1
 44
1.0
  0
MTEXT
  5
BE
330
1F
100
AcDbEntity
  8
0
  6
Continuous
 62
     7
370
     0
100
AcDbMText
 10
252.3075599985
 20
38.1082117879
 30
0.0
 40
2.5
 41
0.0
 71
     1
 72
     1
  1
04MTC-2
  7
SLDTEXTSTYLE0
 73
     1
 44
1.0
  0
MTEXT
  5
BF
330
1F
100
AcDbEntity
  8
0
  6
Continuous
 62
     7
370
     0
100
AcDbMText
 10
236.3921866786
 20
16.5064795728
 30
0.0
 40
2.1166666667
 41
0.0
 71
     1
 72
     1
  1
SCALE:
  7
SLDTEXTSTYLE0
 73
     1
 44
1.0
  0
MTEXT
  5
C0
330
1F
100
AcDbEntity
  8
0
  6
Continuous
 62
     7
370
     0
100
AcDbMText
 10
186.3336086789
 20
21.5867148511
 30
0.0
 40
1.8520833333
 41
0.0
 71
     1
 72
     1
  1
DRAWN
  7
SLDTEXTSTYLE0
 73
     1
 44
1.0
  0
MTEXT
  5
C1
330
1F
100
AcDbEntity
  8
0
  6
Continuous
 62
     7
370
     0
100
AcDbMText
 10
203.2228367937
 20
26.683208308
 30
0.0
 40
1.8520833333
 41
0.0
 71
     1
 72
     1
  1
NAME
  7
SLDTEXTSTYLE0
 73
     1
 44
1.0
  0
MTEXT
  5
C2
330
1F
100
AcDbEntity
  8
0
  6
Continuous
 62
     7
370
     0
100
AcDbMText
 10
220.8710155758
 20
26.683208308
 30
0.0
 40
1.8520833333
 41
0.0
 71
     1
 72
     1
  1
DATE
  7
SLDTEXTSTYLE0
 73
     1
 44
1.0
  0
MTEXT
  5
C3
330
1F
100
AcDbEntity
  8
0
  6
Continuous
 62
     7
370
     0
100
AcDbMText
 10
236.2756316645
 20
31.7872213766
 30
0.0
 40
2.1166666667
 41
0.0
 71
     1
 72
     1
  1
DWG. NO.
  7
SLDTEXTSTYLE0
 73
     1
 44
1.0
  0
MTEXT
  5
C4
330
1F
100
AcDbEntity
  8
0
  6
Continuous
 62
     7
370
     0
100
AcDbMText
 10
236.3629907088
 20
41.8840658243
 30
0.0
 40
2.1166666667
 41
0.0
 71
     1
 72
     1
  1
TITLE:
  7
SLDTEXTSTYLE0
 73
     1
 44
1.0
  0
MTEXT
  5
C5
330
1F
100
AcDbEntity
  8
0
  6
Continuous
 62
     7
370
     0
100
AcDbMText
 10
203.0314209802
 20
16.2403789724
 30
0.0
 40
1.8520833333
 41
0.0
 71
     1
 72
     1
  1
Johnny
  7
SLDTEXTSTYLE0
 73
     1
 44
1.0
  0
MTEXT
  5
C6
330
1F
100
AcDbEntity
  8
0
  6
Continuous
 62
     7
370
     0
100
AcDbMText
 10
186.3336086789
 20
16.2403789724
 30
0.0
 40
1.8520833333
 41
0.0
 71
     1
 72
     1
  1
ENG APPR.
  7
SLDTEXTSTYLE0
 73
     1
 44
1.0
  0
MTEXT
  5
C7
330
1F
100
AcDbEntity
  8
0
  6
Continuous
 62
     7
370
     0
100
AcDbMText
 10
236.3921866786
 20
11.6853389288
 30
0.0
 40
2.1166666667
 41
0.0
 71
     1
 72
     1
  1
REV
  7
SLDTEXTSTYLE0
 73
     1
 44
1.0
  0
MTEXT
  5
C8
330
1F
100
AcDbEntity
  8
0
  6
Continuous
 62
     7
370
     0
100
AcDbMText
 10
236.3629907088
 20
26.9493089085
 30
0.0
 40
2.1166666667
 41
0.0
 71
     1
 72
     1
  1
MATERIAL:
  7
SLDTEXTSTYLE0
 73
     1
 44
1.0
  0
MTEXT
  5
C9
330
1F
100
AcDbEntity
  8
0
  6
Continuous
 62
     7
370
     0
100
AcDbMText
 10
252.6088982507
 20
22.2175136187
 30
0.0
 40
2.5
 41
0.0
 71
     1
 72
     1
  1
N/A
  7
SLDTEXTSTYLE0
 73
     1
 44
1.0
  0
MTEXT
  5
CA
330
1F
100
AcDbEntity
  8
0
  6
Continuous
 62
     7
370
     0
100
AcDbMText
 10
26.6029931533
 20
204.453351657
 30
0.0
 40
2.1166666667
 41
0.0
 71
     1
 72
     1
  1
1
  7
SLDTEXTSTYLE0
 73
     1
 44
1.0
  0
MTEXT
  5
CB
330
1F
100
AcDbEntity
  8
0
  6
Continuous
 62
     7
370
     0
100
AcDbMText
 10
60.7170995724
 20
204.453351657
 30
0.0
 40
2.1166666667
 41
0.0
 71
     1
 72
     1
  1
2
  7
SLDTEXTSTYLE0
 73
     1
 44
1.0
  0
MTEXT
  5
CC
330
1F
100
AcDbEntity
  8
0
  6
Continuous
 62
     7
370
     0
100
AcDbMText
 10
94.9009943906
 20
204.453351657
 30
0.0
 40
2.1166666667
 41
0.0
 71
     1
 72
     1
  1
3
  7
SLDTEXTSTYLE0
 73
     1
 44
1.0
  0
MTEXT
  5
CD
330
1F
100
AcDbEntity
  8
0
  6
Continuous
 62
     7
370
     0
100
AcDbMText
 10
129.2533362851
 20
204.2992584364
 30
0.0
 40
2.1166666667
 41
0.0
 71
     1
 72
     1
  1
4
  7
SLDTEXTSTYLE0
 73
     1
 44
1.0
  0
MTEXT
  5
CE
330
1F
100
AcDbEntity
  8
0
  6
Continuous
 62
     7
370
     0
100
AcDbMText
 10
163.702323464
 20
204.453351657
 30
0.0
 40
2.1166666667
 41
0.0
 71
     1
 72
     1
  1
5
  7
SLDTEXTSTYLE0
 73
     1
 44
1.0
  0
MTEXT
  5
CF
330
1F
100
AcDbEntity
  8
0
  6
Continuous
 62
     7
370
     0
100
AcDbMText
 10
198.6382170415
 20
204.453351657
 30
0.0
 40
2.1166666667
 41
0.0
 71
     1
 72
     1
  1
6
  7
SLDTEXTSTYLE0
 73
     1
 44
1.0
  0
MTEXT
  5
D0
330
1F
100
AcDbEntity
  8
0
  6
Continuous
 62
     7
370
     0
100
AcDbMText
 10
234.3630657407
 20
204.453351657
 30
0.0
 40
2.1166666667
 41
0.0
 71
     1
 72
     1
  1
7
  7
SLDTEXTSTYLE0
 73
     1
 44
1.0
  0
MTEXT
  5
D1
330
1F
100
AcDbEntity
  8
0
  6
Continuous
 62
     7
370
     0
100
AcDbMText
 10
266.2787820494
 20
204.453351657
 30
0.0
 40
2.1166666667
 41
0.0
 71
     1
 72
     1
  1
8
  7
SLDTEXTSTYLE0
 73
     1
 44
1.0
  0
MTEXT
  5
D2
330
1F
100
AcDbEntity
  8
0
  6
Continuous
 62
     7
370
     0
100
AcDbMText
 10
5.3568236555
 20
185.8113022879
 30
0.0
 40
2.1166666667
 41
0.0
 71
     1
 72
     1
  1
A
  7
SLDTEXTSTYLE0
 73
     1
 44
1.0
  0
MTEXT
  5
D3
330
1F
100
AcDbEntity
  8
0
  6
Continuous
 62
     7
370
     0
100
AcDbMText
 10
5.5910431831
 20
154.2993048238
 30
0.0
 40
2.1166666667
 41
0.0
 71
     1
 72
     1
  1
B
  7
SLDTEXTSTYLE0
 73
     1
 44
1.0
  0
MTEXT
  5
D4
330
1F
100
AcDbEntity
  8
0
  6
Continuous
 62
     7
370
     0
100
AcDbMText
 10
5.5910431831
 20
121.274351423
 30
0.0
 40
2.1166666667
 41
0.0
 71
     1
 72
     1
  1
C
  7
SLDTEXTSTYLE0
 73
     1
 44
1.0
  0
MTEXT
  5
D5
330
1F
100
AcDbEntity
  8
0
  6
Continuous
 62
     7
370
     0
100
AcDbMText
 10
5.5910431831
 20
88.7453220221
 30
0.0
 40
2.1166666667
 41
0.0
 71
     1
 72
     1
  1
D
  7
SLDTEXTSTYLE0
 73
     1
 44
1.0
  0
MTEXT
  5
D6
330
1F
100
AcDbEntity
  8
0
  6
Continuous
 62
     7
370
     0
100
AcDbMText
 10
5.5910431831
 20
57.5558849197
 30
0.0
 40
2.1166666667
 41
0.0
 71
     1
 72
     1
  1
E
  7
SLDTEXTSTYLE0
 73
     1
 44
1.0
  0
MTEXT
  5
D7
330
1F
100
AcDbEntity
  8
0
  6
Continuous
 62
     7
370
     0
100
AcDbMText
 10
5.5910431831
 20
25.5694212252
 30
0.0
 40
2.1166666667
 41
0.0
 71
     1
 72
     1
  1
F
  7
SLDTEXTSTYLE0
 73
     1
 44
1.0
  0
MTEXT
  5
D8
330
1F
100
AcDbEntity
  8
0
  6
Continuous
 62
     7
370
     0
100
AcDbMText
 10
266.1858616964
 20
6.6236223963
 30
0.0
 40
2.1166666667
 41
0.0
 71
     1
 72
     1
  1
8
  7
SLDTEXTSTYLE0
 73
     1
 44
1.0
  0
MTEXT
  5
D9
330
1F
100
AcDbEntity
  8
0
  6
Continuous
 62
     7
370
     0
100
AcDbMText
 10
234.2701453876
 20
6.6236223963
 30
0.0
 40
2.1166666667
 41
0.0
 71
     1
 72
     1
  1
7
  7
SLDTEXTSTYLE0
 73
     1
 44
1.0
  0
MTEXT
  5
DA
330
1F
100
AcDbEntity
  8
0
  6
Continuous
 62
     7
370
     0
100
AcDbMText
 10
198.5452966885
 20
6.6236223963
 30
0.0
 40
2.1166666667
 41
0.0
 71
     1
 72
     1
  1
6
  7
SLDTEXTSTYLE0
 73
     1
 44
1.0
  0
MTEXT
  5
DB
330
1F
100
AcDbEntity
  8
0
  6
Continuous
 62
     7
370
     0
100
AcDbMText
 10
163.6094031109
 20
6.6236223963
 30
0.0
 40
2.1166666667
 41
0.0
 71
     1
 72
     1
  1
5
  7
SLDTEXTSTYLE0
 73
     1
 44
1.0
  0
MTEXT
  5
DC
330
1F
100
AcDbEntity
  8
0
  6
Continuous
 62
     7
370
     0
100
AcDbMText
 10
129.1604159321
 20
6.4695291758
 30
0.0
 40
2.1166666667
 41
0.0
 71
     1
 72
     1
  1
4
  7
SLDTEXTSTYLE0
 73
     1
 44
1.0
  0
MTEXT
  5
DD
330
1F
100
AcDbEntity
  8
0
  6
Continuous
 62
     7
370
     0
100
AcDbMText
 10
94.8080740376
 20
6.6236223963
 30
0.0
 40
2.1166666667
 41
0.0
 71
     1
 72
     1
  1
3
  7
SLDTEXTSTYLE0
 73
     1
 44
1.0
  0
MTEXT
  5
DE
330
1F
100
AcDbEntity
  8
0
  6
Continuous
 62
     7
370
     0
100
AcDbMText
 10
60.6241792194
 20
6.6236223963
 30
0.0
 40
2.1166666667
 41
0.0
 71
     1
 72
     1
  1
2
  7
SLDTEXTSTYLE0
 73
     1
 44
1.0
  0
MTEXT
  5
DF
330
1F
100
AcDbEntity
  8
0
  6
Continuous
 62
     7
370
     0
100
AcDbMText
 10
26.5100728003
 20
6.6236223963
 30
0.0
 40
2.1166666667
 41
0.0
 71
     1
 72
     1
  1
1
  7
SLDTEXTSTYLE0
 73
     1
 44
1.0
  0
MTEXT
  5
E0
330
1F
100
AcDbEntity
  8
0
  6
Continuous
 62
     7
370
     0
100
AcDbMText
 10
287.1023846145
 20
186.6424909092
 30
0.0
 40
2.1166666667
 41
0.0
 71
     1
 72
     1
  1
A
  7
SLDTEXTSTYLE0
 73
     1
 44
1.0
  0
MTEXT
  5
E1
330
1F
100
AcDbEntity
  8
0
  6
Continuous
 62
     7
370
     0
100
AcDbMText
 10
287.3366041421
 20
155.1304934451
 30
0.0
 40
2.1166666667
 41
0.0
 71
     1
 72
     1
  1
B
  7
SLDTEXTSTYLE0
 73
     1
 44
1.0
  0
MTEXT
  5
E2
330
1F
100
AcDbEntity
  8
0
  6
Continuous
 62
     7
370
     0
100
AcDbMText
 10
287.3366041421
 20
122.1055400442
 30
0.0
 40
2.1166666667
 41
0.0
 71
     1
 72
     1
  1
C
  7
SLDTEXTSTYLE0
 73
     1
 44
1.0
  0
MTEXT
  5
E3
330
1F
100
AcDbEntity
  8
0
  6
Continuous
 62
     7
370
     0
100
AcDbMText
 10
287.3366041421
 20
89.5765106433
 30
0.0
 40
2.1166666667
 41
0.0
 71
     1
 72
     1
  1
D
  7
SLDTEXTSTYLE0
 73
     1
 44
1.0
  0
MTEXT
  5
E4
330
1F
100
AcDbEntity
  8
0
  6
Continuous
 62
     7
370
     0
100
AcDbMText
 10
287.3366041421
 20
58.3870735409
 30
0.0
 40
2.1166666667
 41
0.0
 71
     1
 72
     1
  1
E
  7
SLDTEXTSTYLE0
 73
     1
 44
1.0
  0
MTEXT
  5
E5
330
1F
100
AcDbEntity
  8
0
  6
Continuous
 62
     7
370
     0
100
AcDbMText
 10
287.3366041421
 20
26.4006098464
 30
0.0
 40
2.1166666667
 41
0.0
 71
     1
 72
     1
  1
F
  7
SLDTEXTSTYLE0
 73
     1
 44
1.0
  0
MTEXT
  5
E6
330
1F
100
AcDbEntity
  8
0
  6
Continuous
 62
     7
370
     0
100
AcDbMText
 10
203.1553128802
 20
21.5867148511
 30
0.0
 40
1.8520833333
 41
0.0
 71
     1
 72
     1
  1
John
  7
SLDTEXTSTYLE0
 73
     1
 44
1.0
  0
MTEXT
  5
E7
330
1F
100
AcDbEntity
  8
0
  6
Continuous
 62
     7
370
     0
100
AcDbMText
 10
252.8482239645
 20
12.0500370959
 30
0.0
 40
2.5
 41
0.0
 71
     1
 72
     1
  1
0
  7
SLDTEXTSTYLE0
 73
     1
 44
1.0
  0
MTEXT
  5
E8
330
1F
100
AcDbEntity
  8
SLD-0
 62
     7
100
AcDbMText
 10
198.7251893935
 20
35.7700111721
 30
0.0
 40
1.5875
 41
0.0
 71
     1
 72
     1
  1
No.5, Andong Rd., Chung Li District,
  7
SLDTEXTSTYLE0
 73
     1
 44
1.0
  0
MTEXT
  5
E9
330
1F
100
AcDbEntity
  8
SLD-0
 62
     7
100
AcDbMText
 10
198.7251893935
 20
33.653344531
 30
0.0
 40
1.5875
 41
0.0
 71
     1
 72
     1
  1
Taoyuan City 32063, Taiwan, R.O.C.
  7
SLDTEXTSTYLE0
 73
     1
 44
1.0
  0
MTEXT
  5
EA
330
1F
100
AcDbEntity
  8
SLD-0
 62
     7
100
AcDbMText
 10
217.5590538149
 20
16.2403789724
 30
0.0
 40
1.8520833333
 41
0.0
 71
     1
 72
     1
  1
2024/1/5
  7
SLDTEXTSTYLE0
 73
     1
 44
1.0
  0
LWPOLYLINE
  5
EB
330
1F
100
AcDbEntity
  8
0
  6
Continuous
 62
     7
370
    35
100
AcDbPolyline
 90
        3
 70
   128
 43
0.0
 10
83.6562824822
 20
108.0039692441
 10
83.6540900745
 20
107.9015619087
 10
83.6562824822
 20
106.8741821353
  0
LWPOLYLINE
  5
EC
330
1F
100
AcDbEntity
  8
0
  6
Continuous
 62
     7
370
    35
100
AcDbPolyline
 90
        3
 70
   128
 43
0.0
 10
131.6429846099
 20
106.8741821353
 10
131.6451770177
 20
106.9765894706
 10
131.6429846099
 20
108.0039692441
  0
CIRCLE
  5
ED
330
1F
100
AcDbEntity
  8
0
  6
Continuous
 62
     7
370
    35
100
AcDbCircle
 10
107.6496335461
 20
107.4390756897
 30
0.0
 40
25.80000000000001
  0
CIRCLE
  5
EE
330
1F
100
AcDbEntity
  8
0
  6
Continuous
 62
     7
370
    35
100
AcDbCircle
 10
84.1496335461
 20
107.4390756897
 30
0.0
 40
0.75
  0
CIRCLE
  5
EF
330
1F
100
AcDbEntity
  8
0
  6
Continuous
 62
     7
370
    35
100
AcDbCircle
 10
131.1496335461
 20
107.4390756897
 30
0.0
 40
0.75
  0
CIRCLE
  5
F0
330
1F
100
AcDbEntity
  8
0
  6
Continuous
 62
     7
370
    35
100
AcDbCircle
 10
107.6496335461
 20
107.4390756897
 30
0.0
 40
22.25
  0
ARC
  5
F1
330
1F
100
AcDbEntity
  8
0
  6
Continuous
 62
     7
370
    35
100
AcDbCircle
 10
138.9345839135
 20
159.2222957567
 30
0.0
 40
30.99999999999998
100
AcDbArc
 50
219.7533306553
 51
238.861631521
  0
LINE
  5
F2
330
1F
100
AcDbEntity
  8
0
  6
Continuous
 62
     7
370
    35
100
AcDbLine
 10
115.8704441252
 20
140.0377849256
 30
0.0
 11
115.1016394656
 21
139.3983012312
 31
0.0
  0
ARC
  5
F3
330
1F
100
AcDbEntity
  8
0
  6
Continuous
 62
     7
370
    35
100
AcDbCircle
 10
138.9345839135
 20
159.2222957567
 30
0.0
 40
29.99999999999998
100
AcDbArc
 50
219.7533306553
 51
238.861631521
  0
LINE
  5
F4
330
1F
100
AcDbEntity
  8
0
  6
Continuous
 62
     7
370
    35
100
AcDbLine
 10
122.9042787665
 20
132.6887449785
 30
0.0
 11
123.4213853842
 21
133.5446659714
 31
0.0
  0
ARC
  5
F5
330
1F
100
AcDbEntity
  8
0
  6
Continuous
 62
     7
370
    35
100
AcDbCircle
 10
107.6496335461
 20
107.4390756897
 30
0.0
 40
29.50000000000002
100
AcDbArc
 50
301.5810612323
 51
58.861631521
  0
ARC
  5
F6
330
1F
100
AcDbEntity
  8
0
  6
Continuous
 62
     7
370
    35
100
AcDbCircle
 10
107.6496335461
 20
107.4390756897
 30
0.0
 40
30.50000000000001
100
AcDbArc
 50
301.5810612323
 51
58.861631521
  0
LINE
  5
F7
330
1F
100
AcDbEntity
  8
0
  6
Continuous
 62
     7
370
    35
100
AcDbLine
 10
123.0989117014
 20
82.3080230957
 30
0.0
 11
123.6226160456
 21
81.4561230078
 31
0.0
  0
ARC
  5
F8
330
1F
100
AcDbEntity
  8
0
  6
Continuous
 62
     7
370
    35
100
AcDbCircle
 10
131.4781812093
 20
68.6776216888
 30
0.0
 40
15.99999999999999
100
AcDbArc
 50
121.5810612323
 51
168.2383466075
  0
ARC
  5
F9
330
1F
100
AcDbEntity
  8
0
  6
Continuous
 62
     7
370
    35
100
AcDbCircle
 10
131.4781812093
 20
68.6776216888
 30
0.0
 40
15.00000000000002
100
AcDbArc
 50
121.5810612323
 51
168.2383466075
  0
LINE
  5
FA
330
1F
100
AcDbEntity
  8
0
  6
Continuous
 62
     7
370
    35
100
AcDbLine
 10
115.8141166729
 20
71.9390756897
 30
0.0
 11
116.7931207065
 21
71.7352348146
 31
0.0
  0
LINE
  5
FB
330
1F
100
AcDbEntity
  8
0
  6
Continuous
 62
     7
370
    35
100
AcDbLine
 10
99.4851504192
 20
71.9390756897
 30
0.0
 11
115.8141166729
 21
71.9390756897
 31
0.0
  0
LINE
  5
FC
330
1F
100
AcDbEntity
  8
0
  6
Continuous
 62
     7
370
    35
100
AcDbLine
 10
115.8141166729
 20
71.9390756897
 30
0.0
 11
115.8141166729
 21
70.9390756897
 31
0.0
  0
LINE
  5
FD
330
1F
100
AcDbEntity
  8
0
  6
Continuous
 62
     7
370
    35
100
AcDbLine
 10
115.8141166729
 20
70.9390756897
 30
0.0
 11
99.4851504192
 21
70.9390756897
 31
0.0
  0
LINE
  5
FE
330
1F
100
AcDbEntity
  8
0
  6
Continuous
 62
     7
370
    35
100
AcDbLine
 10
99.4851504192
 20
71.9390756897
 30
0.0
 11
99.4851504192
 21
70.9390756897
 31
0.0
  0
ARC
  5
FF
330
1F
100
AcDbEntity
  8
0
  6
Continuous
 62
     7
370
    35
100
AcDbCircle
 10
115.8141166729
 20
71.9390756897
 30
0.0
 40
0.9999999999999717
100
AcDbArc
 50
270.0
 51
348.2383466075
  0
ARC
  5
100
330
1F
100
AcDbEntity
  8
0
  6
Continuous
 62
     7
370
    35
100
AcDbCircle
 10
83.8210858828
 20
68.6776216888
 30
0.0
 40
16.0
100
AcDbArc
 50
11.7616533925
 51
58.4189387677
  0
ARC
  5
101
330
1F
100
AcDbEntity
  8
0
  6
Continuous
 62
     7
370
    35
100
AcDbCircle
 10
107.6496335461
 20
107.4390756897
 30
0.0
 40
29.5
100
AcDbArc
 50
121.138368479
 51
238.4189387677
  0
ARC
  5
102
330
1F
100
AcDbEntity
  8
0
  6
Continuous
 62
     7
370
    35
100
AcDbCircle
 10
76.3646831786
 20
159.2222957567
 30
0.0
 40
31.00000000000004
100
AcDbArc
 50
301.138368479
 51
320.2466693447
  0
ARC
  5
103
330
1F
100
AcDbEntity
  8
0
  6
Continuous
 62
     7
370
    35
100
AcDbCircle
 10
101.3508346159
 20
138.4390756897
 30
0.0
 40
1.5
100
AcDbArc
 50
90.0
 51
140.2466693447
  0
LINE
  5
104
330
1F
100
AcDbEntity
  8
0
  6
Continuous
 62
     7
370
    35
100
AcDbLine
 10
113.9484324762
 20
139.9390756897
 30
0.0
 11
101.3508346159
 21
139.9390756897
 31
0.0
  0
ARC
  5
105
330
1F
100
AcDbEntity
  8
0
  6
Continuous
 62
     7
370
    35
100
AcDbCircle
 10
113.9484324762
 20
138.4390756897
 30
0.0
 40
1.500000000000002
100
AcDbArc
 50
39.7533306553
 51
90.0
  0
CIRCLE
  5
106
330
1F
100
AcDbEntity
  8
0
  6
Continuous
 62
     7
370
    35
100
AcDbCircle
 10
107.6496335461
 20
107.4390756897
 30
0.0
 40
26.49999999999997
  0
ARC
  5
107
330
1F
100
AcDbEntity
  8
0
  6
Continuous
 62
     7
370
    35
100
AcDbCircle
 10
101.3508346159
 20
138.4390756897
 30
0.0
 40
2.5
100
AcDbArc
 50
90.0
 51
140.2466693447
  0
LINE
  5
108
330
1F
100
AcDbEntity
  8
0
  6
Continuous
 62
     7
370
    35
100
AcDbLine
 10
101.3508346159
 20
140.9390756897
 30
0.0
 11
101.3508346159
 21
139.9390756897
 31
0.0
  0
LINE
  5
109
330
1F
100
AcDbEntity
  8
0
  6
Continuous
 62
     7
370
    35
100
AcDbLine
 10
99.4288229669
 20
140.0377849256
 30
0.0
 11
100.1976276265
 21
139.3983012312
 31
0.0
  0
LINE
  5
10A
330
1F
100
AcDbEntity
  8
0
  6
Continuous
 62
     7
370
    35
100
AcDbLine
 10
99.4851504192
 20
71.9390756897
 30
0.0
 11
98.5061463857
 21
71.7352348146
 31
0.0
  0
ARC
  5
10B
330
1F
100
AcDbEntity
  8
0
  6
Continuous
 62
     7
370
    35
100
AcDbCircle
 10
83.8210858828
 20
68.6776216888
 30
0.0
 40
15.00000000000001
100
AcDbArc
 50
11.7616533925
 51
58.4189387677
  0
LINE
  5
10C
330
1F
100
AcDbEntity
  8
0
  6
Continuous
 62
     7
370
    35
100
AcDbLine
 10
91.6766510465
 20
81.4561230078
 30
0.0
 11
92.2003553907
 21
82.3080230957
 31
0.0
  0
ARC
  5
10D
330
1F
100
AcDbEntity
  8
0
  6
Continuous
 62
     7
370
    35
100
AcDbCircle
 10
99.4851504192
 20
71.9390756897
 30
0.0
 40
0.9999999999999857
100
AcDbArc
 50
191.7616533925
 51
270.0
  0
ARC
  5
10E
330
1F
100
AcDbEntity
  8
0
  6
Continuous
 62
     7
370
    35
100
AcDbCircle
 10
107.6496335461
 20
107.4390756897
 30
0.0
 40
30.50000000000002
100
AcDbArc
 50
121.138368479
 51
238.4189387677
  0
LINE
  5
10F
330
1F
100
AcDbEntity
  8
0
  6
Continuous
 62
     7
370
    35
100
AcDbLine
 10
91.8778817079
 20
133.5446659714
 30
0.0
 11
92.3949883256
 21
132.6887449785
 31
0.0
  0
ARC
  5
110
330
1F
100
AcDbEntity
  8
0
  6
Continuous
 62
     7
370
    35
100
AcDbCircle
 10
113.9484324762
 20
138.4390756897
 30
0.0
 40
2.500000000000004
100
AcDbArc
 50
39.7533306553
 51
90.0
  0
LINE
  5
111
330
1F
100
AcDbEntity
  8
0
  6
Continuous
 62
     7
370
    35
100
AcDbLine
 10
113.9484324762
 20
140.9390756897
 30
0.0
 11
113.9484324762
 21
139.9390756897
 31
0.0
  0
ARC
  5
112
330
1F
100
AcDbEntity
  8
0
  6
Continuous
 62
     7
370
    35
100
AcDbCircle
 10
76.3646831786
 20
159.2222957567
 30
0.0
 40
30.00000000000002
100
AcDbArc
 50
301.138368479
 51
320.2466693447
  0
LINE
  5
113
330
1F
100
AcDbEntity
  8
0
  6
Continuous
 62
     7
370
    35
100
AcDbLine
 10
101.3508346159
 20
140.9390756897
 30
0.0
 11
113.9484324762
 21
140.9390756897
 31
0.0
  0
LINE
  5
114
330
1F
100
AcDbEntity
  8
0
  6
Continuous
 62
     7
370
    35
100
AcDbLine
 10
83.8996335461
 20
107.4390756897
 30
0.0
 11
83.9102718439
 21
106.7282972604
 31
0.0
  0
LWPOLYLINE
  5
115
330
1F
100
AcDbEntity
  8
0
  6
Continuous
 62
     7
370
    35
100
AcDbPolyline
 90
        3
 70
   128
 43
0.0
 10
131.3889952482
 20
106.7282972604
 10
131.3996335461
 20
107.4390756897
 10
131.3889952482
 20
108.149854119
  0
LINE
  5
116
330
1F
100
AcDbEntity
  8
0
  6
Continuous
 62
     7
370
    35
100
AcDbLine
 10
83.9102718439
 20
108.149854119
 30
0.0
 11
83.8996335461
 21
107.4390756897
 31
0.0
  0
LINE
  5
117
330
1F
100
AcDbEntity
  8
0
  6
Continuous
 62
     7
370
    35
100
AcDbLine
 10
83.6996335461
 20
107.4390756897
 30
0.0
 11
83.7072931205
 21
108.0447446982
 31
0.0
  0
LWPOLYLINE
  5
118
330
1F
100
AcDbEntity
  8
0
  6
Continuous
 62
     7
370
    35
100
AcDbPolyline
 90
        3
 70
   128
 43
0.0
 10
131.5919739716
 20
108.0447446982
 10
131.5996335461
 20
107.4390756897
 10
131.5919739716
 20
106.8334066811
  0
LINE
  5
119
330
1F
100
AcDbEntity
  8
0
  6
Continuous
 62
     7
370
    35
100
AcDbLine
 10
83.7072931205
 20
106.8334066811
 30
0.0
 11
83.6996335461
 21
107.4390756897
 31
0.0
  0
POINT
  5
11A
330
1F
100
AcDbEntity
  8
SLD-0
 62
     7
370
    18
100
AcDbPoint
 10
138.1494059478
 20
107.5569036999
 30
0.0
  0
POINT
  5
11B
330
1F
100
AcDbEntity
  8
SLD-0
 62
     7
370
    18
100
AcDbPoint
 10
77.1498611443
 20
107.5569036999
 30
0.0
  0
DIMENSION
  5
11C
330
1F
100
AcDbEntity
  8
SLD-0
 62
     7
100
AcDbDimension
  2
_D
 10
138.1494059478
 20
58.2222725143
 30
0.0
 11
107.6496335461
 21
58.2222725143
 31
0.0
 70
   160
  1
<>
 71
     2
 42
-1.0
  3
SLDDIMSTYLE0
100
AcDbAlignedDimension
 13
77.1498611443
 23
107.5569036999
 33
0.0
 14
138.1494059478
 24
107.5569036999
 34
0.0
 50
0.0
100
AcDbRotatedDimension
  0
DIMENSION
  5
127
330
1F
100
AcDbEntity
  8
SLD-0
 62
     7
100
AcDbDimension
  2
_D_1
 10
148.0576479526
 20
70.9390756897
 30
0.0
 11
148.0576479526
 21
105.9390756897
 31
0.0
 70
   160
  1
<>
 71
     2
 42
-1.0
  3
SLDDIMSTYLE0
100
AcDbAlignedDimension
 13
113.9484324762
 23
140.9390756897
 33
0.0
 14
115.8141166729
 24
70.9390756897
 34
0.0
 50
90.0
100
AcDbRotatedDimension
  0
DIMENSION
  5
131
330
1F
100
AcDbEntity
  8
SLD-0
100
AcDbDimension
  2
_D_2
 10
92.8128874709
 20
90.8579579378
 30
0.0
 11
57.0302761241
 21
63.8845844103
 31
0.0
 70
   163
  1
C.A.<>
 71
     1
 42
-1.0
  3
SLDDIMSTYLE1
100
AcDbDiametricDimension
 15
122.4863796212
 25
124.0201934415
 35
0.0
 40
0.0
  0
INSERT
  5
148
330
1F
100
AcDbEntity
  8
SLD-0
100
AcDbBlockReference
  2
SW_NOTE_0
 10
81.4835491646
 20
141.9755716626
 30
0.0
  0
LEADER
  5
14A
330
1F
100
AcDbEntity
  8
SLD-0
100
AcDbLeader
  3
SLDDIMSTYLE2
 76
     2
 10
93.4643763895
 20
128.9894464383
 30
0.0
 10
81.4835491646
 20
141.9755716626
 30
0.0
  0
INSERT
  5
156
330
1F
100
AcDbEntity
  8
SLD-0
100
AcDbBlockReference
  2
SW_CENTERMARKSYMBOL_0
 10
107.6496335461
 20
107.4390756897
 30
0.0
  0
LINE
  5
157
330
1F
100
AcDbEntity
  8
0
  6
Continuous
 62
     7
370
    35
100
AcDbLine
 10
217.9429146029
 20
163.5961514268
 30
0.0
 11
217.4479398561
 21
163.3104085876
 31
0.0
  0
LINE
  5
158
330
1F
100
AcDbEntity
  8
0
  6
Continuous
 62
     7
370
    35
100
AcDbLine
 10
243.2458431581
 20
118.6222872888
 30
0.0
 11
243.7408179049
 21
118.9080301279
 31
0.0
  0
SPLINE
  5
159
330
1F
100
AcDbEntity
  8
0
  6
Continuous
 62
     7
370
    35
100
AcDbSpline
210
0.0
220
0.0
230
1.0
 70
     8
 71
     3
 72
    11
 73
     7
 74
     0
 42
0.00000001
 43
0.00000001
 40
0.0
 40
0.0
 40
0.0
 40
0.0
 40
0.1927182014554717
 40
0.5463708329890542
 40
0.8987107254862158
 40
1.0
 40
1.0
 40
1.0
 40
1.0
 10
242.1097382424977
 20
113.5562411801386
 30
0.0
 10
242.3050704029033
 20
113.5848599155792
 30
0.0
 10
242.8588520093333
 20
113.6659962182412
 30
0.0
 10
243.7406003493895
 20
113.8767361287946
 30
0.0
 10
244.5141774940934
 20
114.1124583561265
 30
0.0
 10
244.9238139112965
 20
114.296228463568
 30
0.0
 10
245.0152801981456
 20
114.337261849897
 30
0.0
  0
LINE
  5
15A
330
1F
100
AcDbEntity
  8
0
  6
Continuous
 62
     7
370
    35
100
AcDbLine
 10
246.302758961
 20
114.9600616915
 30
0.0
 11
255.4951471164
 21
120.2667144184
 31
0.0
  0
SPLINE
  5
15B
330
1F
100
AcDbEntity
  8
0
  6
Continuous
 62
     7
370
    35
100
AcDbSpline
210
0.0
220
0.0
230
1.0
 70
     8
 71
     3
 72
    39
 73
    35
 74
     0
 42
0.00000001
 43
0.00000001
 40
0.0
 40
0.0
 40
0.0
 40
0.0
 40
0.001827489470304
 40
0.0338280552769584
 40
0.0658852503826945
 40
0.0980450899701821
 40
0.1303398425413208
 40
0.1627855063931971
 40
0.1953823009077881
 40
0.228117641207544
 40
0.2609705180070181
 40
0.2939160600044811
 40
0.3269293242685284
 40
0.3599878497693875
 40
0.3930729700576309
 40
0.4261701592073456
 40
0.4592667598772768
 40
0.4923556253140966
 40
0.5254328133267588
 40
0.5584962206846589
 40
0.5915450894549653
 40
0.6245796190501013
 40
0.6576006734139289
 40
0.690609566859417
 40
0.7236079116223634
 40
0.7565975121532337
 40
0.7895802938655984
 40
0.8225582566840659
 40
0.8555334459512737
 40
0.8885079349689624
 40
0.9214835969604472
 40
0.9544620541238811
 40
0.9874454147559185
 40
1.0
 40
1.0
 40
1.0
 40
1.0
 10
256.5977455005265
 20
120.9994742740368
 30
0.0
 10
256.6140266893603
 20
121.0106343861747
 30
0.0
 10
256.9154024098762
 20
121.2172155437861
 30
0.0
 10
257.4524080598142
 20
121.6964661890524
 30
0.0
 10
258.2011112507423
 20
122.4406195034939
 30
0.0
 10
258.8852868774941
 20
123.2724501226846
 30
0.0
 10
259.5104957166021
 20
124.1779882408128
 30
0.0
 10
260.0725928921926
 20
125.1580427734947
 30
0.0
 10
260.5700609397125
 20
126.2089435345231
 30
0.0
 10
261.0008077089594
 20
127.3276447060991
 30
0.0
 10
261.3631606485503
 20
128.510350462179
 30
0.0
 10
261.6557038713328
 20
129.7529595901859
 30
0.0
 10
261.8773834235796
 20
131.0510583048827
 30
0.0
 10
262.0274955793294
 20
132.4000395344632
 30
0.0
 10
262.1056733313108
 20
133.7951689984966
 30
0.0
 10
262.1118552531397
 20
135.2316076331472
 30
0.0
 10
262.0462608890207
 20
136.7044678391181
 30
0.0
 10
261.9093615140946
 20
138.2088369294101
 30
0.0
 10
261.7018497765395
 20
139.7398126773095
 30
0.0
 10
261.4246233437315
 20
141.2924702840915
 30
0.0
 10
261.0787767638938
 20
142.86185232029
 30
0.0
 10
260.665595769784
 20
144.4429722975688
 30
0.0
 10
260.186553247824
 20
146.0308208039417
 30
0.0
 10
259.6433058548955
 20
147.6203740372452
 30
0.0
 10
259.0376907223177
 20
149.2066045660292
 30
0.0
 10
258.3717213338207
 20
150.7844932098909
 30
0.0
 10
257.6475840550695
 20
152.3490441326638
 30
0.0
 10
256.8676286635365
 20
153.8952933410419
 30
0.0
 10
256.034377108647
 20
155.4183453732533
 30
0.0
 10
255.1504618201048
 20
156.9133035060481
 30
0.0
 10
254.2188309654629
 20
158.3755855161766
 30
0.0
 10
253.2419506835279
 20
159.7998107604487
 30
0.0
 10
252.4348029734188
 20
160.8981797241416
 30
0.0
 10
251.9527802223752
 20
161.517889112147
 30
0.0
 10
251.8198889467338
 20
161.6887399089624
 30
0.0
  0
SPLINE
  5
15C
330
1F
100
AcDbEntity
  8
0
  6
Continuous
 62
     7
370
    35
100
AcDbSpline
210
0.0
220
0.0
230
1.0
 70
     8
 71
     3
 72
    14
 73
    10
 74
     0
 42
0.00000001
 43
0.00000001
 40
0.0
 40
0.0
 40
0.0
 40
0.0
 40
0.0890918799068201
 40
0.2589422231084399
 40
0.4288357991553385
 40
0.5987527425326459
 40
0.7686827786599209
 40
0.938615543114811
 40
1.0
 40
1.0
 40
1.0
 40
1.0
 10
251.8198889467338
 20
161.6887399089624
 30
0.0
 10
251.6386822570644
 20
161.922344139836
 30
0.0
 10
251.1120117780691
 20
162.601306116317
 30
0.0
 10
250.2677001643048
 20
163.761113726732
 30
0.0
 10
249.3030172503854
 20
165.1783040976301
 30
0.0
 10
248.3821378732836
 20
166.6329708821449
 30
0.0
 10
247.5083382055844
 20
168.1196017589048
 30
0.0
 10
246.8579220895067
 20
169.3104564794073
 30
0.0
 10
246.5015926473781
 20
170.0045367614823
 30
0.0
 10
246.4070338023836
 20
170.1887242634031
 30
0.0
  0
SPLINE
  5
15D
330
1F
100
AcDbEntity
  8
0
  6
Continuous
 62
     7
370
    35
100
AcDbSpline
210
0.0
220
0.0
230
1.0
 70
     8
 71
     3
 72
    42
 73
    38
 74
     0
 42
0.00000001
 43
0.00000001
 40
0.0
 40
0.0
 40
0.0
 40
0.0
 40
0.0093398168649395
 40
0.0403414037770913
 40
0.0713159078306519
 40
0.1022770498023104
 40
0.1332344695962388
 40
0.1641928838952216
 40
0.1951570603228297
 40
0.2261297421968173
 40
0.257112224168481
 40
0.2881047953421112
 40
0.3191070653406852
 40
0.3501181966357392
 40
0.3811370655493552
 40
0.4121623708107677
 40
0.4431927045321037
 40
0.4742265968627114
 40
0.5052625426880146
 40
0.5362990165825342
 40
0.5673341401887109
 40
0.5983661973559672
 40
0.6293936427842534
 40
0.6604149407674345
 40
0.6914285842330936
 40
0.7224331280248699
 40
0.753427243491159
 40
0.7844098040107071
 40
0.8153800143520207
 40
0.8463376006771275
 40
0.8756600520746192
 40
0.8806289732783631
 40
0.8968766519243261
 40
0.9278053256491956
 40
0.9587316314172367
 40
0.9896590615123878
 40
1.0
 40
1.0
 40
1.0
 40
1.0
 10
244.9354535392852
 20
125.7526174871786
 30
0.0
 10
244.8323668046445
 20
125.7795883211571
 30
0.0
 10
244.3871050135041
 20
125.8960832502836
 30
0.0
 10
243.5800963584047
 20
126.1902321727601
 30
0.0
 10
242.5201347407699
 20
126.6351750827145
 30
0.0
 10
241.4499559716655
 20
127.1702452828638
 30
0.0
 10
240.3759147548808
 20
127.7852773610907
 30
0.0
 10
239.3020035042701
 20
128.480094031947
 30
0.0
 10
238.232907354267
 20
129.251384145725
 30
0.0
 10
237.1731221813941
 20
130.0962444362606
 30
0.0
 10
236.1271745565845
 20
131.0112313037199
 30
0.0
 10
235.0995315454473
 20
131.9926298338198
 30
0.0
 10
234.0945893415367
 20
133.0364055091015
 30
0.0
 10
233.116644696636
 20
134.1382433212968
 30
0.0
 10
232.1698742619904
 20
135.2935648014051
 30
0.0
 10
231.2583144780738
 20
136.4975517485938
 30
0.0
 10
230.3858434501596
 20
137.7451686438012
 30
0.0
 10
229.5561640042856
 20
139.031185756417
 30
0.0
 10
228.7727878285067
 20
140.3502023506601
 30
0.0
 10
228.039023182987
 20
141.6966652214425
 30
0.0
 10
227.3579584152869
 20
143.0648944202372
 30
0.0
 10
226.7324466003354
 20
144.4491099085155
 30
0.0
 10
226.1650907883129
 20
145.8434613777538
 30
0.0
 10
225.6582336777439
 20
147.2420506750359
 30
0.0
 10
225.2139472974392
 20
148.6389545008561
 30
0.0
 10
224.8340220127713
 20
150.0282498815052
 30
0.0
 10
224.5199564185615
 20
151.4040417824899
 30
0.0
 10
224.2729473867212
 20
152.7604868217934
 30
0.0
 10
224.0938838494567
 20
154.0918369552249
 30
0.0
 10
223.9852644804777
 20
155.3696872209023
 30
0.0
 10
223.9546405739479
 20
156.2590238152643
 30
0.0
 10
223.9516311189269
 20
156.9353773280428
 30
0.0
 10
223.9618636363157
 20
157.6251170094996
 30
0.0
 10
224.0200975344795
 20
158.6308276143032
 30
0.0
 10
224.1618373161995
 20
159.7715080201422
 30
0.0
 10
224.3110620637257
 20
160.6290492732855
 30
0.0
 10
224.4346273249629
 20
161.0840732413559
 30
0.0
 10
224.4655900407072
 20
161.1980921625248
 30
0.0
  0
SPLINE
  5
15E
330
1F
100
AcDbEntity
  8
0
  6
Continuous
 62
     7
370
    35
100
AcDbSpline
210
0.0
220
0.0
230
1.0
 70
     8
 71
     3
 72
    12
 73
     8
 74
     0
 42
0.00000001
 43
0.00000001
 40
0.0
 40
0.0
 40
0.0
 40
0.0
 40
0.1491769943483003
 40
0.4175047760876628
 40
0.6903290828243749
 40
0.949921824602087
 40
1.0
 40
1.0
 40
1.0
 40
1.0
 10
246.4070338023837
 20
170.1887242634031
 30
0.0
 10
246.3630642295971
 20
170.2703786583988
 30
0.0
 10
246.2400056660358
 20
170.4989065225523
 30
0.0
 10
245.9886697714597
 20
170.8485637436833
 30
0.0
 10
245.6519118628761
 20
171.2002212985733
 30
0.0
 10
245.3782591538626
 20
171.4081677458297
 30
0.0
 10
245.2250459869848
 20
171.4989533761185
 30
0.0
 10
245.2002692468434
 20
171.5136346989842
 30
0.0
  0
LINE
  5
15F
330
1F
100
AcDbEntity
  8
0
  6
Continuous
 62
     7
370
    35
100
AcDbLine
 10
225.3363070115
 20
171.4118290396
 30
0.0
 11
225.1547438393
 21
171.2891869319
 31
0.0
  0
LINE
  5
160
330
1F
100
AcDbEntity
  8
0
  6
Continuous
 62
     7
370
    35
100
AcDbLine
 10
234.542564591
 20
176.7302873161
 30
0.0
 11
225.3501764356
 21
171.4236345892
 31
0.0
  0
LINE
  5
161
330
1F
100
AcDbEntity
  8
0
  6
Continuous
 62
     7
370
    35
100
AcDbLine
 10
245.2002692468
 20
171.513634699
 30
0.0
 11
236.2924223731
 21
176.6560252403
 31
0.0
  0
LINE
  5
162
330
1F
100
AcDbEntity
  8
0
  6
Continuous
 62
     7
370
    35
100
AcDbLine
 10
225.1547438393
 20
171.2891869319
 30
0.0
 11
224.9630617931
 21
171.141632843
 31
0.0
  0
SPLINE
  5
163
330
1F
100
AcDbEntity
  8
0
  6
Continuous
 62
     7
370
    35
100
AcDbSpline
210
0.0
220
0.0
230
1.0
 70
     8
 71
     3
 72
    13
 73
     9
 74
     0
 42
0.00000001
 43
0.00000001
 40
0.0
 40
0.0
 40
0.0
 40
0.0
 40
0.1518140227605728
 40
0.3736664105347893
 40
0.5829826816560527
 40
0.7849061115166731
 40
0.9838773518914165
 40
1.0
 40
1.0
 40
1.0
 40
1.0
 10
236.292422373148
 20
176.6560252403083
 30
0.0
 10
236.208881242594
 20
176.7004268556241
 30
0.0
 10
236.0032578501135
 20
176.8097144689507
 30
0.0
 10
235.6600383373336
 20
176.913565806691
 30
0.0
 10
235.272806032947
 20
176.9495710621732
 30
0.0
 10
234.9037843723967
 20
176.8913593648925
 30
0.0
 10
234.6571026465035
 20
176.8063783871354
 30
0.0
 10
234.5484239820177
 20
176.7318890575532
 30
0.0
 10
234.5402778283693
 20
176.7263056109143
 30
0.0
  0
SPLINE
  5
164
330
1F
100
AcDbEntity
  8
0
  6
Continuous
 62
     7
370
    35
100
AcDbSpline
210
0.0
220
0.0
230
1.0
 70
     8
 71
     3
 72
    11
 73
     7
 74
     0
 42
0.00000001
 43
0.00000001
 40
0.0
 40
0.0
 40
0.0
 40
0.0
 40
0.1471139017241782
 40
0.548656566716227
 40
0.9244790058600227
 40
0.9999999999999999
 40
0.9999999999999999
 40
0.9999999999999999
 40
0.9999999999999999
 10
231.7339900317099
 20
175.1089317344763
 30
0.0
 10
231.6247762809049
 20
175.0644738319186
 30
0.0
 10
231.2174671085384
 20
174.8986695136672
 30
0.0
 10
230.4833914530409
 20
174.7075091912038
 30
0.0
 10
229.7846341728049
 20
174.5742641070247
 30
0.0
 10
229.4039232829129
 20
174.5264351145064
 30
0.0
 10
229.3402208719232
 20
174.5184321331903
 30
0.0
  0
SPLINE
  5
165
330
1F
100
AcDbEntity
  8
0
  6
Continuous
 62
     7
370
    35
100
AcDbSpline
210
0.0
220
0.0
230
1.0
 70
     8
 71
     3
 72
    38
 73
    34
 74
     0
 42
0.00000001
 43
0.00000001
 40
0.0
 40
0.0
 40
0.0
 40
0.0
 40
0.0292615293239961
 40
0.0614595972446537
 40
0.0937551544623057
 40
0.1261827439760386
 40
0.1587607276992157
 40
0.1914913785634302
 40
0.2243635812139892
 40
0.2573571126245349
 40
0.290447267340497
 40
0.3236088121700396
 40
0.3568187320631699
 40
0.3900577083769046
 40
0.4233105791284697
 40
0.4565644421742096
 40
0.4898112559095568
 40
0.5230467602968902
 40
0.5562686195596195
 40
0.5894759114888077
 40
0.622668723423856
 40
0.6558478458131803
 40
0.6890145471904094
 40
0.7221704134173795
 40
0.7553172358034335
 40
0.788456935380686
 40
0.8215915132892436
 40
0.8547230195194412
 40
0.8878535340516682
 40
0.9209850335417584
 40
0.9541190500325077
 40
0.9872577013475269
 40
1.0
 40
1.0
 40
1.0
 40
1.0
 10
214.6958123488199
 20
167.0494302672238
 30
0.0
 10
214.4474570981789
 20
166.8543499908859
 30
0.0
 10
213.9258229242101
 20
166.4446121716028
 30
0.0
 10
213.2001221710545
 20
165.7205490707406
 30
0.0
 10
212.5054610391976
 20
164.9029232452797
 30
0.0
 10
211.8724058474713
 20
164.0067961573446
 30
0.0
 10
211.3013845964066
 20
163.0370116130983
 30
0.0
 10
210.7949252025132
 20
161.9956399779577
 30
0.0
 10
210.3548736197326
 20
160.8860764970399
 30
0.0
 10
209.9830123489394
 20
159.7119457184525
 30
0.0
 10
209.6807832797274
 20
158.4773313188643
 30
0.0
 10
209.4492946404397
 20
157.1866046065383
 30
0.0
 10
209.2892968027338
 20
155.844352302736
 30
0.0
 10
209.2012017665163
 20
154.4552942697258
 30
0.0
 10
209.1851112352178
 20
153.0242566120588
 30
0.0
 10
209.2408426596145
 20
151.5561226340967
 30
0.0
 10
209.3679578368356
 20
150.0558019437336
 30
0.0
 10
209.5657931486434
 20
148.528198972411
 30
0.0
 10
209.833478636258
 20
146.9782338777029
 30
0.0
 10
210.169946477509
 20
145.4108597507535
 30
0.0
 10
210.5739370057389
 20
143.8310593840489
 30
0.0
 10
211.0440029034938
 20
142.2438394881894
 30
0.0
 10
211.5785126320623
 20
140.6542224763577
 30
0.0
 10
212.1756536930656
 20
139.067235966072
 30
0.0
 10
212.8334366743542
 20
137.4879010983572
 30
0.0
 10
213.5496985871895
 20
135.9212175962767
 30
0.0
 10
214.3221122969793
 20
134.3721553304617
 30
0.0
 10
215.1481773183666
 20
132.845617785932
 30
0.0
 10
216.025283428807
 20
131.3465100166156
 30
0.0
 10
216.9504993599938
 20
129.8794274055713
 30
0.0
 10
217.9213875043667
 20
128.4497613803331
 30
0.0
 10
218.7254099579889
 20
127.3447890969754
 30
0.0
 10
219.2064278588682
 20
126.720386533236
 30
0.0
 10
219.3400186793401
 20
126.5469741703234
 30
0.0
  0
LINE
  5
166
330
1F
100
AcDbEntity
  8
0
  6
Continuous
 62
     7
370
    35
100
AcDbLine
 10
224.997625771
 20
173.0956950236
 30
0.0
 11
215.8052376156
 21
167.7890422967
 31
0.0
  0
SPLINE
  5
167
330
1F
100
AcDbEntity
  8
0
  6
Continuous
 62
     7
370
    35
100
AcDbSpline
210
0.0
220
0.0
230
1.0
 70
     8
 71
     3
 72
    11
 73
     7
 74
     0
 42
0.00000001
 43
0.00000001
 40
0.0
 40
0.0
 40
0.0
 40
0.0
 40
0.1815475918121099
 40
0.5149618543400745
 40
0.8471205715872981
 40
1.0
 40
1.0
 40
1.0
 40
1.0
 10
229.3402208719232
 20
174.5184321331902
 30
0.0
 10
229.1441126438837
 20
174.4920873946707
 30
0.0
 10
228.5878493756431
 20
174.4173602376497
 30
0.0
 10
227.7007839781438
 20
174.2184945037629
 30
0.0
 10
226.865898494202
 20
173.9709196587578
 30
0.0
 10
226.398785947637
 20
173.7666182014011
 30
0.0
 10
226.2515564982376
 20
173.7022243175302
 30
0.0
  0
SPLINE
  5
168
330
1F
100
AcDbEntity
  8
0
  6
Continuous
 62
     7
370
    35
100
AcDbSpline
210
0.0
220
0.0
230
1.0
 70
     8
 71
     3
 72
    11
 73
     7
 74
     0
 42
0.00000001
 43
0.00000001
 40
0.0
 40
0.0
 40
0.0
 40
0.0
 40
0.1389276994570266
 40
0.5188329604138224
 40
0.8959678478942326
 40
1.0
 40
1.0
 40
1.0
 40
1.0
 10
240.4406807616328
 20
112.9960815638647
 30
0.0
 10
240.5086276059842
 20
113.0379744243712
 30
0.0
 10
240.7623787480774
 20
113.1944255635013
 30
0.0
 10
241.2519456896144
 20
113.3762696876504
 30
0.0
 10
241.7506340797908
 20
113.5045512822858
 30
0.0
 10
242.0458995027884
 20
113.5470521528944
 30
0.0
 10
242.1097382424977
 20
113.5562411801386
 30
0.0
  0
SPLINE
  5
169
330
1F
100
AcDbEntity
  8
0
  6
Continuous
 62
     7
370
    35
100
AcDbSpline
210
0.0
220
0.0
230
1.0
 70
     8
 71
     3
 72
    10
 73
     6
 74
     0
 42
0.00000001
 43
0.00000001
 40
0.0
 40
0.0
 40
0.0
 40
0.0
 40
0.2729672224220709
 40
0.7970294527383338
 40
1.0
 40
1.0
 40
1.0
 40
1.0
 10
246.9998909668189
 20
114.1639306725188
 30
0.0
 10
247.0306313519624
 20
114.3051667376484
 30
0.0
 10
247.1203893534194
 20
114.7175580229401
 30
0.0
 10
247.2598341490373
 20
115.2084646836749
 30
0.0
 10
247.3938056705755
 20
115.5235395636659
 30
0.0
 10
247.4312073859901
 20
115.6115011010168
 30
0.0
  0
ARC
  5
16A
330
1F
100
AcDbEntity
  8
0
  6
Continuous
 62
     7
370
    35
100
AcDbCircle
 10
236.8271596722
 20
109.0545780454
 30
0.0
 40
0.9999999999999825
100
AcDbArc
 50
240.0026882664
 51
299.9973117337
  0
LINE
  5
16B
330
1F
100
AcDbEntity
  8
0
  6
Continuous
 62
     7
370
    35
100
AcDbLine
 10
224.780877538
 20
114.8540794366
 30
0.0
 11
236.3272003058
 21
108.188529183
 31
0.0
  0
LINE
  5
16C
330
1F
100
AcDbEntity
  8
0
  6
Continuous
 62
     7
370
    35
100
AcDbLine
 10
237.3271190385
 20
108.188529183
 30
0.0
 11
246.5195071939
 21
113.4951819098
 31
0.0
  0
SPLINE
  5
16D
330
1F
100
AcDbEntity
  8
0
  6
Continuous
 62
     7
370
    35
100
AcDbSpline
210
0.0
220
0.0
230
1.0
 70
     8
 71
     3
 72
    18
 73
    14
 74
     0
 42
0.00000001
 43
0.00000001
 40
0.0
 40
0.0
 40
0.0
 40
0.0
 40
0.0508087717059019
 40
0.1479853578928461
 40
0.2452146382334984
 40
0.3424661350988463
 40
0.4397164658753211
 40
0.5369353209275916
 40
0.6340995140312775
 40
0.73118596350932
 40
0.8281720779537535
 40
0.9250365311049694
 40
1.0
 40
1.0
 40
1.0
 40
1.0
 10
219.3400186793401
 20
126.5469741703234
 30
0.0
 10
219.4668395239235
 20
126.3811950822569
 30
0.0
 10
219.8362172404836
 20
125.8983477931969
 30
0.0
 10
220.4202747278159
 20
125.0640495100929
 30
0.0
 10
221.0744852832791
 20
124.0366003315641
 30
0.0
 10
221.6819230327896
 20
122.9773109553361
 30
0.0
 10
222.2389680869413
 20
121.8942907231575
 30
0.0
 10
222.7417357817209
 20
120.7947358805845
 30
0.0
 10
223.1868403147659
 20
119.6863343738401
 30
0.0
 10
223.5718050185893
 20
118.57657092605
 30
0.0
 10
223.8928366715193
 20
117.4737315154851
 30
0.0
 10
224.1339201439881
 20
116.4650000337102
 30
0.0
 10
224.2453132990936
 20
115.8341680118342
 30
0.0
 10
224.293910856571
 20
115.5589545535863
 30
0.0
  0
ARC
  5
16E
330
1F
100
AcDbEntity
  8
0
  6
Continuous
 62
     7
370
    35
100
AcDbCircle
 10
246.0195478276
 20
114.3612307722
 30
0.0
 40
1.000000000000005
100
AcDbArc
 50
299.9973117337
 51
348.6208795607
  0
ARC
  5
16F
330
1F
100
AcDbEntity
  8
0
  6
Continuous
 62
     7
370
    35
100
AcDbCircle
 10
225.2808369044
 20
115.720128299
 30
0.0
 40
1.000000000000011
100
AcDbArc
 50
189.275031159
 51
240.0026882664
  0
LWPOLYLINE
  5
170
330
1F
100
AcDbEntity
  8
0
  6
Continuous
 62
     7
370
    35
100
AcDbPolyline
 90
       97
 70
   128
 43
0.0
 10
248.5902464617
 20
130.4346832957
 10
248.5511860383
 20
131.8350639636
 10
248.434172031
 20
133.2745461913
 10
248.2397055117
 20
134.7469658949
 10
247.9686192159
 20
136.2460179473
 10
247.6220739767
 20
137.7652831773
 10
247.201553754
 20
139.2982558581
 10
246.70885928
 20
140.8383715653
 10
246.146100348
 20
142.379035287
 10
245.5156867783
 20
143.9136496645
 10
244.8203180984
 20
145.4356432436
 10
244.0629719839
 20
146.9384986141
 10
243.2468915071
 20
148.4157803185
 10
242.3755712498
 20
149.8611624098
 10
241.4527423391
 20
151.2684555399
 10
240.4823564703
 20
152.6316334637
 10
239.4685689844
 20
153.944858844
 10
238.4157210751
 20
155.2025082481
 10
237.328321199
 20
156.3991962282
 10
236.211025769
 20
157.5297983826
 10
235.0686192159
 20
158.5894732993
 10
233.9059934998
 20
159.5736832877
 10
232.7281271626
 20
160.4782138095
 10
231.5400640088
 20
161.2991915261
 10
230.3468915071
 20
162.0331008849
 10
229.1537190054
 20
162.6767991733
 10
227.9656558515
 20
163.2275299765
 10
226.7877895143
 20
163.6829349807
 10
225.6251637982
 20
164.0410640716
 10
224.4827572451
 20
164.3003836855
 10
223.3654618152
 20
164.459783376
 10
222.278061939
 20
164.5185805692
 10
221.2252140298
 20
164.4765234865
 10
220.2114265439
 20
164.3337922228
 10
219.241040675
 20
164.0909979752
 10
218.3182117644
 20
163.7491804259
 10
217.4468915071
 20
163.3098032903
 10
216.6308110302
 20
162.7747480486
 10
215.8734649157
 20
162.1463058896
 10
215.1780962359
 20
161.427167899
 10
214.5476826661
 20
160.6204135361
 10
213.9849237342
 20
159.729497447
 10
213.4922292602
 20
158.7582346711
 10
213.0717090375
 20
157.7107843048
 10
212.7251637982
 20
156.5916316913
 10
212.4540775024
 20
155.4055692139
 10
212.2596109831
 20
154.1576757743
 10
212.1425969758
 20
152.8532950437
 10
212.1035365525
 20
151.4980125807
 10
212.1425969758
 20
150.0976319129
 10
212.2596109831
 20
148.6581496852
 10
212.4540775024
 20
147.1857299815
 10
212.7251637982
 20
145.6866779292
 10
213.0717090375
 20
144.1674126991
 10
213.4922292602
 20
142.6344400183
 10
213.9849237342
 20
141.0943243111
 10
214.5476826661
 20
139.5536605894
 10
215.1780962359
 20
138.0190462119
 10
215.8734649157
 20
136.4970526328
 10
216.6308110302
 20
134.9941972624
 10
217.4468915071
 20
133.516915558
 10
218.3182117644
 20
132.0715334667
 10
219.241040675
 20
130.6642403365
 10
220.2114265439
 20
129.3010624127
 10
221.2252140298
 20
127.9878370324
 10
222.278061939
 20
126.7301876283
 10
223.3654618152
 20
125.5334996483
 10
224.4827572451
 20
124.4028974938
 10
225.6251637982
 20
123.3432225771
 10
226.7877895143
 20
122.3590125887
 10
227.9656558515
 20
121.454482067
 10
229.1537190054
 20
120.6335043504
 10
230.3468915071
 20
119.8995949916
 10
231.5400640088
 20
119.2558967031
 10
232.7281271626
 20
118.7051658999
 10
233.9059934998
 20
118.2497608958
 10
235.0686192159
 20
117.8916318049
 10
236.211025769
 20
117.632312191
 10
237.328321199
 20
117.4729125004
 10
238.4157210751
 20
117.4141153072
 10
239.4685689844
 20
117.4561723899
 10
240.4823564703
 20
117.5989036537
 10
241.4527423391
 20
117.8416979013
 10
242.3755712498
 20
118.1835154505
 10
243.2468915071
 20
118.6228925862
 10
244.0629719839
 20
119.1579478278
 10
244.8203180984
 20
119.7863899869
 10
245.5156867783
 20
120.5055279775
 10
246.146100348
 20
121.3122823403
 10
246.70885928
 20
122.2031984294
 10
247.201553754
 20
123.1744612053
 10
247.6220739767
 20
124.2219115716
 10
247.9686192159
 20
125.3410641851
 10
248.2397055117
 20
126.5271266625
 10
248.434172031
 20
127.7750201021
 10
248.5511860383
 20
129.0794008327
 10
248.5902464617
 20
130.4346832957
  0
LWPOLYLINE
  5
171
330
1F
100
AcDbEntity
  8
0
  6
Continuous
 62
     7
370
    35
100
AcDbPolyline
 90
       90
 70
   128
 43
0.0
 10
246.0800173885
 20
131.8838076942
 10
246.0408265676
 20
133.1879862137
 10
245.9234493517
 20
134.5309161401
 10
245.7284705081
 20
135.905907064
 10
245.4568614117
 20
137.3061088497
 10
245.1099752052
 20
138.7245457625
 10
244.6895400584
 20
140.154151221
 10
244.197650558
 20
141.5878030027
 10
243.6367572726
 20
143.0183587265
 10
243.0096545446
 20
144.4386914357
 10
242.319466568
 20
145.8417251043
 10
241.5696318247
 20
147.2204698891
 10
240.7638859537
 20
148.568056953
 10
239.9062431403
 20
149.8777726849
 10
239.000976118
 20
151.143092147
 10
238.0525948814
 20
152.3577115813
 10
237.0658242182
 20
153.515579815
 10
236.0455801702
 20
154.6109284067
 10
234.996945542
 20
155.6383003849
 10
233.9251445785
 20
156.592577434
 10
232.8355169381
 20
157.4690053937
 10
231.7334910911
 20
158.2632179442
 10
230.6245572746
 20
158.9712583583
 10
229.5142401413
 20
159.5895992144
 10
228.4080712352
 20
160.1151599694
 10
227.3115614342
 20
160.5453223061
 10
226.2301734949
 20
160.8779431773
 10
225.1692948376
 20
161.1113654826
 10
224.1342107066
 20
161.2444263239
 10
223.1300778387
 20
161.2764627986
 10
222.1618987736
 20
161.2073153028
 10
221.2344969305
 20
161.0373283257
 10
220.3524925789
 20
160.7673487339
 10
219.5202798199
 20
160.3987215521
 10
218.7420046958
 20
159.9332832625
 10
218.0215445341
 20
159.3733526552
 10
217.362488631
 20
158.7217192763
 10
216.7681203699
 20
157.9816295304
 10
216.2414008635
 20
157.1567705076
 10
215.784954202
 20
156.251251614
 10
215.4010543797
 20
155.2695840991
 10
215.0916139662
 20
154.2166585811
 10
214.8581745779
 20
153.097720682
 10
214.7018991984
 20
151.9183448941
 10
214.6235663835
 20
150.6844068083
 10
214.6235663835
 20
149.402053842
 10
214.7018991984
 20
148.0776746133
 10
214.8581745779
 20
146.7178671127
 10
215.0916139662
 20
145.329405833
 10
215.4010543797
 20
143.9192080183
 10
215.784954202
 20
142.4942992032
 10
216.2414008635
 20
141.0617782117
 10
216.7681203699
 20
139.6287817915
 10
217.362488631
 20
138.2024490584
 10
218.0215445341
 20
136.7898859306
 10
218.7420046958
 20
135.3981297264
 10
219.5202798199
 20
134.0341141053
 10
220.3524925789
 20
132.7046345244
 10
221.2344969305
 20
131.4163143842
 10
222.1618987736
 20
130.1755720307
 10
223.1300778387
 20
128.9885887801
 10
224.1342107066
 20
127.861278123
 10
225.1692948376
 20
126.7992562646
 10
226.2301734949
 20
125.8078141443
 10
227.3115614342
 20
124.8918910768
 10
228.4080712352
 20
124.0560501448
 10
229.5142401413
 20
123.3044554659
 10
230.6245572746
 20
122.6408514468
 10
231.7334910911
 20
122.0685441294
 10
232.8355169381
 20
121.59038472
 10
233.9251445785
 20
121.2087553848
 10
234.996945542
 20
120.9255573818
 10
236.0455801702
 20
120.7422015892
 10
237.0658242182
 20
120.6596014765
 10
238.0525948814
 20
120.6781685532
 10
239.000976118
 20
120.797810319
 10
239.9062431403
 20
121.0179307248
 10
240.7638859537
 20
121.3374331417
 10
241.5696318247
 20
121.7547258247
 10
242.319466568
 20
122.2677298427
 10
243.0096545446
 20
122.8738894355
 10
243.6367572726
 20
123.5701847465
 10
244.197650558
 20
124.3531468675
 10
244.6895400584
 20
125.2188751205
 10
245.1099752052
 20
126.163056491
 10
245.4568614117
 20
127.1809871149
 10
245.7284705081
 20
128.2675957129
 10
245.9234493517
 20
129.4174688558
 10
246.0408265676
 20
130.6248779333
 10
246.0800173885
 20
131.8838076942
  0
LWPOLYLINE
  5
172
330
1F
100
AcDbEntity
  8
0
  6
Continuous
 62
     7
370
    35
100
AcDbPolyline
 90
       17
 70
   128
 43
0.0
 10
247.4942309508
 20
131.0673995824
 10
247.4538619768
 20
131.3250615755
 10
247.3389008649
 20
131.5901058912
 10
247.1668494025
 20
131.8221819351
 10
246.9639008649
 20
131.9859582332
 10
246.7609523274
 20
132.0565013289
 10
246.5889008649
 20
132.0230716752
 10
246.4739397531
 20
131.890758634
 10
246.4335707791
 20
131.6797056662
 10
246.4739397531
 20
131.4220436731
 10
246.5889008649
 20
131.1569993574
 10
246.7609523274
 20
130.9249233135
 10
246.9639008649
 20
130.7611470154
 10
247.1668494025
 20
130.6906039197
 10
247.3389008649
 20
130.7240335734
 10
247.4538619768
 20
130.8563466146
 10
247.4942309508
 20
131.0673995824
  0
LWPOLYLINE
  5
173
330
1F
100
AcDbEntity
  8
0
  6
Continuous
 62
     7
370
    35
100
AcDbPolyline
 90
       17
 70
   128
 43
0.0
 10
213.1995520633
 20
150.8652962941
 10
213.2399210374
 20
150.607634301
 10
213.3548821492
 20
150.3425899853
 10
213.5269336116
 20
150.1105139414
 10
213.7298821492
 20
149.9467376432
 10
213.9328306867
 20
149.8761945475
 10
214.1048821492
 20
149.9096242012
 10
214.219843261
 20
150.0419372425
 10
214.2602122351
 20
150.2529902102
 10
214.219843261
 20
150.5106522033
 10
214.1048821492
 20
150.775696519
 10
213.9328306867
 20
151.0077725629
 10
213.7298821492
 20
151.1715488611
 10
213.5269336116
 20
151.2420919567
 10
213.3548821492
 20
151.2086623031
 10
213.2399210374
 20
151.0763492618
 10
213.1995520633
 20
150.8652962941
  0
LWPOLYLINE
  5
174
330
1F
100
AcDbEntity
  8
0
  6
Continuous
 62
     7
370
    35
100
AcDbPolyline
 90
       44
 70
   128
 43
0.0
 10
220.5292500268
 20
160.8307373613
 10
220.4964182683
 20
160.8020668509
 10
219.8373623651
 20
160.1504334719
 10
219.242994104
 20
159.4103437261
 10
218.7162745977
 20
158.5854847033
 10
218.2598279362
 20
157.6799658097
 10
217.8759281139
 20
156.6982982948
 10
217.5664877003
 20
155.6453727768
 10
217.3330483121
 20
154.5264348777
 10
217.1767729325
 20
153.3470590898
 10
217.0984401177
 20
152.113121004
 10
217.0984401177
 20
150.8307680377
 10
217.1767729325
 20
149.506388809
 10
217.3330483121
 20
148.1465813084
 10
217.5664877003
 20
146.7581200287
 10
217.8759281139
 20
145.347922214
 10
218.2598279362
 20
143.9230133989
 10
218.7162745977
 20
142.4904924074
 10
219.242994104
 20
141.0574959871
 10
219.8373623651
 20
139.6311632541
 10
220.4964182683
 20
138.2186001263
 10
221.21687843
 20
136.8268439221
 10
221.9951535541
 20
135.462828301
 10
222.827366313
 20
134.1333487201
 10
223.7093706647
 20
132.8450285799
 10
224.6367725078
 20
131.6042862264
 10
225.6049515729
 20
130.4173029758
 10
226.6090844407
 20
129.2899923187
 10
227.6441685718
 20
128.2279704603
 10
228.705047229
 20
127.23652834
 10
229.7864351683
 20
126.3206052725
 10
230.8829449694
 20
125.4847643405
 10
231.9891138755
 20
124.7331696616
 10
233.0994310088
 20
124.0695656425
 10
234.2083648252
 20
123.4972583251
 10
235.3103906723
 20
123.0190989157
 10
236.4000183126
 20
122.6374695804
 10
237.4718192762
 20
122.3542715774
 10
238.5204539044
 20
122.1709157849
 10
239.5406979524
 20
122.0883156722
 10
240.5274686155
 20
122.1068827489
 10
241.4758498521
 20
122.2265245147
 10
242.3811168745
 20
122.4466449205
 10
242.6394067215
 20
122.5306727109
  0
ARC
  5
175
330
1F
100
AcDbEntity
  8
0
  6
Continuous
 62
     7
370
    35
100
AcDbCircle
 10
242.3275242487
 20
107.9869925652
 30
0.0
 40
6.242394133603134
100
AcDbArc
 50
99.7425221475
 51
173.9365598674
  0
LINE
  5
176
330
1F
100
AcDbEntity
  8
0
  6
Continuous
 62
     7
370
    35
100
AcDbLine
 10
224.5737301232
 20
115.3119242431
 30
0.0
 11
236.120052891
 21
108.6463739895
 31
0.0
  0
ARC
  5
177
330
1F
100
AcDbEntity
  8
0
  6
Continuous
 62
     7
370
    35
100
AcDbCircle
 10
199.0160469034
 20
110.6841805864
 30
0.0
 40
25.97327824734041
100
AcDbArc
 50
10.2633754097
 51
38.2168497942
  0
LWPOLYLINE
  5
178
330
1F
100
AcDbEntity
  8
0
  6
Continuous
 62
     7
370
    35
100
AcDbPolyline
 90
       34
 70
   128
 43
0.0
 10
219.5602284271
 20
167.8107414497
 10
218.4742171936
 20
167.6259013973
 10
217.4338714687
 20
167.33852151
 10
216.4431927026
 20
166.9497071282
 10
215.5059913131
 20
166.4609537371
 10
214.6258720297
 20
165.8741412139
 10
213.8062200284
 20
165.1915265981
 10
213.0501879121
 20
164.4157354095
 10
212.3606835843
 20
163.5497515503
 10
211.7403590645
 20
162.5969058282
 10
211.1916002884
 20
161.5608631448
 10
210.71651793
 20
160.4456083998
 10
210.3169392845
 20
159.2554311638
 10
209.994401239
 20
157.9949091797
 10
209.7501443619
 20
156.6688907549
 10
209.585108131
 20
155.2824761141
 10
209.4999273203
 20
153.840997782
 10
209.494929558
 20
152.3500000732
 10
209.5701340669
 20
150.8152177672
 10
209.7252515903
 20
149.2425540507
 10
209.9596855042
 20
147.6380578128
 10
210.2725341126
 20
146.0079003787
 10
210.6625941153
 20
144.3583517737
 10
211.1283652363
 20
142.6957566069
 10
211.6680559942
 20
141.0265096678
 10
212.2795905929
 20
139.3570313305
 10
212.9606169051
 20
137.693742859
 10
213.7085155201
 20
136.0430417095
 10
214.5204098179
 20
134.411276924
 10
215.393177034
 20
132.8047247101
 10
216.3234602703
 20
131.2295643011
 10
217.3076814065
 20
129.6918541888
 10
218.3420548625
 20
128.1975088211
 10
219.422602159
 20
126.7522758535
  0
ARC
  5
179
330
1F
100
AcDbEntity
  8
0
  6
Continuous
 62
     7
370
    35
100
AcDbCircle
 10
218.3862821571
 20
178.417630871
 30
0.0
 40
10.67165652749631
100
AcDbArc
 50
276.315661562
 51
308.8299380645
  0
ARC
  5
17A
330
1F
100
AcDbEntity
  8
0
  6
Continuous
 62
     7
370
    35
100
AcDbCircle
 10
225.464332959
 20
169.505226452
 30
0.0
 40
0.7130962439862261
100
AcDbArc
 50
53.0519878611
 51
122.8492682221
  0
LINE
  5
17B
330
1F
100
AcDbEntity
  8
0
  6
Continuous
 62
     7
370
    35
100
AcDbLine
 10
234.8008149439
 20
164.9327290538
 30
0.0
 11
225.8929680702
 21
170.0751195952
 31
0.0
  0
ARC
  5
17C
330
1F
100
AcDbEntity
  8
0
  6
Continuous
 62
     7
370
    35
100
AcDbCircle
 10
233.6161602268
 20
163.0532763166
 30
0.0
 40
2.221654651431449
100
AcDbArc
 50
25.8060544358
 51
57.7759910857
  0
ARC
  5
17D
330
1F
100
AcDbEntity
  8
0
  6
Continuous
 62
     7
370
    35
100
AcDbCircle
 10
282.9538129055
 20
188.0777484424
 30
0.0
 40
53.09989979383228
100
AcDbArc
 50
206.9400437236
 51
218.0403511254
  0
LWPOLYLINE
  5
17E
330
1F
100
AcDbEntity
  8
0
  6
Continuous
 62
     7
370
    35
100
AcDbPolyline
 90
       34
 70
   128
 43
0.0
 10
241.2711808551
 20
114.1393598457
 10
242.3517281516
 20
114.3370194601
 10
243.3861016076
 20
114.637102656
 10
244.3703227438
 20
115.0384552326
 10
245.3006059801
 20
115.5395334795
 10
246.1733731963
 20
116.1384101146
 10
246.9852674941
 20
116.8327816968
 10
247.733166109
 20
117.6199774857
 10
248.4141924213
 20
118.4969697138
 10
249.0257270199
 20
119.4603852326
 10
249.5654177778
 20
120.5065184859
 10
250.0311888989
 20
121.6313457631
 10
250.4212489016
 20
122.8305406749
 10
250.7340975099
 20
124.0994907943
 10
250.9685314238
 20
125.4333153967
 10
251.1236489472
 20
126.8268842329
 10
251.1988534562
 20
128.2748372611
 10
251.1938556939
 20
129.7716052633
 10
251.1086748831
 20
131.3114312661
 10
250.9436386523
 20
132.8883926832
 10
250.6993817752
 20
134.4964240954
 10
250.3768437297
 20
136.1293405803
 10
249.9772650841
 20
137.7808615005
 10
249.5021827258
 20
139.4446346608
 10
248.9534239496
 20
141.114260741
 10
248.3330994298
 20
142.7833179086
 10
247.643595102
 20
144.4453865196
 10
246.8875629857
 20
146.0940738095
 10
246.0679109845
 20
147.7230384824
 10
245.187791701
 20
149.3260151006
 10
244.2505903115
 20
150.8968381835
 10
243.2599115454
 20
152.4294659219
 10
242.2195658205
 20
153.9180034159
 10
241.1335545871
 20
155.3567253487
  0
LWPOLYLINE
  5
17F
330
1F
100
AcDbEntity
  8
0
  6
Continuous
 62
     7
370
    35
100
AcDbPolyline
 90
       98
 70
   128
 43
0.0
 10
211.6085618056
 20
151.7837554199
 10
211.647859339
 20
153.1617147056
 10
211.7655871117
 20
154.4885223849
 10
211.9612513325
 20
155.7586133654
 10
212.2340313176
 20
156.9666604439
 10
212.5827829331
 20
158.1075966513
 10
213.0060433933
 20
159.1766365046
 10
213.5020373969
 20
160.1692960791
 10
214.0686845727
 20
161.0814118156
 10
214.7036082054
 20
161.9091579837
 10
215.4041452047
 20
162.6490627284
 10
216.167357275
 20
163.2980226319
 10
216.9900432395
 20
163.853315731
 10
217.8687524676
 20
164.3126129334
 10
218.7997993472
 20
164.6739877869
 10
219.7792787443
 20
164.93592456
 10
220.8030823818
 20
165.0973245987
 10
221.8669160714
 20
165.1575109352
 10
222.9663177251
 20
165.116231127
 10
224.0966760701
 20
164.9736583161
 10
225.2532499907
 20
164.7303905023
 10
226.4311884141
 20
164.3874480354
 10
227.625550657
 20
163.9462693353
 10
228.8313271492
 20
163.4087048588
 10
230.043460445
 20
162.7770093381
 10
231.2568664361
 20
162.0538323237
 10
232.4664556761
 20
161.2422070714
 10
233.6671547274
 20
160.3455378195
 10
234.8539274409
 20
159.3675855106
 10
236.0217960793
 20
158.3124520163
 10
237.1658621959
 20
157.1845629334
 10
238.2813271796
 20
155.9886490205
 10
239.3635123826
 20
154.7297263563
 10
240.4078787443
 20
153.4130752999
 10
241.410045829
 20
152.0442183434
 10
242.3658101997
 20
150.6288969486
 10
243.2711630486
 20
149.1730474652
 10
244.1223070112
 20
147.682776232
 10
244.9156720938
 20
146.1643339645
 10
245.6479306477
 20
144.6240895371
 10
246.3160113258
 20
143.0685032702
 10
246.9171119659
 20
141.5040998334
 10
247.4487113427
 20
139.9374408782
 10
247.9085797439
 20
138.3750975168
 10
248.2947883215
 20
136.8236227602
 10
248.6057171825
 20
135.2895240327
 10
248.8400621832
 20
133.7792358775
 10
248.9968403993
 20
132.299092968
 10
249.0753942484
 20
130.8553035379
 10
249.0753942484
 20
129.4539233419
 10
248.9968403993
 20
128.1008302554
 10
248.8400621832
 20
126.8016996213
 10
248.6057171825
 20
125.5619804447
 10
248.2947883215
 20
124.3868725387
 10
247.9085797439
 20
123.2813047144
 10
247.4487113427
 20
122.2499141074
 10
246.9171119659
 20
121.2970267282
 10
246.3160113258
 20
120.4266393178
 10
245.6479306477
 20
119.6424025834
 10
244.9156720938
 20
118.9476058864
 10
244.1223070112
 20
118.3451634456
 10
243.2711630486
 20
117.837602114
 10
242.3658101997
 20
117.4270507802
 10
241.410045829
 20
117.1152314392
 10
240.4078787443
 20
116.9034519696
 10
239.3635123826
 20
116.7926006481
 10
238.2813271796
 20
116.7831424238
 10
237.1658621959
 20
116.8751169676
 10
236.0217960793
 20
117.0681385064
 10
234.8539274409
 20
117.3613974408
 10
233.6671547274
 20
117.7536637409
 10
232.4664556761
 20
118.2432921055
 10
231.2568664361
 20
118.8282288631
 10
230.043460445
 20
119.5060205856
 10
228.8313271492
 20
120.273824379
 10
227.625550657
 20
121.1284198074
 10
226.4311884141
 20
122.0662224005
 10
225.2532499907
 20
123.0832986884
 10
224.0966760701
 20
124.1753826997
 10
222.9663177251
 20
125.3378938544
 10
221.8669160714
 20
126.5659561768
 10
220.8030823818
 20
127.8544187468
 10
219.7792787443
 20
129.1978773045
 10
218.7997993472
 20
130.5906969179
 10
217.8687524676
 20
132.0270356174
 10
216.9900432395
 20
133.5008688995
 10
216.167357275
 20
135.0060149951
 10
215.4041452047
 20
136.5361607984
 10
214.7036082054
 20
138.0848883462
 10
214.0686845727
 20
139.6457017369
 10
213.5020373969
 20
141.2120543767
 10
213.0060433933
 20
142.7773764383
 10
212.5827829331
 20
144.335102417
 10
212.2340313176
 20
145.8786986687
 10
211.9612513325
 20
147.4016908143
 10
211.7655871117
 20
148.8976908954
 10
211.647859339
 20
150.3604241678
 10
211.6085618056
 20
151.7837554199
  0
ARC
  5
180
330
1F
100
AcDbEntity
  8
0
  6
Continuous
 62
     7
370
    35
100
AcDbCircle
 10
244.2652726247
 20
152.6974490976
 30
0.0
 40
4.108455676686835
100
AcDbArc
 50
120.0762592204
 51
139.6639841167
  0
ARC
  5
181
330
1F
100
AcDbEntity
  8
0
  6
Continuous
 62
     7
370
    35
100
AcDbCircle
 10
241.1993539391
 20
123.8002288758
 30
0.0
 40
10.20741319974632
100
AcDbArc
 50
292.4550268256
 51
306.9746104465
  0
LINE
  5
182
330
1F
100
AcDbEntity
  8
0
  6
Continuous
 62
     7
370
    35
100
AcDbLine
 10
251.3986991196
 20
161.5593915352
 30
0.0
 11
242.2063109642
 21
156.2527388084
 31
0.0
  0
ARC
  5
183
330
1F
100
AcDbEntity
  8
0
  6
Continuous
 62
     7
370
    35
100
AcDbCircle
 10
250.3854256772
 20
129.1149604453
 30
0.0
 40
10.21766660927689
100
AcDbArc
 50
300.0057508443
 51
306.9802074722
  0
ARC
  5
184
330
1F
100
AcDbEntity
  8
0
  6
Continuous
 62
     7
370
    35
100
AcDbCircle
 10
231.5594856458
 20
173.827039485
 30
0.0
 40
10.61259392173114
100
AcDbArc
 50
292.4737405217
 51
300.0075222238
  0
ARC
  5
185
330
1F
100
AcDbEntity
  8
0
  6
Continuous
 62
     7
370
    35
100
AcDbCircle
 10
282.6775286917
 20
187.9182450281
 30
0.0
 40
51.38699980048474
100
AcDbArc
 50
206.9400437236
 51
218.0403511254
  0
LINE
  5
186
330
1F
100
AcDbEntity
  8
0
  6
Continuous
 62
     7
370
    35
100
AcDbLine
 10
246.0593773511
 20
169.9436130056
 30
0.0
 11
236.8669891956
 21
164.6369602788
 31
0.0
  0
ARC
  5
187
330
1F
100
AcDbEntity
  8
0
  6
Continuous
 62
     7
370
    35
100
AcDbCircle
 10
291.8699168471
 20
193.2248977549
 30
0.0
 40
51.38699980048202
100
AcDbArc
 50
206.9400437236
 51
218.0403511254
  0
ARC
  5
188
330
1F
100
AcDbEntity
  8
0
  6
Continuous
 62
     7
370
    35
100
AcDbCircle
 10
233.5334971966
 20
163.0250526929
 30
0.0
 40
3.702757752385342
100
AcDbArc
 50
25.8060544358
 51
57.7759910857
  0
ARC
  5
189
330
1F
100
AcDbEntity
  8
0
  6
Continuous
 62
     7
370
    35
100
AcDbCircle
 10
236.3360310453
 20
164.8628682016
 30
0.0
 40
1.536804807572143
100
AcDbArc
 50
122.60547834
 51
177.3945215143
  0
LINE
  5
18A
330
1F
100
AcDbEntity
  8
0
  6
Continuous
 62
     7
370
    35
100
AcDbLine
 10
244.7003098805
 20
171.4641266485
 30
0.0
 11
235.5079217251
 21
166.1574739216
 31
0.0
  0
ARC
  5
18B
330
1F
100
AcDbEntity
  8
0
  6
Continuous
 62
     7
370
    35
100
AcDbCircle
 10
242.725885352
 20
168.3317054198
 30
0.0
 40
3.702757752385239
100
AcDbArc
 50
25.8060544358
 51
57.7759910857
  0
LINE
  5
18C
330
1F
100
AcDbEntity
  8
0
  6
Continuous
 62
     7
370
    35
100
AcDbLine
 10
226.6000748514
 20
171.299864463
 30
0.0
 11
235.5079217251
 21
166.1574739216
 31
0.0
  0
ARC
  5
18D
330
1F
100
AcDbEntity
  8
0
  6
Continuous
 62
     7
370
    35
100
AcDbCircle
 10
227.4281841716
 20
170.0052587429
 30
0.0
 40
1.536804807572219
100
AcDbArc
 50
122.60547834
 51
177.3945215143
  0
LINE
  5
18E
330
1F
100
AcDbEntity
  8
0
  6
Continuous
 62
     7
370
    35
100
AcDbLine
 10
235.7924630068
 20
176.6065171898
 30
0.0
 11
226.6000748514
 21
171.299864463
 31
0.0
  0
LINE
  5
18F
330
1F
100
AcDbEntity
  8
0
  6
Continuous
 62
     7
370
    35
100
AcDbLine
 10
244.7003098805
 20
171.4641266485
 30
0.0
 11
235.7924630068
 21
176.6065171898
 31
0.0
  0
LWPOLYLINE
  5
190
330
1F
100
AcDbEntity
  8
0
  6
Continuous
 62
     7
370
    35
100
AcDbPolyline
 90
       25
 70
   128
 43
0.0
 10
236.8715071984
 20
172.0870456011
 10
236.513792366
 20
172.2455019829
 10
236.0972246207
 20
172.3451118286
 10
235.650192366
 20
172.379086892
 10
235.2031601113
 20
172.3451118286
 10
234.786592366
 20
172.2455019829
 10
234.4288775335
 20
172.0870456011
 10
234.1543932885
 20
171.8805412239
 10
233.9818452788
 20
171.6400617833
 10
233.922992366
 20
171.3819955557
 10
233.9818452788
 20
171.1239293282
 10
234.1543932885
 20
170.8834498876
 10
234.4288775335
 20
170.6769455104
 10
234.786592366
 20
170.5184891286
 10
235.2031601113
 20
170.4188792828
 10
235.650192366
 20
170.3849042194
 10
236.0972246207
 20
170.4188792828
 10
236.513792366
 20
170.5184891286
 10
236.8715071984
 20
170.6769455104
 10
237.1459914434
 20
170.8834498876
 10
237.3185394531
 20
171.1239293282
 10
237.377392366
 20
171.3819955557
 10
237.3185394531
 20
171.6400617833
 10
237.1459914434
 20
171.8805412239
 10
236.8715071984
 20
172.0870456011
  0
ARC
  5
191
330
1F
100
AcDbEntity
  8
0
  6
Continuous
 62
     7
370
    35
100
AcDbCircle
 10
218.9142568715
 20
179.1372561072
 30
0.0
 40
10.03442870049557
100
AcDbArc
 50
293.1069788846
 51
307.6087939022
  0
ARC
  5
192
330
1F
100
AcDbEntity
  8
0
  6
Continuous
 62
     7
370
    35
100
AcDbCircle
 10
220.5339306367
 20
168.2618339995
 30
0.0
 40
1.073117179809297
100
AcDbArc
 50
126.0979047037
 51
204.8571420588
  0
LINE
  5
193
330
1F
100
AcDbEntity
  8
0
  6
Continuous
 62
     7
370
    35
100
AcDbLine
 10
229.0940737677
 20
174.4355776735
 30
0.0
 11
219.9016856123
 21
169.1289249467
 31
0.0
  0
ARC
  5
194
330
1F
100
AcDbEntity
  8
0
  6
Continuous
 62
     7
370
    35
100
AcDbCircle
 10
220.9085376715
 20
158.9490195192
 30
0.0
 40
10.20723606500201
100
AcDbArc
 50
112.5410008851
 51
127.0293348904
  0
ARC
  5
195
330
1F
100
AcDbEntity
  8
0
  6
Continuous
 62
     7
370
    35
100
AcDbCircle
 10
230.1045092311
 20
164.2466248438
 30
0.0
 40
10.21696147206049
100
AcDbArc
 50
112.6510102103
 51
119.9896574518
  0
LINE
  5
196
330
1F
100
AcDbEntity
  8
0
  6
Continuous
 62
     7
370
    35
100
AcDbLine
 10
240.4399400744
 20
113.0086524501
 30
0.0
 11
240.403935432
 21
112.9880660075
 31
0.0
  0
ARC
  5
197
330
1F
100
AcDbEntity
  8
0
  6
Continuous
 62
     7
370
    35
100
AcDbCircle
 10
236.9445900649
 20
109.6741189177
 30
0.0
 40
1.317619515912775
100
AcDbArc
 50
231.2606939376
 51
295.865753288
  0
LINE
  5
198
330
1F
100
AcDbEntity
  8
0
  6
Continuous
 62
     7
370
    35
100
AcDbLine
 10
246.7118082185
 20
113.7951529614
 30
0.0
 11
237.5194200631
 21
108.4885002345
 31
0.0
  0
LWPOLYLINE
  5
199
330
1F
100
AcDbEntity
  8
0
  6
Continuous
 62
     7
370
    35
100
AcDbPolyline
 90
       33
 70
   128
 43
0.0
 10
222.4173997079
 20
161.2357450966
 10
222.3251991469
 20
160.8547839484
 10
222.0950090405
 20
159.6495822511
 10
221.9427292813
 20
158.3846374933
 10
221.8690399877
 20
157.0655992253
 10
221.8742702741
 20
155.6983585921
 10
221.9583967806
 20
154.2890220224
 10
222.1210437779
 20
152.8438839554
 10
222.3614848451
 20
151.3693987285
 10
222.6786461138
 20
149.8721517507
 10
223.0711110649
 20
148.3588300905
 10
223.5371268548
 20
146.8361926097
 10
224.0746121436
 20
145.3110397769
 10
224.6811663917
 20
143.790183295
 10
225.3540805805
 20
142.2804156782
 10
226.0903493119
 20
140.7884799151
 10
226.886684231
 20
139.3210393531
 10
227.7395287128
 20
137.884647938
 10
228.6450737468
 20
136.4857209424
 10
229.599274949
 20
135.130506314
 10
230.5978706252
 20
133.8250567702
 10
231.6364008048
 20
132.5752027656
 10
232.7102271598
 20
131.3865264517
 10
233.814553721
 20
130.2643367453
 10
234.944448298
 20
129.2136456181
 10
236.0948645073
 20
128.2391457119
 10
237.2606643108
 20
127.3451893796
 10
238.4366409636
 20
126.5357692473
 10
239.6175422685
 20
125.8145003818
 10
240.7980940336
 20
125.184604145
 10
241.9730236281
 20
124.6488938063
 10
243.1370835313
 20
124.2097619781
 10
243.9343629842
 20
123.9632329232
  0
LWPOLYLINE
  5
19A
330
1F
100
AcDbEntity
  8
0
  6
Continuous
 62
     7
370
    35
100
AcDbPolyline
 90
       33
 70
   128
 43
0.0
 10
223.2814501604
 20
161.2781191431
 10
223.0364829636
 20
160.3692383846
 10
222.8049208372
 20
159.1917806616
 10
222.6513820166
 20
157.9540896227
 10
222.5765823706
 20
156.6619359549
 10
222.5808706496
 20
155.321344275
 10
222.6642268598
 20
153.9385650403
 10
222.826262356
 20
152.520045406
 10
223.066221654
 20
151.0723991653
 10
223.3829859526
 20
149.6023759133
 10
223.7750783506
 20
148.116829577
 10
224.2406707321
 20
146.6226864592
 10
224.7775922906
 20
145.1269129447
 10
225.3833396499
 20
143.6364830203
 10
226.0550885362
 20
142.1583457582
 10
226.7897069461
 20
140.6993929167
 10
227.5837697494
 20
139.2664268074
 10
228.4335746588
 20
137.8661285798
 10
229.3351594916
 20
136.5050270706
 10
230.284320643
 20
135.1894683634
 10
231.2766326856
 20
133.9255862001
 10
232.3074690026
 20
132.7192733829
 10
233.3720233593
 20
131.5761542989
 10
234.4653323118
 20
130.5015586971
 10
235.582298349
 20
129.500496838
 10
236.7177136598
 20
128.5776361344
 10
237.8662844137
 20
127.7372793887
 10
239.0226554438
 20
126.983344732
 10
240.1814352144
 20
126.3193473557
 10
241.3372209595
 20
125.7483831222
 10
242.4846238723
 20
125.2731141302
 10
243.6182942307
 20
124.8957563032
 10
244.4031534391
 20
124.6902915547
  0
LWPOLYLINE
  5
19B
330
1F
100
AcDbEntity
  8
0
  6
Continuous
 62
     7
370
    35
100
AcDbPolyline
 90
       33
 70
   128
 43
0.0
 10
223.866574491
 20
161.2626771451
 10
223.7435897448
 20
160.7774424405
 10
223.5120276184
 20
159.5999847175
 10
223.3584887978
 20
158.3622936786
 10
223.2836891518
 20
157.0701400108
 10
223.2879774308
 20
155.7295483309
 10
223.371333641
 20
154.3467690963
 10
223.5333691372
 20
152.9282494619
 10
223.7733284351
 20
151.4806032212
 10
224.0900927338
 20
150.0105799692
 10
224.4821851318
 20
148.5250336329
 10
224.9477775133
 20
147.0308905151
 10
225.4846990718
 20
145.5351170006
 10
226.0904464311
 20
144.0446870762
 10
226.7621953174
 20
142.5665498141
 10
227.4968137272
 20
141.1075969726
 10
228.2908765306
 20
139.6746308633
 10
229.14068144
 20
138.2743326357
 10
230.0422662728
 20
136.9132311265
 10
230.9914274242
 20
135.5976724193
 10
231.9837394668
 20
134.333790256
 10
233.0145757838
 20
133.1274774388
 10
234.0791301405
 20
131.9843583548
 10
235.1724390929
 20
130.909762753
 10
236.2894051302
 20
129.908700894
 10
237.4248204409
 20
128.9858401903
 10
238.5733911949
 20
128.1454834446
 10
239.729762225
 20
127.3915487879
 10
240.8885419956
 20
126.7275514116
 10
242.0443277407
 20
126.1565871781
 10
243.1917306534
 20
125.6813181861
 10
244.3254010119
 20
125.3039603591
 10
244.682390716
 20
125.2047188875
  0
LWPOLYLINE
  5
19C
330
1F
100
AcDbEntity
  8
0
  6
Continuous
 62
     7
370
    35
100
AcDbPolyline
 90
       30
 70
   128
 43
0.0
 10
242.2063109642
 20
156.2527388084
 10
243.2967650334
 20
154.8097600695
 10
244.3428585002
 20
153.3181000206
 10
245.3408009357
 20
151.7831635624
 10
246.2869763822
 20
150.2105124038
 10
247.1779564551
 20
148.6058449097
 10
248.0105127653
 20
146.9749754536
 10
248.7816286175
 20
145.3238133493
 10
249.4885099402
 20
143.6583414393
 10
250.1285954105
 20
141.9845944165
 10
250.699565734
 20
140.308636958
 10
251.1993520495
 20
138.6365417501
 10
251.6261434246
 20
136.9743674846
 10
251.9783934178
 20
135.3281369056
 10
252.2548256819
 20
133.7038149868
 10
252.4544385885
 20
132.1072873176
 10
252.5765088576
 20
130.5443387774
 10
252.6205941782
 20
129.0206325745
 10
252.5865348109
 20
127.5416897261
 10
252.474454167
 20
126.1128690532
 10
252.2847583608
 20
124.7393477634
 10
252.0181347388
 20
123.426102692
 10
251.6755493883
 20
122.1778922684
 10
251.2582436377
 20
120.9992392746
 10
250.7677295582
 20
119.8944144576
 10
250.205784485
 20
118.8674210541
 10
249.5744445772
 20
117.9219802855
 10
248.8759974401
 20
117.0615178745
 10
248.1129738364
 20
116.2891516318
 10
247.3387155397
 20
115.6455048849
  0
ARC
  5
19D
330
1F
100
AcDbEntity
  8
0
  6
Continuous
 62
     7
370
    35
100
AcDbCircle
 10
242.053525732
 20
114.3698849248
 30
0.0
 40
0.8156012006603871
100
AcDbArc
 50
196.4180919501
 51
273.932049039
  0
LWPOLYLINE
  5
19E
330
1F
100
AcDbEntity
  8
0
  6
Continuous
 62
     7
370
    35
100
AcDbPolyline
 90
       30
 70
   128
 43
0.0
 10
256.5317516819
 20
120.9526453581
 10
257.3053619918
 20
121.5958043586
 10
258.0683855955
 20
122.3681706013
 10
258.7668327326
 20
123.2286330124
 10
259.3981726404
 20
124.174073781
 10
259.9601177137
 20
125.2010671845
 10
260.4506317932
 20
126.3058920015
 10
260.8679375437
 20
127.4845449952
 10
261.2105228942
 20
128.7327554188
 10
261.4771465163
 20
130.0460004903
 10
261.6668423224
 20
131.41952178
 10
261.7789229664
 20
132.8483424529
 10
261.8129823336
 20
134.3272853013
 10
261.768897013
 20
135.8509915042
 10
261.6468267439
 20
137.4139400445
 10
261.4472138373
 20
139.0104677137
 10
261.1707815732
 20
140.6347896325
 10
260.81853158
 20
142.2810202114
 10
260.3917402049
 20
143.9431944769
 10
259.8919538894
 20
145.6152896849
 10
259.3209835659
 20
147.2912471434
 10
258.6808980957
 20
148.9649941661
 10
257.9740167729
 20
150.6304660761
 10
257.2029009207
 20
152.2816281804
 10
256.3703446105
 20
153.9124976366
 10
255.4793645376
 20
155.5171651306
 10
254.5331890912
 20
157.0898162892
 10
253.5352466556
 20
158.6247527475
 10
252.4891531888
 20
160.1164127964
 10
251.3986991196
 20
161.5593915352
  0
ARC
  5
19F
330
1F
100
AcDbEntity
  8
0
  6
Continuous
 62
     7
370
    35
100
AcDbCircle
 10
251.7501410187
 20
161.1655374324
 30
0.0
 40
0.5278564792789033
100
AcDbArc
 50
82.4095237039
 51
131.7430091646
  0
ARC
  5
1A0
330
1F
100
AcDbEntity
  8
0
  6
Continuous
 62
     7
370
    35
100
AcDbCircle
 10
241.5305248437
 20
156.6307496071
 30
0.0
 40
18.22016769153063
100
AcDbArc
 50
165.2804238812
 51
180.5442116547
  0
LWPOLYLINE
  5
1A1
330
1F
100
AcDbEntity
  8
0
  6
Continuous
 62
     7
370
    35
100
AcDbPolyline
 90
       28
 70
   128
 43
0.0
 10
244.7011961465
 20
125.2420710681
 10
243.6919562234
 20
125.5450019511
 10
242.5523968884
 20
125.9759678418
 10
241.4020858681
 20
126.5034711048
 10
240.2463864437
 20
127.1250522763
 10
239.0906870192
 20
127.837813258
 10
237.940375999
 20
128.6384308292
 10
236.8008166639
 20
129.5231721411
 10
235.6773221657
 20
130.4879121214
 10
234.5751307544
 20
131.5281527069
 10
233.499381355
 20
132.6390438158
 10
232.4550896079
 20
133.8154059611
 10
231.4471244832
 20
135.0517543992
 10
230.4801855797
 20
136.3423247031
 10
229.5587812129
 20
137.6810996382
 10
228.6872073953
 20
139.0618372179
 10
227.8695278064
 20
140.4780998062
 10
227.1095548458
 20
141.923284133
 10
226.4108318583
 20
143.3906520819
 10
225.7766166131
 20
144.8733621062
 10
225.2098661143
 20
146.3645011273
 10
224.7132228144
 20
147.8571167668
 10
224.2890022938
 20
149.3442497615
 10
223.9391824643
 20
150.8189664109
 10
223.6653943475
 20
152.2743909052
 10
223.46891447
 20
153.7037373837
 10
223.3506589115
 20
155.1003415731
 10
223.3111790343
 20
156.4576918601
  0
ARC
  5
1A2
330
1F
100
AcDbEntity
  8
0
  6
Continuous
 62
     7
370
    35
100
AcDbCircle
 10
245.6991525474
 20
170.8238037554
 30
0.0
 40
0.9510508215901898
100
AcDbArc
 50
292.2572074318
 51
318.1020218099
  0
ARC
  5
1A3
330
1F
100
AcDbEntity
  8
0
  6
Continuous
 62
     7
370
    35
100
AcDbCircle
 10
241.9485309916
 20
156.7471736924
 30
0.0
 40
18.14314599878779
100
AcDbArc
 50
165.7175797523
 51
180.5274560175
  0
LWPOLYLINE
  5
1A4
330
1F
100
AcDbEntity
  8
0
  6
Continuous
 62
     7
370
    35
100
AcDbPolyline
 90
       28
 70
   128
 43
0.0
 10
244.8979684761
 20
125.6571343494
 10
244.0167365887
 20
125.9256067162
 10
242.8866934068
 20
126.3529737268
 10
241.7459883241
 20
126.8760719521
 10
240.5999398343
 20
127.4924624666
 10
239.4538913445
 20
128.1992713733
 10
238.3131862618
 20
128.9932032028
 10
237.1831430798
 20
129.8705562783
 10
236.0690305816
 20
130.8272399748
 10
234.9760432739
 20
131.8587937913
 10
233.909277168
 20
132.9604081478
 10
232.8737060201
 20
134.1269468096
 10
231.8741581407
 20
135.3529708348
 10
230.9152938836
 20
136.6327639337
 10
230.0015839165
 20
137.9603591199
 10
229.1372883771
 20
139.3295665319
 10
228.3264370102
 20
140.7340022927
 10
227.5728103791
 20
142.1671182744
 10
226.8799222392
 20
143.6222326288
 10
226.2510031546
 20
145.092560941
 10
225.6889854366
 20
146.5712478617
 10
225.1964894712
 20
148.05139907
 10
224.7758115019
 20
149.5261134175
 10
224.4289129236
 20
150.9885151053
 10
224.1574111377
 20
152.4317857417
 10
223.9625720106
 20
153.8491961326
 10
223.8453039725
 20
155.2341376565
 10
223.8061537811
 20
156.5801530768
  0
LWPOLYLINE
  5
1A5
330
1F
100
AcDbEntity
  8
0
  6
Continuous
 62
     7
370
    35
100
AcDbPolyline
 90
       28
 70
   128
 43
0.0
 10
223.5940217467
 20
156.4576918601
 10
223.6331719382
 20
155.1116764398
 10
223.7504399763
 20
153.7267349158
 10
223.9452791033
 20
152.3093245249
 10
224.2167808893
 20
150.8660538886
 10
224.5636794676
 20
149.4036522007
 10
224.9843574369
 20
147.9289378532
 10
225.4768534023
 20
146.4487866449
 10
226.0388711203
 20
144.9700997242
 10
226.6677902048
 20
143.499771412
 10
227.3606783448
 20
142.0446570576
 10
228.1143049759
 20
140.6115410759
 10
228.9251563428
 20
139.2071053151
 10
229.7894518822
 20
137.8378979031
 10
230.7031618492
 20
136.5103027169
 10
231.6620261064
 20
135.2305096181
 10
232.6615739857
 20
134.0044855928
 10
233.6971451337
 20
132.837946931
 10
234.7639112395
 20
131.7363325746
 10
235.8568985473
 20
130.704778758
 10
236.9710110455
 20
129.7480950615
 10
238.1010542274
 20
128.870741986
 10
239.2417593101
 20
128.0768101566
 10
240.3878077999
 20
127.3700012499
 10
241.5338562897
 20
126.7536107353
 10
242.6745613724
 20
126.2305125101
 10
243.8046045544
 20
125.8031454994
 10
244.824931712
 20
125.4976373708
  0
ARC
  5
1A6
330
1F
100
AcDbEntity
  8
0
  6
Continuous
 62
     7
370
    35
100
AcDbCircle
 10
241.6489580734
 20
156.6300535633
 30
0.0
 40
18.05575903467431
100
AcDbArc
 50
165.2088258114
 51
180.5469583484
  0
ARC
  5
1A7
330
1F
100
AcDbEntity
  8
0
  6
Continuous
 62
     7
370
    35
100
AcDbCircle
 10
244.9905183912
 20
171.0825365627
 30
0.0
 40
0.4794079403255441
100
AcDbArc
 50
64.038843745
 51
127.2538687612
  0
ARC
  5
1A8
330
1F
100
AcDbEntity
  8
0
  6
Continuous
 62
     7
370
    35
100
AcDbCircle
 10
225.8717665196
 20
170.3087580793
 30
0.0
 40
1.229928814988494
100
AcDbArc
 50
53.6899264434
 51
115.5614872638
  0
ARC
  5
1A9
330
1F
100
AcDbEntity
  8
0
  6
Continuous
 62
     7
370
    35
100
AcDbCircle
 10
225.7703477048
 20
170.6540211494
 30
0.0
 40
0.8844174414414582
100
AcDbArc
 50
134.0176229952
 51
218.430449161
  0
ARC
  5
1AA
330
1F
100
AcDbEntity
  8
0
  6
Continuous
 62
     7
370
    35
100
AcDbCircle
 10
235.0628599678
 20
175.6115506389
 30
0.0
 40
1.233806723916705
100
AcDbArc
 50
53.7476264185
 51
114.9419151525
  0
ARC
  5
1AB
330
1F
100
AcDbEntity
  8
0
  6
Continuous
 62
     7
370
    35
100
AcDbCircle
 10
236.0853830617
 20
176.1976358607
 30
0.0
 40
0.5029772359017736
100
AcDbArc
 50
65.6928809539
 51
125.6175774752
  0
ARC
  5
1AC
330
1F
100
AcDbEntity
  8
0
  6
Continuous
 62
     7
370
    35
100
AcDbCircle
 10
218.6731505501
 20
179.7604562147
 30
0.0
 40
10.70227805204524
100
AcDbArc
 50
276.5916235503
 51
292.9848571515
  0
ARC
  5
1AD
330
1F
100
AcDbEntity
  8
0
  6
Continuous
 62
     7
370
    35
100
AcDbCircle
 10
227.8322950539
 20
185.2147427405
 30
0.0
 40
10.8527639366459
100
AcDbArc
 50
276.6764986162
 51
290.4618801842
  0
LWPOLYLINE
  5
1AE
330
1F
100
AcDbEntity
  8
0
  6
Continuous
 62
     7
370
    35
100
AcDbPolyline
 90
        3
 70
   128
 43
0.0
 10
229.0940737677
 20
174.4355776735
 10
229.2390493118
 20
174.4977293344
 10
229.3393956235
 20
174.5183322483
  0
ARC
  5
1AF
330
1F
100
AcDbEntity
  8
0
  6
Continuous
 62
     7
370
    35
100
AcDbCircle
 10
221.1676560745
 20
158.2516564094
 30
0.0
 40
10.95069185229486
100
AcDbArc
 50
96.6386046026
 51
112.3944629818
  0
LWPOLYLINE
  5
1B0
330
1F
100
AcDbEntity
  8
0
  6
Continuous
 62
     7
370
    35
100
AcDbPolyline
 90
        5
 70
   128
 43
0.0
 10
219.3400609694
 20
126.546919843
 10
219.3360352075
 20
126.5533785959
 10
219.3347140834
 20
126.5989590492
 10
219.3639441658
 20
126.6661184342
 10
219.422602159
 20
126.7522758535
  0
ARC
  5
1B1
330
1F
100
AcDbEntity
  8
0
  6
Continuous
 62
     7
370
    35
100
AcDbCircle
 10
230.3594480641
 20
163.5614105123
 30
0.0
 40
10.94754235248902
100
AcDbArc
 50
96.6373818637
 51
112.5012594779
  0
ARC
  5
1B2
330
1F
100
AcDbEntity
  8
0
  6
Continuous
 62
     7
370
    35
100
AcDbCircle
 10
243.9542931152
 20
107.5376907781
 30
0.0
 40
6.504739027811683
100
AcDbArc
 50
123.0800974474
 51
171.5948581887
  0
LWPOLYLINE
  5
1B3
330
1F
100
AcDbEntity
  8
0
  6
Continuous
 62
     7
370
    35
100
AcDbPolyline
 90
        3
 70
   128
 43
0.0
 10
246.7118082185
 20
113.7951529614
 10
246.9496412346
 20
114.7311079811
 10
247.2292650444
 20
115.4949222686
  0
ARC
  5
1B4
330
1F
100
AcDbEntity
  8
0
  6
Continuous
 62
     7
370
    35
100
AcDbCircle
 10
246.4589573645
 20
114.2896408103
 30
0.0
 40
0.5553843598101159
100
AcDbArc
 50
297.0824256233
 51
346.7925128532
  0
ARC
  5
1B5
330
1F
100
AcDbEntity
  8
0
  6
Continuous
 62
     7
370
    35
100
AcDbCircle
 10
237.1019308665
 20
108.5445137807
 30
0.0
 40
0.4212300400239448
100
AcDbArc
 50
302.3165619421
 51
352.358393694
  0
ARC
  5
1B6
330
1F
100
AcDbEntity
  8
0
  6
Continuous
 62
     7
370
    35
100
AcDbCircle
 10
236.5957384469
 20
108.5858099609
 30
0.0
 40
0.479525546426788
100
AcDbArc
 50
172.7441704391
 51
235.9436491676
  0
ARC
  5
1B7
330
1F
100
AcDbEntity
  8
0
  6
Continuous
 62
     7
370
    35
100
AcDbCircle
 10
225.049415679
 20
115.2513602145
 30
0.0
 40
0.4795255463716344
100
AcDbArc
 50
172.744170435
 51
235.9436491716
  0
ARC
  5
1B8
330
1F
100
AcDbEntity
  8
0
  6
Continuous
 62
     7
370
    35
100
AcDbCircle
 10
246.2943190219
 20
113.8511665076
 30
0.0
 40
0.4212300400237908
100
AcDbArc
 50
302.3165619421
 51
352.358393694
  0
ARC
  5
1B9
330
1F
100
AcDbEntity
  8
0
  6
Continuous
 62
     7
370
    35
100
AcDbCircle
 10
224.6358319809
 20
115.6642009526
 30
0.0
 40
0.3577087093936285
100
AcDbArc
 50
197.0579792935
 51
260.0022132292
  0
LINE
  5
1BA
330
1F
100
AcDbEntity
  8
0
  6
Continuous
 62
     7
370
    35
100
AcDbLine
 10
198.3096148122
 20
132.6887449785
 30
0.0
 11
198.3096148122
 21
82.3080230957
 31
0.0
  0
ARC
  5
1BB
330
1F
100
AcDbEntity
  8
0
  6
Continuous
 62
     7
370
    35
100
AcDbCircle
 10
197.3781813722
 20
82.3885097174
 30
0.0
 40
0.9349044599992685
100
AcDbArc
 50
265.7941104122
 51
355.0612500992
  0
LINE
  5
1BC
330
1F
100
AcDbEntity
  8
0
  6
Continuous
 62
     7
370
    35
100
AcDbLine
 10
197.3096148122
 20
81.4561230078
 30
0.0
 11
197.3096148122
 21
133.5446659714
 31
0.0
  0
ARC
  5
1BD
330
1F
100
AcDbEntity
  8
0
  6
Continuous
 62
     7
370
    35
100
AcDbCircle
 10
197.3764646257
 20
132.6106421933
 30
0.0
 40
0.9364130048354791
100
AcDbArc
 50
4.7843896674
 51
94.0937845123
  0
LINE
  5
1BE
330
1F
100
AcDbEntity
  8
0
  6
Continuous
 62
     7
370
    35
100
AcDbLine
 10
184.3096148122
 20
133.5446659714
 30
0.0
 11
184.3096148122
 21
81.4561230078
 31
0.0
  0
LINE
  5
1BF
330
1F
100
AcDbEntity
  8
0
  6
Continuous
 62
     7
370
    35
100
AcDbLine
 10
197.3096148122
 20
133.5446659714
 30
0.0
 11
184.3096148122
 21
133.5446659714
 31
0.0
  0
LINE
  5
1C0
330
1F
100
AcDbEntity
  8
0
  6
Continuous
 62
     7
370
    35
100
AcDbLine
 10
197.3096148122
 20
81.4561230078
 30
0.0
 11
184.3096148122
 21
81.4561230078
 31
0.0
  0
LINE
  5
1C1
330
1F
100
AcDbEntity
  8
0
  6
Continuous
 62
     7
370
    35
100
AcDbLine
 10
183.3096148122
 20
82.3080230957
 30
0.0
 11
183.3096148122
 21
132.6887449785
 31
0.0
  0
ARC
  5
1C2
330
1F
100
AcDbEntity
  8
0
  6
Continuous
 62
     7
370
    35
100
AcDbCircle
 10
184.2427649987
 20
132.6106421933
 30
0.0
 40
0.9364130048354223
100
AcDbArc
 50
85.9062154877
 51
175.2156103326
  0
ARC
  5
1C3
330
1F
100
AcDbEntity
  8
0
  6
Continuous
 62
     7
370
    35
100
AcDbCircle
 10
184.2410482521
 20
82.3885097174
 30
0.0
 40
0.9349044599992685
100
AcDbArc
 50
184.9387499008
 51
274.2058895879
  0
ARC
  5
1C4
330
1F
100
AcDbEntity
  8
0
  6
Continuous
 62
     7
370
    35
100
AcDbCircle
 10
197.5492270366
 20
73.1145623253
 30
0.0
 40
1.399985142689704
100
AcDbArc
 50
260.1451127642
 51
302.8976416156
  0
LINE
  5
1C5
330
1F
100
AcDbEntity
  8
0
  6
Continuous
 62
     7
370
    35
100
AcDbLine
 10
197.3096148122
 20
71.7352348146
 30
0.0
 11
197.3096148122
 21
81.4561230078
 31
0.0
  0
LINE
  5
1C6
330
1F
100
AcDbEntity
  8
0
  6
Continuous
 62
     7
370
    35
100
AcDbLine
 10
198.3096148122
 20
82.3080230957
 30
0.0
 11
198.3096148122
 21
71.9390756897
 31
0.0
  0
LINE
  5
1C7
330
1F
100
AcDbEntity
  8
0
  6
Continuous
 62
     7
370
    35
100
AcDbLine
 10
184.3096148122
 20
81.4561230078
 30
0.0
 11
184.3096148122
 21
71.7352348146
 31
0.0
  0
LINE
  5
1C8
330
1F
100
AcDbEntity
  8
0
  6
Continuous
 62
     7
370
    35
100
AcDbLine
 10
197.3096148122
 20
71.7352348146
 30
0.0
 11
184.3096148122
 21
71.7352348146
 31
0.0
  0
ARC
  5
1C9
330
1F
100
AcDbEntity
  8
0
  6
Continuous
 62
     7
370
    35
100
AcDbCircle
 10
184.0700025878
 20
73.1145623253
 30
0.0
 40
1.399985142689704
100
AcDbArc
 50
237.1023583844
 51
279.8548872358
  0
LINE
  5
1CA
330
1F
100
AcDbEntity
  8
0
  6
Continuous
 62
     7
370
    35
100
AcDbLine
 10
183.3096148122
 20
71.9390756897
 30
0.0
 11
183.3096148122
 21
82.3080230957
 31
0.0
  0
LINE
  5
1CB
330
1F
100
AcDbEntity
  8
0
  6
Continuous
 62
     7
370
    35
100
AcDbLine
 10
197.3096148122
 20
133.5446659714
 30
0.0
 11
197.3096148122
 21
140.0377849256
 31
0.0
  0
LWPOLYLINE
  5
1CC
330
1F
100
AcDbEntity
  8
0
  6
Continuous
 62
     7
370
    35
100
AcDbPolyline
 90
        9
 70
   128
 43
0.0
 10
197.3096148122
 20
140.0377849256
 10
197.5047051342
 20
140.0254974257
 10
197.6922982445
 20
139.9891071278
 10
197.8651850452
 20
139.9300124907
 10
198.0167215934
 20
139.850484488
 10
198.1410844245
 20
139.7535793363
 10
198.2334943447
 20
139.6430210463
 10
198.2904000926
 20
139.5230583111
 10
198.3096148122
 20
139.3983012312
  0
LINE
  5
1CD
330
1F
100
AcDbEntity
  8
0
  6
Continuous
 62
     7
370
    35
100
AcDbLine
 10
198.3096148122
 20
139.3983012312
 30
0.0
 11
198.3096148122
 21
132.6887449785
 31
0.0
  0
LINE
  5
1CE
330
1F
100
AcDbEntity
  8
0
  6
Continuous
 62
     7
370
    35
100
AcDbLine
 10
184.3096148122
 20
140.0377849256
 30
0.0
 11
184.3096148122
 21
133.5446659714
 31
0.0
  0
LINE
  5
1CF
330
1F
100
AcDbEntity
  8
0
  6
Continuous
 62
     7
370
    35
100
AcDbLine
 10
197.3096148122
 20
140.0377849256
 30
0.0
 11
184.3096148122
 21
140.0377849256
 31
0.0
  0
LWPOLYLINE
  5
1D0
330
1F
100
AcDbEntity
  8
0
  6
Continuous
 62
     7
370
    35
100
AcDbPolyline
 90
        9
 70
   128
 43
0.0
 10
184.3096148122
 20
140.0377849256
 10
184.1145244902
 20
140.0254974257
 10
183.9269313798
 20
139.9891071278
 10
183.7540445792
 20
139.9300124907
 10
183.602508031
 20
139.850484488
 10
183.4781451999
 20
139.7535793363
 10
183.3857352797
 20
139.6430210463
 10
183.3288295318
 20
139.5230583111
 10
183.3096148122
 20
139.3983012312
  0
LINE
  5
1D1
330
1F
100
AcDbEntity
  8
0
  6
Continuous
 62
     7
370
    35
100
AcDbLine
 10
183.3096148122
 20
132.6887449785
 30
0.0
 11
183.3096148122
 21
139.3983012312
 31
0.0
  0
ARC
  5
1D2
330
1F
100
AcDbEntity
  8
0
  6
Continuous
 62
     7
370
    35
100
AcDbCircle
 10
197.3096148122
 20
71.9390756897
 30
0.0
 40
1.0
100
AcDbArc
 50
270.0
 51
0.0
  0
LINE
  5
1D3
330
1F
100
AcDbEntity
  8
0
  6
Continuous
 62
     7
370
    35
100
AcDbLine
 10
197.3096148122
 20
70.9390756897
 30
0.0
 11
197.3096148122
 21
71.7352348146
 31
0.0
  0
LINE
  5
1D4
330
1F
100
AcDbEntity
  8
0
  6
Continuous
 62
     7
370
    35
100
AcDbLine
 10
184.3096148122
 20
71.7352348146
 30
0.0
 11
184.3096148122
 21
70.9390756897
 31
0.0
  0
LINE
  5
1D5
330
1F
100
AcDbEntity
  8
0
  6
Continuous
 62
     7
370
    35
100
AcDbLine
 10
197.3096148122
 20
70.9390756897
 30
0.0
 11
184.3096148122
 21
70.9390756897
 31
0.0
  0
ARC
  5
1D6
330
1F
100
AcDbEntity
  8
0
  6
Continuous
 62
     7
370
    35
100
AcDbCircle
 10
184.3096148122
 20
71.9390756897
 30
0.0
 40
1.0
100
AcDbArc
 50
180.0
 51
270.0
  0
LINE
  5
1D7
330
1F
100
AcDbEntity
  8
0
  6
Continuous
 62
     7
370
    35
100
AcDbLine
 10
197.3096148122
 20
140.0377849256
 30
0.0
 11
197.3096148122
 21
140.9390756897
 31
0.0
  0
ARC
  5
1D8
330
1F
100
AcDbEntity
  8
0
  6
Continuous
 62
     7
370
    35
100
AcDbCircle
 10
197.3096148122
 20
139.9390756897
 30
0.0
 40
1.0
100
AcDbArc
 50
0.0
 51
90.0
  0
LINE
  5
1D9
330
1F
100
AcDbEntity
  8
0
  6
Continuous
 62
     7
370
    35
100
AcDbLine
 10
198.3096148122
 20
139.9390756897
 30
0.0
 11
198.3096148122
 21
139.3983012312
 31
0.0
  0
LINE
  5
1DA
330
1F
100
AcDbEntity
  8
0
  6
Continuous
 62
     7
370
    35
100
AcDbLine
 10
184.3096148122
 20
140.9390756897
 30
0.0
 11
184.3096148122
 21
140.0377849256
 31
0.0
  0
LINE
  5
1DB
330
1F
100
AcDbEntity
  8
0
  6
Continuous
 62
     7
370
    35
100
AcDbLine
 10
197.3096148122
 20
140.9390756897
 30
0.0
 11
184.3096148122
 21
140.9390756897
 31
0.0
  0
ARC
  5
1DC
330
1F
100
AcDbEntity
  8
0
  6
Continuous
 62
     7
370
    35
100
AcDbCircle
 10
184.3096148122
 20
139.9390756897
 30
0.0
 40
1.0
100
AcDbArc
 50
90.0
 51
180.0
  0
LINE
  5
1DD
330
1F
100
AcDbEntity
  8
0
  6
Continuous
 62
     7
370
    35
100
AcDbLine
 10
183.3096148122
 20
139.3983012312
 30
0.0
 11
183.3096148122
 21
139.9390756897
 31
0.0
  0
LINE
  5
1DE
330
1F
100
AcDbEntity
  8
SLD-0
  6
CENTERX2
100
AcDbLine
 10
189.1596148122
 20
140.9390756897
 30
0.0
 11
189.1596148122
 21
135.9390756897
 31
0.0
  0
LINE
  5
1DF
330
1F
100
AcDbEntity
  8
SLD-0
  6
CENTERX2
100
AcDbLine
 10
189.1596148122
 20
135.9390756897
 30
0.0
 11
190.8096148122
 21
134.9476556683
 31
0.0
  0
LINE
  5
1E0
330
1F
100
AcDbEntity
  8
SLD-0
  6
CENTERX2
100
AcDbLine
 10
190.8096148122
 20
134.9476556683
 30
0.0
 11
192.4596148122
 21
135.9390756897
 31
0.0
  0
LINE
  5
1E1
330
1F
100
AcDbEntity
  8
SLD-0
  6
CENTERX2
100
AcDbLine
 10
192.4596148122
 20
135.9390756897
 30
0.0
 11
192.4596148122
 21
140.9390756897
 31
0.0
  0
LINE
  5
1E2
330
1F
100
AcDbEntity
  8
SLD-0
  6
CENTERX2
100
AcDbLine
 10
189.1596148122
 20
135.9390756897
 30
0.0
 11
192.4596148122
 21
135.9390756897
 31
0.0
  0
LINE
  5
1E3
330
1F
100
AcDbEntity
  8
SLD-0
  6
CENTERX2
100
AcDbLine
 10
193.3096148122
 20
77.9390756897
 30
0.0
 11
193.3096148122
 21
70.9390756897
 31
0.0
  0
LINE
  5
1E4
330
1F
100
AcDbEntity
  8
SLD-0
  6
CENTERX2
100
AcDbLine
 10
193.3096148122
 20
77.9390756897
 30
0.0
 11
190.8096148122
 21
79.4412272372
 31
0.0
  0
LINE
  5
1E5
330
1F
100
AcDbEntity
  8
SLD-0
  6
CENTERX2
100
AcDbLine
 10
190.8096148122
 20
79.4412272372
 30
0.0
 11
188.3096148122
 21
77.9390756897
 31
0.0
  0
LINE
  5
1E6
330
1F
100
AcDbEntity
  8
SLD-0
  6
CENTERX2
100
AcDbLine
 10
188.3096148122
 20
77.9390756897
 30
0.0
 11
188.3096148122
 21
70.9390756897
 31
0.0
  0
LINE
  5
1E7
330
1F
100
AcDbEntity
  8
SLD-0
  6
CENTERX2
100
AcDbLine
 10
188.3096148122
 20
77.9390756897
 30
0.0
 11
193.3096148122
 21
77.9390756897
 31
0.0
  0
DIMENSION
  5
1E8
330
1F
100
AcDbEntity
  8
SLD-0
 62
     7
100
AcDbDimension
  2
_D_3
 10
190.8096148122
 20
60.2529825165
 30
0.0
 11
187.0596148122
 21
60.2529825165
 31
0.0
 70
   160
  1
<>
 71
     2
 42
-1.0
  3
SLDDIMSTYLE0
100
AcDbAlignedDimension
 13
183.3096148122
 23
71.9390756897
 33
0.0
 14
190.8096148122
 24
69.9390756897
 34
0.0
100
AcDbRotatedDimension
  0
DIMENSION
  5
1F2
330
1F
100
AcDbEntity
  8
SLD-0
 62
     7
100
AcDbDimension
  2
_D_4
 10
198.3096148122
 20
52.3693073704
 30
0.0
 11
190.8096148122
 21
52.3693073704
 31
0.0
 70
   160
  1
<>
 71
     2
 42
-1.0
  3
SLDDIMSTYLE0
100
AcDbAlignedDimension
 13
183.3096148122
 23
71.9390756897
 33
0.0
 14
198.3096148122
 24
71.9390756897
 34
0.0
100
AcDbRotatedDimension
  0
INSERT
  5
207
330
1F
100
AcDbEntity
  8
SLD-0
 62
     7
100
AcDbBlockReference
  2
SW_NOTE_0_1
 10
185.4143646409
 20
149.9447513812
 30
0.0
  0
LEADER
  5
208
330
1F
100
AcDbEntity
  8
SLD-0
 62
     7
100
AcDbLeader
  3
SLDDIMSTYLE2
 76
     2
 10
190.8362747779
 20
140.9390756897
 30
0.0
 10
185.4143646409
 20
149.9447513812
 30
0.0
  0
INSERT
  5
214
330
1F
100
AcDbEntity
  8
SLD-0
 62
     7
100
AcDbBlockReference
  2
SW_NOTE_0_2
 10
207.0718232044
 20
55.138121547
 30
0.0
  0
LEADER
  5
215
330
1F
100
AcDbEntity
  8
SLD-0
 62
     7
100
AcDbLeader
  3
SLDDIMSTYLE2
 76
     2
 10
190.8958719472
 20
70.9390756897
 30
0.0
 10
207.0718232044
 20
55.138121547
 30
0.0
  0
LINE
  5
216
330
1F
100
AcDbEntity
  8
SLD-0
  6
CENTERX2
370
    18
100
AcDbLine
 10
190.8096148122
 20
141.9390756897
 30
0.0
 11
190.8096148122
 21
69.9390756897
 31
0.0
  0
ENDSEC
  0
SECTION
  2
OBJECTS
  0
DICTIONARY
  5
C
330
0
100
AcDbDictionary
281
     1
  3
ACAD_DETAILVIEWSTYLE
350
220
  3
ACAD_GROUP
350
D
  3
ACAD_LAYOUT
350
1A
  3
ACAD_MATERIAL
350
43
  3
ACAD_MLEADERSTYLE
350
5B
  3
ACAD_MLINESTYLE
350
17
  3
ACAD_PLOTSETTINGS
350
19
  3
ACAD_PLOTSTYLENAME
350
E
  3
ACAD_SCALELIST
350
47
  3
ACAD_SECTIONVIEWSTYLE
350
221
  3
ACAD_TABLESTYLE
350
59
  3
ACDB_RECOMPOSE_DATA
350
21D
  3
AcDbVariableDictionary
350
217
  0
DICTIONARY
  5
220
102
{ACAD_REACTORS
330
C
102
}
330
C
100
AcDbDictionary
281
     1
  0
DICTIONARY
  5
D
102
{ACAD_REACTORS
330
C
102
}
330
C
100
AcDbDictionary
281
     1
  0
DICTIONARY
  5
1A
102
{ACAD_REACTORS
330
C
102
}
330
C
100
AcDbDictionary
281
     1
  3
Layout1
350
1E
  3
Layout2
350
26
  3
Model
350
22
  0
DICTIONARY
  5
43
102
{ACAD_REACTORS
330
C
102
}
330
C
100
AcDbDictionary
281
     1
  3
ByBlock
350
45
  3
ByLayer
350
44
  3
Global
350
46
  0
DICTIONARY
  5
5B
102
{ACAD_REACTORS
330
C
102
}
330
C
100
AcDbDictionary
281
     1
  3
Standard
350
5C
  0
DICTIONARY
  5
17
102
{ACAD_REACTORS
330
C
102
}
330
C
100
AcDbDictionary
281
     1
  3
Standard
350
18
  0
DICTIONARY
  5
19
102
{ACAD_REACTORS
330
C
102
}
330
C
100
AcDbDictionary
281
     1
  0
ACDBDICTIONARYWDFLT
  5
E
102
{ACAD_REACTORS
330
C
102
}
330
C
100
AcDbDictionary
281
     1
  3
Normal
350
F
100
AcDbDictionaryWithDefault
340
F
  0
DICTIONARY
  5
47
102
{ACAD_REACTORS
330
C
102
}
330
C
100
AcDbDictionary
281
     1
  3
A0
350
48
  3
A1
350
49
  3
A2
350
4A
  3
A3
350
4B
  3
A4
350
4C
  3
A5
350
4D
  3
A6
350
4E
  3
A7
350
4F
  3
A8
350
50
  3
A9
350
51
  3
B0
350
52
  3
B1
350
53
  3
B2
350
54
  3
B3
350
55
  3
B4
350
56
  3
B5
350
57
  3
B6
350
58
  0
DICTIONARY
  5
221
102
{ACAD_REACTORS
330
C
102
}
330
C
100
AcDbDictionary
281
     1
  0
DICTIONARY
  5
59
102
{ACAD_REACTORS
330
C
102
}
330
C
100
AcDbDictionary
281
     1
  3
Standard
350
5A
  0
XRECORD
  5
21D
102
{ACAD_REACTORS
330
C
102
}
330
C
100
AcDbXrecord
280
     1
 90
        1
330
5A
  0
DICTIONARY
  5
217
102
{ACAD_REACTORS
330
C
102
}
330
C
100
AcDbDictionary
281
     1
  3
CANNOSCALE
350
218
  3
CENTEREXE
350
222
  3
CENTERLTYPEFILE
350
223
  3
CMLEADERSTYLE
350
21F
  3
CTABLESTYLE
350
21E
  0
LAYOUT
  5
1E
102
{ACAD_REACTORS
330
1A
102
}
330
1A
100
AcDbPlotSettings
  1

  2
none_device
  4

  6

 40
0.0
 41
0.0
 42
0.0
 43
0.0
 44
0.0
 45
0.0
 46
0.0
 47
0.0
 48
0.0
 49
0.0
140
0.0
141
0.0
142
1.0
143
1.0
 70
   688
 72
     1
 73
     0
 74
     5
  7

 75
    16
 76
     0
 77
     2
 78
   300
147
1.0
148
0.0
149
0.0
100
AcDbLayout
  1
Layout1
 70
     1
 71
     1
 10
0.0
 20
0.0
 11
420.0
 21
297.0
 12
0.0
 22
0.0
 32
0.0
 14
1.0000000000E+20
 24
1.0000000000E+20
 34
1.0000000000E+20
 15
-1.0000000000E+20
 25
-1.0000000000E+20
 35
-1.0000000000E+20
146
0.0
 13
0.0
 23
0.0
 33
0.0
 16
1.0
 26
0.0
 36
0.0
 17
0.0
 27
1.0
 37
0.0
 76
     0
330
1B
  0
LAYOUT
  5
26
102
{ACAD_REACTORS
330
1A
102
}
330
1A
100
AcDbPlotSettings
  1

  2
none_device
  4

  6

 40
0.0
 41
0.0
 42
0.0
 43
0.0
 44
0.0
 45
0.0
 46
0.0
 47
0.0
 48
0.0
 49
0.0
140
0.0
141
0.0
142
1.0
143
1.0
 70
   688
 72
     1
 73
     0
 74
     5
  7

 75
    16
 76
     0
 77
     2
 78
   300
147
1.0
148
0.0
149
0.0
100
AcDbLayout
  1
Layout2
 70
     1
 71
     2
 10
0.0
 20
0.0
 11
0.0
 21
0.0
 12
0.0
 22
0.0
 32
0.0
 14
0.0
 24
0.0
 34
0.0
 15
0.0
 25
0.0
 35
0.0
146
0.0
 13
0.0
 23
0.0
 33
0.0
 16
1.0
 26
0.0
 36
0.0
 17
0.0
 27
1.0
 37
0.0
 76
     0
330
23
  0
LAYOUT
  5
22
102
{ACAD_REACTORS
330
1A
102
}
330
1A
100
AcDbPlotSettings
  1

  2
none_device
  4
Letter_(8.50_x_11.00_Inches)
  6

 40
6.35
 41
6.35
 42
6.35000508
 43
6.35000508
 44
215.9
 45
279.4
 46
0.0
 47
0.0
 48
0.0
 49
0.0
140
0.0
141
0.0
142
1.0
143
1.0
 70
  1712
 72
     1
 73
     0
 74
     0
  7

 75
     0
 76
     0
 77
     2
 78
   300
147
1.0
148
0.0
149
0.0
100
AcDbLayout
  1
Model
 70
     1
 71
     0
 10
0.0
 20
0.0
 11
297.0
 21
210.0
 12
0.0
 22
0.0
 32
0.0
 14
0.0
 24
0.0
 34
0.0
 15
297.0
 25
210.0
 35
0.0
146
0.0
 13
0.0
 23
0.0
 33
0.0
 16
1.0
 26
0.0
 36
0.0
 17
0.0
 27
1.0
 37
0.0
 76
     0
330
1F
331
29
  0
MATERIAL
  5
45
102
{ACAD_REACTORS
330
43
102
}
330
43
100
AcDbMaterial
  1
ByBlock
  0
MATERIAL
  5
44
102
{ACAD_REACTORS
330
43
102
}
330
43
100
AcDbMaterial
  1
ByLayer
  0
MATERIAL
  5
46
102
{ACAD_REACTORS
330
43
102
}
330
43
100
AcDbMaterial
  1
Global
  0
MLEADERSTYLE
  5
5C
102
{ACAD_REACTORS
330
5B
102
}
330
5B
100
AcDbMLeaderStyle
170
     2
171
     1
172
     0
 90
        2
 40
0.0
 41
0.0
173
     1
 91
-1056964608
340
14
 92
       -2
290
     1
 42
2.0
291
     1
 43
8.0
  3
Standard
341
0
 44
4.0
300

342
11
174
     1
178
     6
175
     1
176
     0
 93
-1056964608
 45
4.0
292
     0
297
     0
 46
4.0
343
0
 94
-1056964608
 47
1.0
 49
1.0
140
1.0
293
     1
141
0.0
294
     1
177
     0
142
1.0
295
     0
296
     0
143
3.75
1001
ACAD_MLEADERVER
1070
     2
  0
MLINESTYLE
  5
18
102
{ACAD_REACTORS
330
17
102
}
330
17
100
AcDbMlineStyle
  2
Standard
 70
     0
  3

 62
   256
 51
90.0
 52
90.0
 71
     2
 49
0.5
 62
   256
  6
BYLAYER
 49
-0.5
 62
   256
  6
BYLAYER
  0
ACDBPLACEHOLDER
  5
F
102
{ACAD_REACTORS
330
E
102
}
330
E
  0
SCALE
  5
48
102
{ACAD_REACTORS
330
47
102
}
330
47
100
AcDbScale
 70
     0
300
1:1
140
1.0
141
1.0
290
     1
  0
SCALE
  5
49
102
{ACAD_REACTORS
330
47
102
}
330
47
100
AcDbScale
 70
     0
300
1:2
140
1.0
141
2.0
290
     0
  0
SCALE
  5
4A
102
{ACAD_REACTORS
330
47
102
}
330
47
100
AcDbScale
 70
     0
300
1:4
140
1.0
141
4.0
290
     0
  0
SCALE
  5
4B
102
{ACAD_REACTORS
330
47
102
}
330
47
100
AcDbScale
 70
     0
300
1:5
140
1.0
141
5.0
290
     0
  0
SCALE
  5
4C
102
{ACAD_REACTORS
330
47
102
}
330
47
100
AcDbScale
 70
     0
300
1:8
140
1.0
141
8.0
290
     0
  0
SCALE
  5
4D
102
{ACAD_REACTORS
330
47
102
}
330
47
100
AcDbScale
 70
     0
300
1:10
140
1.0
141
10.0
290
     0
  0
SCALE
  5
4E
102
{ACAD_REACTORS
330
47
102
}
330
47
100
AcDbScale
 70
     0
300
1:16
140
1.0
141
16.0
290
     0
  0
SCALE
  5
4F
102
{ACAD_REACTORS
330
47
102
}
330
47
100
AcDbScale
 70
     0
300
1:20
140
1.0
141
20.0
290
     0
  0
SCALE
  5
50
102
{ACAD_REACTORS
330
47
102
}
330
47
100
AcDbScale
 70
     0
300
1:30
140
1.0
141
30.0
290
     0
  0
SCALE
  5
51
102
{ACAD_REACTORS
330
47
102
}
330
47
100
AcDbScale
 70
     0
300
1:40
140
1.0
141
40.0
290
     0
  0
SCALE
  5
52
102
{ACAD_REACTORS
330
47
102
}
330
47
100
AcDbScale
 70
     0
300
1:50
140
1.0
141
50.0
290
     0
  0
SCALE
  5
53
102
{ACAD_REACTORS
330
47
102
}
330
47
100
AcDbScale
 70
     0
300
1:100
140
1.0
141
100.0
290
     0
  0
SCALE
  5
54
102
{ACAD_REACTORS
330
47
102
}
330
47
100
AcDbScale
 70
     0
300
2:1
140
2.0
141
1.0
290
     0
  0
SCALE
  5
55
102
{ACAD_REACTORS
330
47
102
}
330
47
100
AcDbScale
 70
     0
300
4:1
140
4.0
141
1.0
290
     0
  0
SCALE
  5
56
102
{ACAD_REACTORS
330
47
102
}
330
47
100
AcDbScale
 70
     0
300
8:1
140
8.0
141
1.0
290
     0
  0
SCALE
  5
57
102
{ACAD_REACTORS
330
47
102
}
330
47
100
AcDbScale
 70
     0
300
10:1
140
10.0
141
1.0
290
     0
  0
SCALE
  5
58
102
{ACAD_REACTORS
330
47
102
}
330
47
100
AcDbScale
 70
     0
300
100:1
140
100.0
141
1.0
290
     0
  0
TABLESTYLE
  5
5A
102
{ACAD_REACTORS
330
59
102
}
102
{ACAD_XDICTIONARY
360
219
102
}
330
59
100
AcDbTableStyle
  3
Standard
 70
     0
 71
     0
 40
0.06
 41
0.06
280
     0
281
     0
  7
Standard
140
4.5
170
     2
 62
     0
 63
   257
283
     0
274
    -2
284
     1
 64
     0
275
    -2
285
     1
 65
     0
276
    -2
286
     1
 66
     0
277
    -2
287
     1
 67
     0
278
    -2
288
     1
 68
     0
279
    -2
289
     1
 69
     0
  7
Standard
140
6.0
170
     5
 62
     0
 63
   257
283
     0
274
    -2
284
     1
 64
     0
275
    -2
285
     1
 65
     0
276
    -2
286
     1
 66
     0
277
    -2
287
     1
 67
     0
278
    -2
288
     1
 68
     0
279
    -2
289
     1
 69
     0
  7
Standard
140
4.5
170
     5
 62
     0
 63
   257
283
     0
274
    -2
284
     1
 64
     0
275
    -2
285
     1
 65
     0
276
    -2
286
     1
 66
     0
277
    -2
287
     1
 67
     0
278
    -2
288
     1
 68
     0
279
    -2
289
     1
 69
     0
  0
DICTIONARYVAR
  5
218
102
{ACAD_REACTORS
330
217
102
}
330
217
100
DictionaryVariables
280
     0
  1
1:1
  0
DICTIONARYVAR
  5
222
102
{ACAD_REACTORS
330
217
102
}
330
217
100
DictionaryVariables
280
     0
  1
3.500000
  0
DICTIONARYVAR
  5
223
102
{ACAD_REACTORS
330
217
102
}
330
217
100
DictionaryVariables
280
     0
  1
acadiso.lin
  0
DICTIONARYVAR
  5
21F
102
{ACAD_REACTORS
330
217
102
}
330
217
100
DictionaryVariables
280
     0
  1
Standard
  0
DICTIONARYVAR
  5
21E
102
{ACAD_REACTORS
330
217
102
}
330
217
100
DictionaryVariables
280
     0
  1
Standard
  0
DICTIONARY
  5
219
330
5A
100
AcDbDictionary
280
     1
281
     1
  3
ACAD_ROUNDTRIP_2008_TABLESTYLE_CELLSTYLEMAP
360
21B
  3
ACAD_XREC_ROUNDTRIP
360
21A
  0
CELLSTYLEMAP
  5
21B
102
{ACAD_REACTORS
330
219
102
}
330
219
100
AcDbCellStyleMap
 90
        3
300
CELLSTYLE
  1
TABLEFORMAT_BEGIN
 90
        5
170
     1
 91
        0
 92
    32768
 62
   257
 93
        1
300
CONTENTFORMAT
  1
CONTENTFORMAT_BEGIN
 90
        0
 91
        0
 92
        4
 93
        0
300

 40
0.0
140
1.0
 94
        5
 62
     0
340
11
144
6.0
309
CONTENTFORMAT_END
171
     1
301
MARGIN
  1
CELLMARGIN_BEGIN
 40
1.5
 40
1.5
 40
1.5
 40
1.5
 40
1.5
 40
1.5
309
CELLMARGIN_END
 94
        6
 95
        1
302
GRIDFORMAT
  1
GRIDFORMAT_BEGIN
 90
        0
 91
        1
 62
     0
 92
       -2
340
14
 93
        0
 40
0.045
309
GRIDFORMAT_END
 95
        2
302
GRIDFORMAT
  1
GRIDFORMAT_BEGIN
 90
        0
 91
        1
 62
     0
 92
       -2
340
14
 93
        0
 40
0.045
309
GRIDFORMAT_END
 95
        4
302
GRIDFORMAT
  1
GRIDFORMAT_BEGIN
 90
        0
 91
        1
 62
     0
 92
       -2
340
14
 93
        0
 40
0.045
309
GRIDFORMAT_END
 95
        8
302
GRIDFORMAT
  1
GRIDFORMAT_BEGIN
 90
        0
 91
        1
 62
     0
 92
       -2
340
14
 93
        0
 40
0.045
309
GRIDFORMAT_END
 95
       16
302
GRIDFORMAT
  1
GRIDFORMAT_BEGIN
 90
        0
 91
        1
 62
     0
 92
       -2
340
14
 93
        0
 40
0.045
309
GRIDFORMAT_END
 95
       32
302
GRIDFORMAT
  1
GRIDFORMAT_BEGIN
 90
        0
 91
        1
 62
     0
 92
       -2
340
14
 93
        0
 40
0.045
309
GRIDFORMAT_END
309
TABLEFORMAT_END
  1
CELLSTYLE_BEGIN
 90
        1
 91
        1
300
_TITLE
309
CELLSTYLE_END
300
CELLSTYLE
  1
TABLEFORMAT_BEGIN
 90
        5
170
     1
 91
        0
 92
        0
 62
   257
 93
        1
300
CONTENTFORMAT
  1
CONTENTFORMAT_BEGIN
 90
        0
 91
        0
 92
        4
 93
        0
300

 40
0.0
140
1.0
 94
        5
 62
     0
340
11
144
4.5
309
CONTENTFORMAT_END
171
     1
301
MARGIN
  1
CELLMARGIN_BEGIN
 40
1.5
 40
1.5
 40
1.5
 40
1.5
 40
1.5
 40
1.5
309
CELLMARGIN_END
 94
        6
 95
        1
302
GRIDFORMAT
  1
GRIDFORMAT_BEGIN
 90
        0
 91
        1
 62
     0
 92
       -2
340
14
 93
        0
 40
0.045
309
GRIDFORMAT_END
 95
        2
302
GRIDFORMAT
  1
GRIDFORMAT_BEGIN
 90
        0
 91
        1
 62
     0
 92
       -2
340
14
 93
        0
 40
0.045
309
GRIDFORMAT_END
 95
        4
302
GRIDFORMAT
  1
GRIDFORMAT_BEGIN
 90
        0
 91
        1
 62
     0
 92
       -2
340
14
 93
        0
 40
0.045
309
GRIDFORMAT_END
 95
        8
302
GRIDFORMAT
  1
GRIDFORMAT_BEGIN
 90
        0
 91
        1
 62
     0
 92
       -2
340
14
 93
        0
 40
0.045
309
GRIDFORMAT_END
 95
       16
302
GRIDFORMAT
  1
GRIDFORMAT_BEGIN
 90
        0
 91
        1
 62
     0
 92
       -2
340
14
 93
        0
 40
0.045
309
GRIDFORMAT_END
 95
       32
302
GRIDFORMAT
  1
GRIDFORMAT_BEGIN
 90
        0
 91
        1
 62
     0
 92
       -2
340
14
 93
        0
 40
0.045
309
GRIDFORMAT_END
309
TABLEFORMAT_END
  1
CELLSTYLE_BEGIN
 90
        2
 91
        1
300
_HEADER
309
CELLSTYLE_END
300
CELLSTYLE
  1
TABLEFORMAT_BEGIN
 90
        5
170
     1
 91
        0
 92
        0
 62
   257
 93
        1
300
CONTENTFORMAT
  1
CONTENTFORMAT_BEGIN
 90
        0
 91
        0
 92
        4
 93
        0
300

 40
0.0
140
1.0
 94
        2
 62
     0
340
11
144
4.5
309
CONTENTFORMAT_END
171
     1
301
MARGIN
  1
CELLMARGIN_BEGIN
 40
1.5
 40
1.5
 40
1.5
 40
1.5
 40
1.5
 40
1.5
309
CELLMARGIN_END
 94
        6
 95
        1
302
GRIDFORMAT
  1
GRIDFORMAT_BEGIN
 90
        0
 91
        1
 62
     0
 92
       -2
340
14
 93
        0
 40
0.045
309
GRIDFORMAT_END
 95
        2
302
GRIDFORMAT
  1
GRIDFORMAT_BEGIN
 90
        0
 91
        1
 62
     0
 92
       -2
340
14
 93
        0
 40
0.045
309
GRIDFORMAT_END
 95
        4
302
GRIDFORMAT
  1
GRIDFORMAT_BEGIN
 90
        0
 91
        1
 62
     0
 92
       -2
340
14
 93
        0
 40
0.045
309
GRIDFORMAT_END
 95
        8
302
GRIDFORMAT
  1
GRIDFORMAT_BEGIN
 90
        0
 91
        1
 62
     0
 92
       -2
340
14
 93
        0
 40
0.045
309
GRIDFORMAT_END
 95
       16
302
GRIDFORMAT
  1
GRIDFORMAT_BEGIN
 90
        0
 91
        1
 62
     0
 92
       -2
340
14
 93
        0
 40
0.045
309
GRIDFORMAT_END
 95
       32
302
GRIDFORMAT
  1
GRIDFORMAT_BEGIN
 90
        0
 91
        1
 62
     0
 92
       -2
340
14
 93
        0
 40
0.045
309
GRIDFORMAT_END
309
TABLEFORMAT_END
  1
CELLSTYLE_BEGIN
 90
        3
 91
        2
300
_DATA
309
CELLSTYLE_END
  0
XRECORD
  5
21A
102
{ACAD_REACTORS
330
219
102
}
330
219
100
AcDbXrecord
280
     1
102
ACAD_ROUNDTRIP_PRE2007_TABLESTYLE
 90
        4
 91
        0
  1

 92
        4
 93
        0
  2

 94
        4
 95
        0
  3

  0
ENDSEC
  0
EOF
