  0
SECTION
  2
HEADER
  9
$ACADVER
  1
AC1015
  9
$ACADMAINTVER
 70
     6
  9
$DWGCODEPAGE
  3
ANSI_950
  9
$INSBASE
 10
0.0
 20
0.0
 30
0.0
  9
$EXTMIN
 10
0.0
 20
0.0
 30
0.0
  9
$EXTMAX
 10
297.0
 20
210.0
 30
0.0
  9
$LIMMIN
 10
0.0
 20
0.0
  9
$LIMMAX
 10
297.0
 20
210.0
  9
$ORTHOMODE
 70
     0
  9
$REGENMODE
 70
     1
  9
$FILLMODE
 70
     1
  9
$QTEXTMODE
 70
     0
  9
$MIRRTEXT
 70
     1
  9
$LTSCALE
 40
1.0
  9
$ATTMODE
 70
     1
  9
$TEXTSIZE
 40
2.5
  9
$TRACEWID
 40
1.0
  9
$TEXTSTYLE
  7
Standard
  9
$CLAYER
  8
0
  9
$CELTYPE
  6
ByLayer
  9
$CECOLOR
 62
   256
  9
$CELTSCALE
 40
1.0
  9
$DISPSILH
 70
     0
  9
$DIMSCALE
 40
1.0
  9
$DIMASZ
 40
2.0
  9
$DIMEXO
 40
1.0
  9
$DIMDLI
 40
3.75
  9
$DIMRND
 40
0.0
  9
$DIMDLE
 40
0.0
  9
$DIMEXE
 40
1.0
  9
$DIMTP
 40
0.0
  9
$DIMTM
 40
0.0
  9
$DIMTXT
 40
2.5
  9
$DIMCEN
 40
2.5
  9
$DIMTSZ
 40
0.0
  9
$DIMTOL
 70
     0
  9
$DIMLIM
 70
     0
  9
$DIMTIH
 70
     1
  9
$DIMTOH
 70
     1
  9
$DIMSE1
 70
     0
  9
$DIMSE2
 70
     0
  9
$DIMTAD
 70
     1
  9
$DIMZIN
 70
     0
  9
$DIMBLK
  1

  9
$DIMASO
 70
     1
  9
$DIMSHO
 70
     1
  9
$DIMPOST
  1

  9
$DIMAPOST
  1

  9
$DIMALT
 70
     0
  9
$DIMALTD
 70
     3
  9
$DIMALTF
 40
0.0393700787
  9
$DIMLFAC
 40
1.0
  9
$DIMTOFL
 70
     1
  9
$DIMTVP
 40
0.0
  9
$DIMTIX
 70
     0
  9
$DIMSOXD
 70
     0
  9
$DIMSAH
 70
     0
  9
$DIMBLK1
  1

  9
$DIMBLK2
  1

  9
$DIMSTYLE
  2
ISO-25
  9
$DIMCLRD
 70
     0
  9
$DIMCLRE
 70
     0
  9
$DIMCLRT
 70
     0
  9
$DIMTFAC
 40
1.0
  9
$DIMGAP
 40
1.0
  9
$DIMJUST
 70
     0
  9
$DIMSD1
 70
     0
  9
$DIMSD2
 70
     0
  9
$DIMTOLJ
 70
     0
  9
$DIMTZIN
 70
     0
  9
$DIMALTZ
 70
     0
  9
$DIMALTTZ
 70
     0
  9
$DIMUPT
 70
     0
  9
$DIMDEC
 70
     2
  9
$DIMTDEC
 70
     2
  9
$DIMALTU
 70
     2
  9
$DIMALTTD
 70
     3
  9
$DIMTXSTY
  7
Standard
  9
$DIMAUNIT
 70
     0
  9
$DIMADEC
 70
     1
  9
$DIMALTRND
 40
0.0
  9
$DIMAZIN
 70
     0
  9
$DIMDSEP
 70
    44
  9
$DIMATFIT
 70
     3
  9
$DIMFRAC
 70
     0
  9
$DIMLDRBLK
  1

  9
$DIMLUNIT
 70
     2
  9
$DIMLWD
 70
    -2
  9
$DIMLWE
 70
    -2
  9
$DIMTMOVE
 70
     0
  9
$LUNITS
 70
     2
  9
$LUPREC
 70
     2
  9
$SKETCHINC
 40
1.0
  9
$FILLETRAD
 40
10.0
  9
$AUNITS
 70
     0
  9
$AUPREC
 70
     1
  9
$MENU
  1
.
  9
$ELEVATION
 40
0.0
  9
$PELEVATION
 40
0.0
  9
$THICKNESS
 40
0.0
  9
$LIMCHECK
 70
     0
  9
$CHAMFERA
 40
0.0
  9
$CHAMFERB
 40
0.0
  9
$CHAMFERC
 40
0.0
  9
$CHAMFERD
 40
0.0
  9
$SKPOLY
 70
     0
  9
$TDCREATE
 40
2457836.508759109
  9
$TDUCREATE
 40
2457836.175425775
  9
$TDUPDATE
 40
2457836.508764711
  9
$TDUUPDATE
 40
2457836.175431377
  9
$TDINDWG
 40
0.0000000116
  9
$TDUSRTIMER
 40
0.0000000116
  9
$USRTIMER
 70
     1
  9
$ANGBASE
 50
0.0
  9
$ANGDIR
 70
     0
  9
$PDMODE
 70
     0
  9
$PDSIZE
 40
-1.0
  9
$PLINEWID
 40
0.0
  9
$SPLFRAME
 70
     0
  9
$SPLINETYPE
 70
     6
  9
$SPLINESEGS
 70
     8
  9
$HANDSEED
  5
1D7
  9
$SURFTAB1
 70
     6
  9
$SURFTAB2
 70
     6
  9
$SURFTYPE
 70
     6
  9
$SURFU
 70
     6
  9
$SURFV
 70
     6
  9
$UCSBASE
  2

  9
$UCSNAME
  2

  9
$UCSORG
 10
0.0
 20
0.0
 30
0.0
  9
$UCSXDIR
 10
1.0
 20
0.0
 30
0.0
  9
$UCSYDIR
 10
0.0
 20
1.0
 30
0.0
  9
$UCSORTHOREF
  2

  9
$UCSORTHOVIEW
 70
     0
  9
$UCSORGTOP
 10
0.0
 20
0.0
 30
0.0
  9
$UCSORGBOTTOM
 10
0.0
 20
0.0
 30
0.0
  9
$UCSORGLEFT
 10
0.0
 20
0.0
 30
0.0
  9
$UCSORGRIGHT
 10
0.0
 20
0.0
 30
0.0
  9
$UCSORGFRONT
 10
0.0
 20
0.0
 30
0.0
  9
$UCSORGBACK
 10
0.0
 20
0.0
 30
0.0
  9
$PUCSBASE
  2

  9
$PUCSNAME
  2

  9
$PUCSORG
 10
0.0
 20
0.0
 30
0.0
  9
$PUCSXDIR
 10
1.0
 20
0.0
 30
0.0
  9
$PUCSYDIR
 10
0.0
 20
1.0
 30
0.0
  9
$PUCSORTHOREF
  2

  9
$PUCSORTHOVIEW
 70
     0
  9
$PUCSORGTOP
 10
0.0
 20
0.0
 30
0.0
  9
$PUCSORGBOTTOM
 10
0.0
 20
0.0
 30
0.0
  9
$PUCSORGLEFT
 10
0.0
 20
0.0
 30
0.0
  9
$PUCSORGRIGHT
 10
0.0
 20
0.0
 30
0.0
  9
$PUCSORGFRONT
 10
0.0
 20
0.0
 30
0.0
  9
$PUCSORGBACK
 10
0.0
 20
0.0
 30
0.0
  9
$USERI1
 70
     0
  9
$USERI2
 70
     0
  9
$USERI3
 70
     0
  9
$USERI4
 70
     0
  9
$USERI5
 70
     0
  9
$USERR1
 40
0.0
  9
$USERR2
 40
0.0
  9
$USERR3
 40
0.0
  9
$USERR4
 40
0.0
  9
$USERR5
 40
0.0
  9
$WORLDVIEW
 70
     1
  9
$SHADEDGE
 70
     3
  9
$SHADEDIF
 70
    70
  9
$TILEMODE
 70
     1
  9
$MAXACTVP
 70
    64
  9
$PINSBASE
 10
0.0
 20
0.0
 30
0.0
  9
$PLIMCHECK
 70
     0
  9
$PEXTMIN
 10
1.0000000000E+20
 20
1.0000000000E+20
 30
1.0000000000E+20
  9
$PEXTMAX
 10
-1.0000000000E+20
 20
-1.0000000000E+20
 30
-1.0000000000E+20
  9
$PLIMMIN
 10
0.0
 20
0.0
  9
$PLIMMAX
 10
420.0
 20
297.0
  9
$UNITMODE
 70
     0
  9
$VISRETAIN
 70
     1
  9
$PLINEGEN
 70
     0
  9
$PSLTSCALE
 70
     1
  9
$TREEDEPTH
 70
  3020
  9
$CMLSTYLE
  2
Standard
  9
$CMLJUST
 70
     0
  9
$CMLSCALE
 40
20.0
  9
$PROXYGRAPHICS
 70
     1
  9
$MEASUREMENT
 70
     1
  9
$CELWEIGHT
370
    -1
  9
$ENDCAPS
280
     0
  9
$JOINSTYLE
280
     0
  9
$LWDISPLAY
290
     1
  9
$INSUNITS
 70
     4
  9
$HYPERLINKBASE
  1

  9
$STYLESHEET
  1

  9
$XEDIT
290
     1
  9
$CEPSNTYPE
380
     0
  9
$PSTYLEMODE
290
     1
  9
$FINGERPRINTGUID
  2
{C1C8D648-6DE1-4EA6-828F-2B756C77791A}
  9
$VERSIONGUID
  2
{FAEB1C32-E019-11D5-929B-00C0DF256EC4}
  9
$EXTNAMES
290
     1
  9
$PSVPSCALE
 40
0.0
  9
$OLESTARTUP
290
     0
  0
ENDSEC
  0
SECTION
  2
CLASSES
  0
CLASS
  1
ACDBDICTIONARYWDFLT
  2
AcDbDictionaryWithDefault
  3
ObjectDBX Classes
 90
        0
280
     0
281
     0
  0
CLASS
  1
VISUALSTYLE
  2
AcDbVisualStyle
  3
ObjectDBX Classes
 90
     4095
280
     0
281
     0
  0
CLASS
  1
MATERIAL
  2
AcDbMaterial
  3
ObjectDBX Classes
 90
     1153
280
     0
281
     0
  0
CLASS
  1
SCALE
  2
AcDbScale
  3
ObjectDBX Classes
 90
     1153
280
     0
281
     0
  0
CLASS
  1
TABLESTYLE
  2
AcDbTableStyle
  3
ObjectDBX Classes
 90
     4095
280
     0
281
     0
  0
CLASS
  1
MLEADERSTYLE
  2
AcDbMLeaderStyle
  3
ACDB_MLEADERSTYLE_CLASS
 90
     4095
280
     0
281
     0
  0
CLASS
  1
SUN
  2
AcDbSun
  3
SCENEOE
 90
     1153
280
     0
281
     0
  0
CLASS
  1
ACDBPLACEHOLDER
  2
AcDbPlaceHolder
  3
ObjectDBX Classes
 90
        0
280
     0
281
     0
  0
CLASS
  1
LAYOUT
  2
AcDbLayout
  3
ObjectDBX Classes
 90
        0
280
     0
281
     0
  0
ENDSEC
  0
SECTION
  2
TABLES
  0
TABLE
  2
VPORT
  5
8
330
0
100
AcDbSymbolTable
 70
     1
  0
VPORT
  5
29
330
8
100
AcDbSymbolTableRecord
100
AcDbViewportTableRecord
  2
*Active
 70
     0
 10
0.0
 20
0.0
 11
1.0
 21
1.0
 12
148.5
 22
105.0
 13
0.0
 23
0.0
 14
10.0
 24
10.0
 15
10.0
 25
10.0
 16
0.0
 26
0.0
 36
1.0
 17
0.0
 27
0.0
 37
0.0
 40
210.0
 41
1.4142857143
 42
50.0
 43
0.0
 44
0.0
 50
0.0
 51
0.0
 71
     0
 72
  2000
 73
     1
 74
     3
 75
     0
 76
     0
 77
     0
 78
     0
281
     0
 65
     1
110
0.0
120
0.0
130
0.0
111
1.0
121
0.0
131
0.0
112
0.0
122
1.0
132
0.0
 79
     0
146
0.0
  0
ENDTAB
  0
TABLE
  2
LTYPE
  5
5
330
0
100
AcDbSymbolTable
 70
     6
  0
LTYPE
  5
14
330
5
100
AcDbSymbolTableRecord
100
AcDbLinetypeTableRecord
  2
ByBlock
 70
     0
  3

 72
    65
 73
     0
 40
0.0
  0
LTYPE
  5
15
330
5
100
AcDbSymbolTableRecord
100
AcDbLinetypeTableRecord
  2
ByLayer
 70
     0
  3

 72
    65
 73
     0
 40
0.0
  0
LTYPE
  5
16
330
5
100
AcDbSymbolTableRecord
100
AcDbLinetypeTableRecord
  2
Continuous
 70
     0
  3
Solid line
 72
    65
 73
     0
 40
0.0
  0
LTYPE
  5
6E
330
5
100
AcDbSymbolTableRecord
100
AcDbLinetypeTableRecord
  2
HIDDEN
 70
     0
  3
Hidden __ __ __ __ __ __ __ __ __ __ __ __ __ __
 72
    65
 73
     2
 40
1.905
 49
1.27
 74
     0
 49
-0.635
 74
     0
  0
LTYPE
  5
6F
330
5
100
AcDbSymbolTableRecord
100
AcDbLinetypeTableRecord
  2
PHANTOM
 70
     0
  3
Phantom ______  __  __  ______  __  __  ______
 72
    65
 73
     6
 40
12.7
 49
6.35
 74
     0
 49
-1.27
 74
     0
 49
1.27
 74
     0
 49
-1.27
 74
     0
 49
1.27
 74
     0
 49
-1.27
 74
     0
  0
LTYPE
  5
70
330
5
100
AcDbSymbolTableRecord
100
AcDbLinetypeTableRecord
  2
CENTER
 70
     0
  3
Center ____ _ ____ _ ____ _ ____ _ ____ _ ____
 72
    65
 73
     4
 40
10.16
 49
6.35
 74
     0
 49
-1.27
 74
     0
 49
1.27
 74
     0
 49
-1.27
 74
     0
  0
LTYPE
  5
71
330
5
100
AcDbSymbolTableRecord
100
AcDbLinetypeTableRecord
  2
CENTERX2
 70
     0
  3
Center (2x) ________  __  ________  __  _____
 72
    65
 73
     4
 40
20.32
 49
12.7
 74
     0
 49
-2.54
 74
     0
 49
2.54
 74
     0
 49
-2.54
 74
     0
  0
LTYPE
  5
72
330
5
100
AcDbSymbolTableRecord
100
AcDbLinetypeTableRecord
  2
DOT2
 70
     0
  3
Dot (.5x) ........................................
 72
    65
 73
     2
 40
0.635
 49
0.0
 74
     0
 49
-0.635
 74
     0
  0
ENDTAB
  0
TABLE
  2
LAYER
  5
2
330
0
100
AcDbSymbolTable
 70
     3
  0
LAYER
  5
10
330
2
100
AcDbSymbolTableRecord
100
AcDbLayerTableRecord
  2
0
 70
     0
 62
     7
  6
Continuous
370
    -3
390
F
  0
LAYER
  5
73
330
2
100
AcDbSymbolTableRecord
100
AcDbLayerTableRecord
  2
SLD-0
 70
     0
 62
   179
  6
Continuous
370
    15
390
F
  0
LAYER
  5
74
330
2
100
AcDbSymbolTableRecord
100
AcDbLayerTableRecord
  2
DIM
 70
     0
 62
     7
  6
Continuous
370
    -3
390
F
  0
ENDTAB
  0
TABLE
  2
STYLE
  5
3
330
0
100
AcDbSymbolTable
 70
     3
  0
STYLE
  5
11
330
3
100
AcDbSymbolTableRecord
100
AcDbTextStyleTableRecord
  2
Standard
 70
     0
 40
0.0
 41
1.0
 50
0.0
 71
     0
 42
2.5
  3
txt
  4

  0
STYLE
  5
C5
330
3
100
AcDbSymbolTableRecord
100
AcDbTextStyleTableRecord
  2
SLDTEXTSTYLE0
 70
     0
 40
0.0
 41
0.605
 50
0.0
 71
     0
 42
2.5
  3
TXT
  4

  0
STYLE
  5
CE
330
3
100
AcDbSymbolTableRecord
100
AcDbTextStyleTableRecord
  2
SLDTEXTSTYLE1
 70
     0
 40
0.0
 41
0.7
 50
0.0
 71
     0
 42
2.5
  3
TXT
  4

  0
ENDTAB
  0
TABLE
  2
VIEW
  5
6
330
0
100
AcDbSymbolTable
 70
     0
  0
ENDTAB
  0
TABLE
  2
UCS
  5
7
330
0
100
AcDbSymbolTable
 70
     0
  0
ENDTAB
  0
TABLE
  2
APPID
  5
9
330
0
100
AcDbSymbolTable
 70
     1
  0
APPID
  5
12
330
9
100
AcDbSymbolTableRecord
100
AcDbRegAppTableRecord
  2
ACAD
 70
     0
  0
ENDTAB
  0
TABLE
  2
DIMSTYLE
  5
A
330
0
100
AcDbSymbolTable
 70
     5
100
AcDbDimStyleTable
  0
DIMSTYLE
105
27
330
A
100
AcDbSymbolTableRecord
100
AcDbDimStyleTableRecord
  2
ISO-25
 70
     0
 41
2.5
 42
0.625
 43
3.75
 44
1.25
 73
     0
 74
     0
 77
     1
 78
     8
140
2.5
141
2.5
143
0.0393700787
147
0.625
171
     3
172
     1
178
     0
271
     2
272
     2
274
     3
278
    44
283
     0
284
     8
340
11
  0
DIMSTYLE
105
135
102
{ACAD_REACTORS
330
134
330
13F
330
14A
330
155
330
1B7
102
}
330
A
100
AcDbSymbolTableRecord
100
AcDbDimStyleTableRecord
  2
SLDDIMSTYLE0
 70
     0
 41
2.0
 44
0.0
 45
0.000000001
 73
     0
 74
     0
 77
     1
 78
    12
 79
     3
140
2.5
147
0.625
173
     1
178
     0
271
     2
272
     2
276
     2
284
    12
340
C5
  0
DIMSTYLE
105
160
102
{ACAD_REACTORS
330
15F
102
}
330
A
100
AcDbSymbolTableRecord
100
AcDbDimStyleTableRecord
  2
SLDDIMSTYLE1
 70
     0
 41
2.0
 44
0.0
 73
     0
 74
     0
 77
     1
 78
    12
 79
     3
140
2.5
147
0.625
173
     1
178
     0
179
     1
272
     1
276
     2
284
    12
340
C5
  0
DIMSTYLE
105
18B
102
{ACAD_REACTORS
330
18A
330
1AE
102
}
330
A
100
AcDbSymbolTableRecord
100
AcDbDimStyleTableRecord
  2
SLDDIMSTYLE2
 70
     0
 41
2.0
 44
0.0
 45
0.000000001
 78
    12
 79
     3
140
2.5
141
0.0
147
0.625
173
     1
178
     0
271
     2
272
     2
276
     2
284
    12
340
C5
  0
DIMSTYLE
105
1C8
330
A
100
AcDbSymbolTableRecord
100
AcDbDimStyleTableRecord
  2
SLDDIMSTYLE3
 70
     0
 41
2.0
 44
0.0
 45
0.000000001
146
2.0
147
0.0
173
     1
178
     0
271
     0
272
     0
276
     2
340
11
  0
ENDTAB
  0
TABLE
  2
BLOCK_RECORD
  5
1
330
0
100
AcDbSymbolTable
 70
    14
  0
BLOCK_RECORD
  5
1F
330
1
100
AcDbSymbolTableRecord
100
AcDbBlockTableRecord
  2
*Model_Space
340
22
  0
BLOCK_RECORD
  5
1B
330
1
100
AcDbSymbolTableRecord
100
AcDbBlockTableRecord
  2
*Paper_Space
340
1E
  0
BLOCK_RECORD
  5
23
330
1
100
AcDbSymbolTableRecord
100
AcDbBlockTableRecord
  2
*Paper_Space0
340
26
  0
BLOCK_RECORD
  5
C7
330
1
100
AcDbSymbolTableRecord
100
AcDbBlockTableRecord
  2
SW_NOTE_0
340
0
102
{BLKREFS
331
CD
102
}
  0
BLOCK_RECORD
  5
FE
330
1
100
AcDbSymbolTableRecord
100
AcDbBlockTableRecord
  2
SW_NOTE_1
340
0
102
{BLKREFS
331
103
102
}
  0
BLOCK_RECORD
  5
136
330
1
100
AcDbSymbolTableRecord
100
AcDbBlockTableRecord
  2
_D
340
0
  0
BLOCK_RECORD
  5
140
330
1
100
AcDbSymbolTableRecord
100
AcDbBlockTableRecord
  2
_D_1
340
0
  0
BLOCK_RECORD
  5
14B
330
1
100
AcDbSymbolTableRecord
100
AcDbBlockTableRecord
  2
_D_2
340
0
  0
BLOCK_RECORD
  5
156
330
1
100
AcDbSymbolTableRecord
100
AcDbBlockTableRecord
  2
_D_3
340
0
  0
BLOCK_RECORD
  5
161
330
1
100
AcDbSymbolTableRecord
100
AcDbBlockTableRecord
  2
_D_4
340
0
  0
BLOCK_RECORD
  5
16B
330
1
100
AcDbSymbolTableRecord
100
AcDbBlockTableRecord
  2
SW_PROJECTIONARROW_0
340
0
102
{BLKREFS
331
175
102
}
  0
BLOCK_RECORD
  5
18C
330
1
100
AcDbSymbolTableRecord
100
AcDbBlockTableRecord
  2
_D_5
340
0
  0
BLOCK_RECORD
  5
1AF
330
1
100
AcDbSymbolTableRecord
100
AcDbBlockTableRecord
  2
_D_6
340
0
  0
BLOCK_RECORD
  5
1B8
330
1
100
AcDbSymbolTableRecord
100
AcDbBlockTableRecord
  2
_D_7
340
0
  0
BLOCK_RECORD
  5
1C1
330
1
100
AcDbSymbolTableRecord
100
AcDbBlockTableRecord
  2
SW_NOTE_2
340
0
102
{BLKREFS
331
1C7
102
}
  0
BLOCK_RECORD
  5
1CA
330
1
100
AcDbSymbolTableRecord
100
AcDbBlockTableRecord
  2
SW_CENTERMARKSYMBOL_0
340
0
102
{BLKREFS
331
1D5
102
}
  0
ENDTAB
  0
ENDSEC
  0
SECTION
  2
BLOCKS
  0
BLOCK
  5
20
330
1F
100
AcDbEntity
  8
0
100
AcDbBlockBegin
  2
*Model_Space
 70
     0
 10
0.0
 20
0.0
 30
0.0
  3
*Model_Space
  1

  0
ENDBLK
  5
21
330
1F
100
AcDbEntity
  8
0
100
AcDbBlockEnd
  0
BLOCK
  5
1C
330
1B
100
AcDbEntity
 67
     1
  8
0
100
AcDbBlockBegin
  2
*Paper_Space
 70
     0
 10
0.0
 20
0.0
 30
0.0
  3
*Paper_Space
  1

  0
ENDBLK
  5
1D
330
1B
100
AcDbEntity
 67
     1
  8
0
100
AcDbBlockEnd
  0
BLOCK
  5
24
330
23
100
AcDbEntity
  8
0
100
AcDbBlockBegin
  2
*Paper_Space0
 70
     0
 10
0.0
 20
0.0
 30
0.0
  3
*Paper_Space0
  1

  0
ENDBLK
  5
25
330
23
100
AcDbEntity
  8
0
100
AcDbBlockEnd
  0
BLOCK
  5
C8
330
C7
100
AcDbEntity
  8
0
100
AcDbBlockBegin
  2
SW_NOTE_0
 70
     0
 10
0.0
 20
0.0
 30
0.0
  3
SW_NOTE_0
  1

  0
MTEXT
  5
CA
330
C7
100
AcDbEntity
  8
0
  6
Continuous
 62
     0
370
     0
100
AcDbMText
 10
0.0
 20
3.4106583948
 30
0.0
 40
2.6458333333
 41
0.0
 71
     1
 72
     1
  1
PROPRIETARY AND CONFIDENTIAL
  7
SLDTEXTSTYLE0
 73
     1
 44
1.0
  0
MTEXT
  5
CB
330
C7
100
AcDbEntity
  8
0
  6
Continuous
 62
     0
370
     0
100
AcDbMText
 10
0.0
 20
-0.08198348
 30
0.0
 40
1.8520833333
 41
0.0
 71
     1
 72
     1
  1
THE INFORMATION CONTAINED IN THIS DRAWING IS THE SOLE PROPERTY OF UNICE E-O SERVICES INC. ANY REPRODUCTION IN PART OR AS A WHOLE WITHOUT THE WRITTEN PERMISSION OF UNICE E-O SERVICES INC IS
  7
SLDTEXTSTYLE0
 73
     1
 44
1.0
  0
MTEXT
  5
CC
330
C7
100
AcDbEntity
  8
0
  6
Continuous
 62
     0
370
     0
100
AcDbMText
 10
0.0
 20
-2.5514278946
 30
0.0
 40
1.8520833333
 41
0.0
 71
     1
 72
     1
  1
PROHIBITED.
  7
SLDTEXTSTYLE0
 73
     1
 44
1.0
  0
ENDBLK
  5
C9
330
C7
100
AcDbEntity
  8
0
100
AcDbBlockEnd
  0
BLOCK
  5
FF
330
FE
100
AcDbEntity
  8
0
100
AcDbBlockBegin
  2
SW_NOTE_1
 70
     0
 10
0.0
 20
0.0
 30
0.0
  3
SW_NOTE_1
  1

  0
MTEXT
  5
101
330
FE
100
AcDbEntity
  8
SLD-0
 62
     0
100
AcDbMText
 10
0.0
 20
2.3874608764
 30
0.0
 40
1.8520833333
 41
0.0
 71
     1
 72
     1
  1
No.5, Andong Rd., Chung Li District,
  7
SLDTEXTSTYLE1
 73
     1
 44
1.0
  0
MTEXT
  5
102
330
FE
100
AcDbEntity
  8
SLD-0
 62
     0
100
AcDbMText
 10
0.0
 20
-0.0819835382
 30
0.0
 40
1.8520833333
 41
0.0
 71
     1
 72
     1
  1
Taoyuan City 32063, Taiwan, R.O.C.
  7
SLDTEXTSTYLE1
 73
     1
 44
1.0
  0
ENDBLK
  5
100
330
FE
100
AcDbEntity
  8
0
100
AcDbBlockEnd
  0
BLOCK
  5
137
330
136
100
AcDbEntity
  8
0
100
AcDbBlockBegin
  2
_D
 70
     0
 10
0.0
 20
0.0
 30
0.0
  3
_D
  1

  0
SOLID
  5
139
330
136
100
AcDbEntity
  8
SLD-0
100
AcDbTrace
 10
105.2825286162
 20
111.8124217666
 30
0.0
 11
106.5199654833
 21
110.2214315089
 31
0.0
 12
106.8735188739
 22
110.5749848995
 32
0.0
 13
106.8735188739
 23
110.5749848995
 33
0.0
  0
SOLID
  5
13A
330
136
100
AcDbEntity
  8
SLD-0
100
AcDbTrace
 10
108.8180625221
 20
108.2768878606
 30
0.0
 11
107.5806256551
 21
109.8678781183
 31
0.0
 12
107.2270722645
 22
109.5143247277
 32
0.0
 13
107.2270722645
 23
109.5143247277
 33
0.0
  0
LINE
  5
13B
330
136
100
AcDbEntity
  8
SLD-0
100
AcDbLine
 10
101.7736330036
 20
108.303526154
 30
0.0
 11
105.9896353974
 21
112.5195285478
 31
0.0
  0
LINE
  5
13C
330
136
100
AcDbEntity
  8
SLD-0
100
AcDbLine
 10
99.3245998028
 20
98.7834251413
 30
0.0
 11
109.5251693033
 21
108.9839946418
 31
0.0
  0
LINE
  5
13D
330
136
100
AcDbEntity
  8
SLD-0
100
AcDbLine
 10
105.2825286162
 20
111.8124217666
 30
0.0
 11
108.8180625221
 21
108.2768878606
 31
0.0
  0
MTEXT
  5
13E
330
136
100
AcDbEntity
  8
SLD-0
100
AcDbMText
 10
108.6538780285
 20
112.9986148083
 30
0.0
 40
2.5
 41
0.0
 71
     1
 72
     1
  1
5
  7
SLDTEXTSTYLE0
 11
0.707106781186553
 21
-0.707106781186542
 31
0.0
 73
     1
 44
1.0
  0
ENDBLK
  5
138
330
136
100
AcDbEntity
  8
0
100
AcDbBlockEnd
  0
BLOCK
  5
141
330
140
100
AcDbEntity
  8
0
100
AcDbBlockBegin
  2
_D_1
 70
     0
 10
0.0
 20
0.0
 30
0.0
  3
_D_1
  1

  0
SOLID
  5
143
330
140
100
AcDbEntity
  8
SLD-0
 62
     7
100
AcDbTrace
 10
76.8665262224
 20
63.0976334755
 30
0.0
 11
78.8665262224
 21
62.8476334755
 31
0.0
 12
78.8665262224
 22
63.3476334755
 32
0.0
 13
78.8665262224
 23
63.3476334755
 33
0.0
  0
SOLID
  5
144
330
140
100
AcDbEntity
  8
SLD-0
 62
     7
100
AcDbTrace
 10
102.2665262224
 20
63.0976334755
 30
0.0
 11
100.2665262224
 21
63.3476334755
 31
0.0
 12
100.2665262224
 22
62.8476334755
 32
0.0
 13
100.2665262224
 23
62.8476334755
 33
0.0
  0
LINE
  5
145
330
140
100
AcDbEntity
  8
SLD-0
 62
     7
100
AcDbLine
 10
76.8665262224
 20
71.5964193728
 30
0.0
 11
76.8665262224
 21
62.0976334755
 31
0.0
  0
LINE
  5
146
330
140
100
AcDbEntity
  8
SLD-0
 62
     7
100
AcDbLine
 10
102.2665262224
 20
71.5964193728
 30
0.0
 11
102.2665262224
 21
62.0976334755
 31
0.0
  0
LINE
  5
147
330
140
100
AcDbEntity
  8
SLD-0
 62
     7
100
AcDbLine
 10
76.8665262224
 20
63.0976334755
 30
0.0
 11
102.2665262224
 21
63.0976334755
 31
0.0
  0
MTEXT
  5
148
330
140
100
AcDbEntity
  8
SLD-0
 62
     7
100
AcDbMText
 10
84.4020296218
 20
66.3203025921
 30
0.0
 40
2.5
 41
0.0
 71
     1
 72
     1
  1
%%c
  7
SLDTEXTSTYLE0
 73
     1
 44
1.0
  0
MTEXT
  5
149
330
140
100
AcDbEntity
  8
SLD-0
 62
     7
100
AcDbMText
 10
88.046994978
 20
66.3272470571
 30
0.0
 40
2.5
 41
0.0
 71
     1
 72
     1
  1
25.4
  7
SLDTEXTSTYLE0
 73
     1
 44
1.0
  0
ENDBLK
  5
142
330
140
100
AcDbEntity
  8
0
100
AcDbBlockEnd
  0
BLOCK
  5
14C
330
14B
100
AcDbEntity
  8
0
100
AcDbBlockBegin
  2
_D_2
 70
     0
 10
0.0
 20
0.0
 30
0.0
  3
_D_2
  1

  0
SOLID
  5
14E
330
14B
100
AcDbEntity
  8
SLD-0
 62
     7
100
AcDbTrace
 10
74.5665262224
 20
55.4893646029
 30
0.0
 11
76.5665262224
 21
55.2393646029
 31
0.0
 12
76.5665262224
 22
55.7393646029
 32
0.0
 13
76.5665262224
 23
55.7393646029
 33
0.0
  0
SOLID
  5
14F
330
14B
100
AcDbEntity
  8
SLD-0
 62
     7
100
AcDbTrace
 10
104.5665262224
 20
55.4893646029
 30
0.0
 11
102.5665262224
 21
55.7393646029
 31
0.0
 12
102.5665262224
 22
55.2393646029
 32
0.0
 13
102.5665262224
 23
55.2393646029
 33
0.0
  0
LINE
  5
150
330
14B
100
AcDbEntity
  8
SLD-0
 62
     7
100
AcDbLine
 10
74.5665262224
 20
78.0964193728
 30
0.0
 11
74.5665262224
 21
54.4893646029
 31
0.0
  0
LINE
  5
151
330
14B
100
AcDbEntity
  8
SLD-0
 62
     7
100
AcDbLine
 10
104.5665262224
 20
78.0964193728
 30
0.0
 11
104.5665262224
 21
54.4893646029
 31
0.0
  0
LINE
  5
152
330
14B
100
AcDbEntity
  8
SLD-0
 62
     7
100
AcDbLine
 10
74.5665262224
 20
55.4893646029
 30
0.0
 11
104.5665262224
 21
55.4893646029
 31
0.0
  0
MTEXT
  5
153
330
14B
100
AcDbEntity
  8
SLD-0
 62
     7
100
AcDbMText
 10
85.8343213195
 20
58.7120337195
 30
0.0
 40
2.5
 41
0.0
 71
     1
 72
     1
  1
%%c
  7
SLDTEXTSTYLE0
 73
     1
 44
1.0
  0
MTEXT
  5
154
330
14B
100
AcDbEntity
  8
SLD-0
 62
     7
100
AcDbMText
 10
89.4792866757
 20
58.7189781845
 30
0.0
 40
2.5
 41
0.0
 71
     1
 72
     1
  1
30
  7
SLDTEXTSTYLE0
 73
     1
 44
1.0
  0
ENDBLK
  5
14D
330
14B
100
AcDbEntity
  8
0
100
AcDbBlockEnd
  0
BLOCK
  5
157
330
156
100
AcDbEntity
  8
0
100
AcDbBlockBegin
  2
_D_3
 70
     0
 10
0.0
 20
0.0
 30
0.0
  3
_D_3
  1

  0
SOLID
  5
159
330
156
100
AcDbEntity
  8
SLD-0
 62
     7
100
AcDbTrace
 10
116.3523179701
 20
72.5964193728
 30
0.0
 11
116.6023179701
 21
74.5964193728
 31
0.0
 12
116.1023179701
 22
74.5964193728
 32
0.0
 13
116.1023179701
 23
74.5964193728
 33
0.0
  0
SOLID
  5
15A
330
156
100
AcDbEntity
  8
SLD-0
 62
     7
100
AcDbTrace
 10
116.3523179701
 20
104.0964193728
 30
0.0
 11
116.1023179701
 21
102.0964193728
 31
0.0
 12
116.6023179701
 22
102.0964193728
 32
0.0
 13
116.6023179701
 23
102.0964193728
 33
0.0
  0
LINE
  5
15B
330
156
100
AcDbEntity
  8
SLD-0
 62
     7
100
AcDbLine
 10
103.2665262224
 20
72.5964193728
 30
0.0
 11
117.3523179701
 21
72.5964193728
 31
0.0
  0
LINE
  5
15C
330
156
100
AcDbEntity
  8
SLD-0
 62
     7
100
AcDbLine
 10
105.5665262224
 20
104.0964193728
 30
0.0
 11
117.3523179701
 21
104.0964193728
 31
0.0
  0
LINE
  5
15D
330
156
100
AcDbEntity
  8
SLD-0
 62
     7
100
AcDbLine
 10
116.3523179701
 20
72.5964193728
 30
0.0
 11
116.3523179701
 21
104.0964193728
 31
0.0
  0
MTEXT
  5
15E
330
156
100
AcDbEntity
  8
SLD-0
 62
     7
100
AcDbMText
 10
113.1296487953
 20
85.0044055667
 30
0.0
 40
2.5
 41
0.0
 71
     1
 72
     1
  1
31.5
  7
SLDTEXTSTYLE0
 11
6.123233995736766E-17
 21
1.0
 31
0.0
 73
     1
 44
1.0
  0
ENDBLK
  5
158
330
156
100
AcDbEntity
  8
0
100
AcDbBlockEnd
  0
BLOCK
  5
162
330
161
100
AcDbEntity
  8
0
100
AcDbBlockBegin
  2
_D_4
 70
     0
 10
0.0
 20
0.0
 30
0.0
  3
_D_4
  1

  0
ARC
  5
164
330
161
100
AcDbEntity
  8
SLD-0
 62
     7
100
AcDbCircle
 10
72.5665262224
 20
79.0964193728
 30
0.0
 40
58.09182604917694
100
AcDbArc
 50
0.0
 51
45.0
  0
SOLID
  5
165
330
161
100
AcDbEntity
  8
SLD-0
 62
     7
100
AcDbTrace
 10
130.6583522716
 20
79.0964193728
 30
0.0
 11
130.8739023007
 21
81.1004249079
 31
0.0
 12
130.3739763219
 22
81.0918216679
 32
0.0
 13
130.3739763219
 23
81.0918216679
 33
0.0
  0
SOLID
  5
166
330
161
100
AcDbEntity
  8
SLD-0
 62
     7
100
AcDbTrace
 10
113.6436503533
 20
120.1735435036
 30
0.0
 11
114.8535286849
 21
118.5614968472
 31
0.0
 12
115.213113144
 22
118.9089144875
 32
0.0
 13
115.213113144
 23
118.9089144875
 33
0.0
  0
LINE
  5
167
330
161
100
AcDbEntity
  8
SLD-0
 62
     7
100
AcDbLine
 10
105.5665262224
 20
79.0964193728
 30
0.0
 11
131.6583522716
 21
79.0964193728
 31
0.0
  0
LINE
  5
168
330
161
100
AcDbEntity
  8
SLD-0
 62
     7
100
AcDbLine
 10
101.7736330036
 20
108.303526154
 30
0.0
 11
114.3507571345
 21
120.8806502848
 31
0.0
  0
MTEXT
  5
169
330
161
100
AcDbEntity
  8
SLD-0
 62
     7
100
AcDbMText
 10
128.2198195365
 20
104.9599812027
 30
0.0
 40
2.5
 41
0.0
 71
     1
 72
     1
  1
45°
  7
SLDTEXTSTYLE0
 11
0.3826834323650838
 21
-0.9238795325112892
 31
0.0
 73
     1
 44
1.0
  0
ENDBLK
  5
163
330
161
100
AcDbEntity
  8
0
100
AcDbBlockEnd
  0
BLOCK
  5
16C
330
16B
100
AcDbEntity
  8
0
100
AcDbBlockBegin
  2
SW_PROJECTIONARROW_0
 70
     0
 10
0.0
 20
0.0
 30
0.0
  3
SW_PROJECTIONARROW_0
  1

  0
LINE
  5
16E
330
16B
100
AcDbEntity
  8
0
  6
HIDDEN
 62
     0
370
     0
100
AcDbLine
 10
84.0362458941
 20
92.2780455397
 30
0.0
 11
87.5717798
 21
88.7425116338
 31
0.0
  0
LINE
  5
16F
330
16B
100
AcDbEntity
  8
0
  6
HIDDEN
 62
     0
370
     0
100
AcDbLine
 10
84.0362458941
 20
92.2780455397
 30
0.0
 11
87.5717798
 21
88.7425116338
 31
0.0
  0
LINE
  5
170
330
16B
100
AcDbEntity
  8
0
  6
PHANTOM
 62
     0
370
    30
100
AcDbLine
 10
84.0362458941
 20
92.2780455397
 30
0.0
 11
87.5717798
 21
88.7425116338
 31
0.0
  0
SOLID
  5
171
330
16B
100
AcDbEntity
  8
0
  6
Continuous
 62
     0
370
    30
100
AcDbTrace
 10
87.5717798
 20
88.7425116338
 30
0.0
 11
85.8747235252
 21
91.288096046
 31
0.0
 12
85.0261953878
 22
90.4395679086
 32
0.0
 13
85.0261953878
 23
90.4395679086
 33
0.0
  0
SOLID
  5
172
330
16B
100
AcDbEntity
  8
0
  6
Continuous
 62
     0
370
    30
100
AcDbTrace
 10
87.5717798
 20
88.7425116338
 30
0.0
 11
85.8747235252
 21
91.288096046
 31
0.0
 12
85.0261953878
 22
90.4395679086
 32
0.0
 13
85.0261953878
 23
90.4395679086
 33
0.0
  0
MTEXT
  5
173
330
16B
100
AcDbEntity
  8
0
  6
Continuous
 62
     0
370
    30
100
AcDbMText
 10
87.97243603
 20
92.6787017697
 30
0.0
 40
2.5
 41
0.0
 71
     1
 72
     1
  1
C
  7
SLDTEXTSTYLE0
 73
     1
 44
1.0
  0
MTEXT
  5
174
330
16B
100
AcDbEntity
  8
0
  6
Continuous
 62
     0
370
    30
100
AcDbMText
 10
87.97243603
 20
92.6787017697
 30
0.0
 40
2.5
 41
0.0
 71
     1
 72
     1
  1
C
  7
SLDTEXTSTYLE0
 73
     1
 44
1.0
  0
ENDBLK
  5
16D
330
16B
100
AcDbEntity
  8
0
100
AcDbBlockEnd
  0
BLOCK
  5
18D
330
18C
100
AcDbEntity
  8
0
100
AcDbBlockBegin
  2
_D_5
 70
     0
 10
0.0
 20
0.0
 30
0.0
  3
_D_5
  1

  0
SOLID
  5
18F
330
18C
100
AcDbEntity
  8
SLD-0
 62
     7
100
AcDbTrace
 10
65.2752387625
 20
131.4185726192
 30
0.0
 11
66.8662290201
 21
132.6560094863
 31
0.0
 12
66.5126756295
 22
133.0095628769
 32
0.0
 13
66.5126756295
 23
133.0095628769
 33
0.0
  0
LINE
  5
190
330
18C
100
AcDbEntity
  8
SLD-0
 62
     7
100
AcDbLine
 10
65.2752387625
 20
131.4185726192
 30
0.0
 11
75.5414214036
 21
141.6847552603
 31
0.0
  0
LINE
  5
191
330
18C
100
AcDbEntity
  8
SLD-0
 62
     7
100
AcDbLine
 10
75.5414214036
 20
141.6847552603
 30
0.0
 11
97.304443722
 21
141.6847552603
 31
0.0
  0
MTEXT
  5
192
330
18C
100
AcDbEntity
  8
SLD-0
 62
     7
100
AcDbMText
 10
78.9368216744
 20
148.7511747741
 30
0.0
 40
2.5
 41
0.0
 71
     1
 72
     1
  1
ACCEPTS
  7
SLDTEXTSTYLE0
 73
     1
 44
1.0
  0
MTEXT
  5
193
330
18C
100
AcDbEntity
  8
SLD-0
 62
     7
100
AcDbMText
 10
76.7914214036
 20
144.9074248425
 30
0.0
 40
2.5
 41
0.0
 71
     1
 72
     1
  1
%%c
  7
SLDTEXTSTYLE0
 73
     1
 44
1.0
  0
MTEXT
  5
194
330
18C
100
AcDbEntity
  8
SLD-0
 62
     7
100
AcDbMText
 10
80.4363867598
 20
144.9143693075
 30
0.0
 40
2.5
 41
0.0
 71
     1
 72
     1
  1
1" OPTICS
  7
SLDTEXTSTYLE0
 73
     1
 44
1.0
  0
ENDBLK
  5
18E
330
18C
100
AcDbEntity
  8
0
100
AcDbBlockEnd
  0
BLOCK
  5
1B0
330
1AF
100
AcDbEntity
  8
0
100
AcDbBlockBegin
  2
_D_6
 70
     0
 10
0.0
 20
0.0
 30
0.0
  3
_D_6
  1

  0
SOLID
  5
1B2
330
1AF
100
AcDbEntity
  8
SLD-0
100
AcDbTrace
 10
170.9924244982
 20
94.5018821857
 30
0.0
 11
172.6214672324
 21
95.6887771979
 31
0.0
 12
172.2791840684
 22
96.0532524859
 32
0.0
 13
172.2791840684
 23
96.0532524859
 33
0.0
  0
LINE
  5
1B3
330
1AF
100
AcDbEntity
  8
SLD-0
100
AcDbLine
 10
170.9924244982
 20
94.5018821857
 30
0.0
 11
184.0080720262
 21
106.7250346571
 31
0.0
  0
LINE
  5
1B4
330
1AF
100
AcDbEntity
  8
SLD-0
100
AcDbLine
 10
184.0080720262
 20
106.7250346571
 30
0.0
 11
192.722481832
 21
106.7250346571
 31
0.0
  0
MTEXT
  5
1B5
330
1AF
100
AcDbEntity
  8
SLD-0
100
AcDbMText
 10
185.2580720262
 20
109.9477037737
 30
0.0
 40
2.5
 41
0.0
 71
     1
 72
     1
  1
%%c
  7
SLDTEXTSTYLE0
 73
     1
 44
1.0
  0
MTEXT
  5
1B6
330
1AF
100
AcDbEntity
  8
SLD-0
100
AcDbMText
 10
188.9030373824
 20
109.9546482387
 30
0.0
 40
2.5
 41
0.0
 71
     1
 72
     1
  1
16
  7
SLDTEXTSTYLE0
 73
     1
 44
1.0
  0
ENDBLK
  5
1B1
330
1AF
100
AcDbEntity
  8
0
100
AcDbBlockEnd
  0
BLOCK
  5
1B9
330
1B8
100
AcDbEntity
  8
0
100
AcDbBlockBegin
  2
_D_7
 70
     0
 10
0.0
 20
0.0
 30
0.0
  3
_D_7
  1

  0
SOLID
  5
1BB
330
1B8
100
AcDbEntity
  8
SLD-0
100
AcDbTrace
 10
189.8820885054
 20
79.0964193728
 30
0.0
 11
189.6320885054
 21
77.0964193728
 31
0.0
 12
190.1320885054
 22
77.0964193728
 32
0.0
 13
190.1320885054
 23
77.0964193728
 33
0.0
  0
SOLID
  5
1BC
330
1B8
100
AcDbEntity
  8
SLD-0
100
AcDbTrace
 10
189.8820885054
 20
72.5964193728
 30
0.0
 11
190.1320885054
 21
74.5964193728
 31
0.0
 12
189.6320885054
 22
74.5964193728
 32
0.0
 13
189.6320885054
 23
74.5964193728
 33
0.0
  0
LINE
  5
1BD
330
1B8
100
AcDbEntity
  8
SLD-0
100
AcDbLine
 10
181.1608198892
 20
79.0964193728
 30
0.0
 11
190.8820885054
 21
79.0964193728
 31
0.0
  0
LINE
  5
1BE
330
1B8
100
AcDbEntity
  8
SLD-0
100
AcDbLine
 10
178.8608198892
 20
72.5964193728
 30
0.0
 11
190.8820885054
 21
72.5964193728
 31
0.0
  0
LINE
  5
1BF
330
1B8
100
AcDbEntity
  8
SLD-0
100
AcDbLine
 10
189.8820885054
 20
79.0964193728
 30
0.0
 11
189.8820885054
 21
72.5964193728
 31
0.0
  0
MTEXT
  5
1C0
330
1B8
100
AcDbEntity
  8
SLD-0
100
AcDbMText
 10
186.6594193305
 20
73.4592666209
 30
0.0
 40
2.5
 41
0.0
 71
     1
 72
     1
  1
6.5
  7
SLDTEXTSTYLE0
 11
-7.044195017643634E-15
 21
1.0
 31
0.0
 73
     1
 44
1.0
  0
ENDBLK
  5
1BA
330
1B8
100
AcDbEntity
  8
0
100
AcDbBlockEnd
  0
BLOCK
  5
1C2
330
1C1
100
AcDbEntity
  8
0
100
AcDbBlockBegin
  2
SW_NOTE_2
 70
     0
 10
0.0
 20
0.0
 30
0.0
  3
SW_NOTE_2
  1

  0
LINE
  5
1C4
330
1C1
100
AcDbEntity
  8
SLD-0
 62
     0
100
AcDbLine
 10
-15.9536293978
 20
0.0
 30
0.0
 11
0.0
 21
0.0
 31
0.0
  0
MTEXT
  5
1C5
330
1C1
100
AcDbEntity
  8
SLD-0
 62
     0
100
AcDbMText
 10
-16.3762288279
 20
6.6947052434
 30
0.0
 40
2.5
 41
0.0
 71
     1
 72
     1
  1
1 HOLE,
  7
SLDTEXTSTYLE0
 73
     1
 44
1.0
  0
MTEXT
  5
1C6
330
1C1
100
AcDbEntity
  8
SLD-0
 62
     0
100
AcDbMText
 10
-15.4387288279
 20
3.1947051353
 30
0.0
 40
2.5
 41
0.0
 71
     1
 72
     1
  1
M4 (8-32)
  7
SLDTEXTSTYLE0
 73
     1
 44
1.0
  0
ENDBLK
  5
1C3
330
1C1
100
AcDbEntity
  8
0
100
AcDbBlockEnd
  0
BLOCK
  5
1CB
330
1CA
100
AcDbEntity
  8
0
100
AcDbBlockBegin
  2
SW_CENTERMARKSYMBOL_0
 70
     0
 10
0.0
 20
0.0
 30
0.0
  3
SW_CENTERMARKSYMBOL_0
  1

  0
LINE
  5
1CD
330
1CA
100
AcDbEntity
  8
SLD-0
 62
     0
100
AcDbLine
 10
0.0
 20
0.0
 30
0.0
 11
0.0
 21
1.0
 31
0.0
  0
LINE
  5
1CE
330
1CA
100
AcDbEntity
  8
SLD-0
 62
     0
100
AcDbLine
 10
0.0
 20
0.0
 30
0.0
 11
-1.0
 21
0.0
 31
0.0
  0
LINE
  5
1CF
330
1CA
100
AcDbEntity
  8
SLD-0
 62
     0
100
AcDbLine
 10
0.0
 20
0.0
 30
0.0
 11
0.0
 21
-1.0
 31
0.0
  0
LINE
  5
1D0
330
1CA
100
AcDbEntity
  8
SLD-0
 62
     0
100
AcDbLine
 10
0.0
 20
0.0
 30
0.0
 11
1.0
 21
0.0
 31
0.0
  0
LINE
  5
1D1
330
1CA
100
AcDbEntity
  8
SLD-0
 62
     0
100
AcDbLine
 10
0.0
 20
2.0
 30
0.0
 11
0.0
 21
9.0
 31
0.0
  0
LINE
  5
1D2
330
1CA
100
AcDbEntity
  8
SLD-0
 62
     0
100
AcDbLine
 10
-2.0
 20
0.0
 30
0.0
 11
-9.0
 21
0.0
 31
0.0
  0
LINE
  5
1D3
330
1CA
100
AcDbEntity
  8
SLD-0
 62
     0
100
AcDbLine
 10
0.0
 20
-2.0
 30
0.0
 11
0.0
 21
-16.6879531328
 31
0.0
  0
LINE
  5
1D4
330
1CA
100
AcDbEntity
  8
SLD-0
 62
     0
100
AcDbLine
 10
2.0
 20
0.0
 30
0.0
 11
9.0
 21
0.0
 31
0.0
  0
ENDBLK
  5
1CC
330
1CA
100
AcDbEntity
  8
0
100
AcDbBlockEnd
  0
ENDSEC
  0
SECTION
  2
ENTITIES
  0
HATCH
  5
75
330
1F
100
AcDbEntity
  8
DIM
 62
     7
100
AcDbHatch
 10
0.0
 20
0.0
 30
0.0
210
0.0
220
0.0
230
1.0
  2
SOLID
 70
     1
 71
     0
 91
        1
 92
        0
 93
       10
 72
     2
 10
192.1950854383542
 20
35.8258171842087
 40
3.045751395731247
 50
249.2112209143416
 51
308.9221353953371
 73
     1
 72
     1
 10
194.1086203995888
 20
33.45622111805483
 11
195.0734400608059
 21
32.60893433441247
 72
     1
 10
195.0734400608059
 20
32.60893433441247
 11
191.8633000876501
 21
29.49189462165007
 72
     1
 10
191.8633000876501
 20
29.49189462165007
 11
190.9224996321561
 21
30.30189169176007
 72
     1
 10
190.9224996321561
 20
30.30189169176007
 11
191.5535515525713
 21
30.91779208223109
 72
     1
 10
191.5535515525713
 20
30.91779208223109
 11
187.5443492423757
 21
34.40239592250578
 72
     2
 10
188.5592906719164
 20
35.5499562982663
 40
1.531992467805808
 50
131.4906380929588
 51
229.7089352075133
 73
     0
 72
     1
 10
187.5685958244008
 20
36.71851294666634
 11
188.8752240792825
 21
37.98010002317385
 72
     1
 10
188.8752240792825
 20
37.98010002317385
 11
189.890417926685
 21
37.08456812235607
 72
     2
 10
191.8636882300577
 20
35.43717543496128
 40
2.570544369711283
 50
140.1430462780655
 51
253.045252507401
 73
     1
 97
        0
 75
     0
 76
     1
 98
        1
 10
0.0
 20
0.0
  0
HATCH
  5
76
330
1F
100
AcDbEntity
  8
DIM
 62
     1
100
AcDbHatch
 10
0.0
 20
0.0
 30
0.0
210
0.0
220
0.0
230
1.0
  2
SOLID
 70
     1
 71
     0
 91
        1
 92
        0
 93
       10
 72
     2
 10
192.3282508773181
 20
35.07161754550665
 40
3.18163670452787
 50
234.1674444878508
 51
314.4407074583991
 73
     0
 72
     2
 10
192.6459071680426
 20
35.61243935098484
 40
2.57756748834625
 50
317.8184992995783
 51
398.0564711573082
 73
     0
 72
     1
 10
194.67549301109
 20
34.02352920164319
 11
195.6609419040728
 21
33.16483226175369
 72
     1
 10
195.6609419040728
 20
33.16483226175369
 11
196.9026232188666
 21
34.36926520416092
 72
     2
 10
196.0092308932045
 20
35.59721193598185
 40
1.518552937418266
 50
306.0377529468126
 51
403.4396461533865
 73
     1
 72
     1
 10
197.1118507578768
 20
36.64135390801998
 11
192.9850948995335
 21
40.23053017665394
 72
     1
 10
192.9850948995335
 20
40.23053017665394
 11
193.6093462014608
 21
40.83958860749127
 72
     1
 10
193.6093462014608
 20
40.83958860749127
 11
192.6788396912767
 21
41.6697808273358
 72
     1
 10
192.6788396912767
 20
41.6697808273358
 11
189.4432542428669
 21
38.54286058072169
 72
     1
 10
189.4432542428669
 20
38.54286058072169
 11
190.4656621202154
 21
37.65107005360088
 97
        0
 75
     0
 76
     1
 98
        1
 10
0.0
 20
0.0
  0
LINE
  5
77
330
1F
100
AcDbEntity
  8
0
  6
Continuous
 62
     7
370
     0
100
AcDbLine
 10
167.8593775185
 20
17.7745192513
 30
0.0
 11
168.8593775185
 21
17.7745192513
 31
0.0
  0
LINE
  5
78
330
1F
100
AcDbEntity
  8
0
  6
Continuous
 62
     7
370
     0
100
AcDbLine
 10
164.8593775185
 20
17.7745192513
 30
0.0
 11
167.3593775185
 21
17.7745192513
 31
0.0
  0
LINE
  5
79
330
1F
100
AcDbEntity
  8
0
  6
Continuous
 62
     7
370
     0
100
AcDbLine
 10
181.3593775185
 20
15.2745192513
 30
0.0
 11
181.3593775185
 21
20.2745192513
 31
0.0
  0
LINE
  5
7A
330
1F
100
AcDbEntity
  8
0
  6
Continuous
 62
     7
370
     0
100
AcDbLine
 10
174.3593775185
 20
16.2745192513
 30
0.0
 11
181.3593775185
 21
15.2745192513
 31
0.0
  0
LINE
  5
7B
330
1F
100
AcDbEntity
  8
0
  6
Continuous
 62
     7
370
     0
100
AcDbLine
 10
168.3593775185
 20
16.7745192513
 30
0.0
 11
168.3593775185
 21
14.2745192513
 31
0.0
  0
LINE
  5
7C
330
1F
100
AcDbEntity
  8
0
  6
Continuous
 62
     7
370
     0
100
AcDbLine
 10
181.3593775185
 20
20.2745192513
 30
0.0
 11
174.3593775185
 21
19.2745192513
 31
0.0
  0
LINE
  5
7D
330
1F
100
AcDbEntity
  8
0
  6
Continuous
 62
     7
370
     0
100
AcDbLine
 10
173.3593775185
 20
17.7745192513
 30
0.0
 11
182.3593775185
 21
17.7745192513
 31
0.0
  0
LINE
  5
7E
330
1F
100
AcDbEntity
  8
0
  6
Continuous
 62
     7
370
     0
100
AcDbLine
 10
168.3593775185
 20
18.2745192513
 30
0.0
 11
168.3593775185
 21
17.2745192513
 31
0.0
  0
LINE
  5
7F
330
1F
100
AcDbEntity
  8
0
  6
Continuous
 62
     7
370
     0
100
AcDbLine
 10
169.3593775185
 20
17.7745192513
 30
0.0
 11
171.8593775185
 21
17.7745192513
 31
0.0
  0
LINE
  5
80
330
1F
100
AcDbEntity
  8
0
  6
Continuous
 62
     7
370
     0
100
AcDbLine
 10
168.3593775185
 20
21.2745192513
 30
0.0
 11
168.3593775185
 21
18.7745192513
 31
0.0
  0
LINE
  5
81
330
1F
100
AcDbEntity
  8
0
  6
Continuous
 62
     7
370
     0
100
AcDbLine
 10
174.3593775185
 20
19.2745192513
 30
0.0
 11
174.3593775185
 21
16.2745192513
 31
0.0
  0
LINE
  5
82
330
1F
100
AcDbEntity
  8
0
370
     0
100
AcDbLine
 10
195.0734400608
 20
32.6089343344
 30
0.0
 11
191.8633000877
 21
29.4918946217
 31
0.0
  0
LINE
  5
83
330
1F
100
AcDbEntity
  8
0
370
     0
100
AcDbLine
 10
191.8633000877
 20
29.4918946217
 30
0.0
 11
190.9224996322
 21
30.3018916918
 31
0.0
  0
LINE
  5
84
330
1F
100
AcDbEntity
  8
0
370
     0
100
AcDbLine
 10
190.9224996322
 20
30.3018916918
 30
0.0
 11
191.5535515526
 21
30.9177920822
 31
0.0
  0
LINE
  5
85
330
1F
100
AcDbEntity
  8
0
370
     0
100
AcDbLine
 10
187.5443492424
 20
34.4023959225
 30
0.0
 11
191.5535515526
 21
30.9177920822
 31
0.0
  0
LINE
  5
86
330
1F
100
AcDbEntity
  8
0
370
     0
100
AcDbLine
 10
188.8752240793
 20
37.9801000232
 30
0.0
 11
187.5685958244
 21
36.7185129467
 31
0.0
  0
LINE
  5
87
330
1F
100
AcDbEntity
  8
0
370
     0
100
AcDbLine
 10
188.8752240793
 20
37.9801000232
 30
0.0
 11
189.8904179267
 21
37.0845681224
 31
0.0
  0
LINE
  5
88
330
1F
100
AcDbEntity
  8
0
370
     0
100
AcDbLine
 10
194.1086203996
 20
33.4562211181
 30
0.0
 11
195.0734400608
 21
32.6089343344
 31
0.0
  0
LINE
  5
89
330
1F
100
AcDbEntity
  8
0
 62
     1
370
     0
100
AcDbLine
 10
190.4656621202
 20
37.6510700536
 30
0.0
 11
189.4432542429
 21
38.5428605807
 31
0.0
  0
LINE
  5
8A
330
1F
100
AcDbEntity
  8
0
 62
     1
370
     0
100
AcDbLine
 10
189.4432542429
 20
38.5428605807
 30
0.0
 11
192.6788396913
 21
41.6697808273
 31
0.0
  0
LINE
  5
8B
330
1F
100
AcDbEntity
  8
0
 62
     1
370
     0
100
AcDbLine
 10
192.6788396913
 20
41.6697808273
 30
0.0
 11
193.6093462015
 21
40.8395886075
 31
0.0
  0
LINE
  5
8C
330
1F
100
AcDbEntity
  8
0
 62
     1
370
     0
100
AcDbLine
 10
193.6093462015
 20
40.8395886075
 30
0.0
 11
192.9850948995
 21
40.2305301767
 31
0.0
  0
LINE
  5
8D
330
1F
100
AcDbEntity
  8
0
 62
     1
370
     0
100
AcDbLine
 10
192.9850948995
 20
40.2305301767
 30
0.0
 11
197.1118507579
 21
36.641353908
 31
0.0
  0
LINE
  5
8E
330
1F
100
AcDbEntity
  8
0
 62
     1
370
     0
100
AcDbLine
 10
194.6754930111
 20
34.0235292016
 30
0.0
 11
195.6609419041
 21
33.1648322618
 31
0.0
  0
LINE
  5
8F
330
1F
100
AcDbEntity
  8
0
 62
     1
370
     0
100
AcDbLine
 10
195.6609419041
 20
33.1648322618
 30
0.0
 11
196.9026232189
 21
34.3692652042
 31
0.0
  0
LINE
  5
90
330
1F
100
AcDbEntity
  8
0
  6
Continuous
 62
     7
370
     0
100
AcDbLine
 10
185.6907965209
 20
13.1152464079
 30
0.0
 11
285.6907965209
 21
13.1152464079
 31
0.0
  0
LINE
  5
91
330
1F
100
AcDbEntity
  8
0
  6
Continuous
 62
     7
370
     0
100
AcDbLine
 10
185.6907965209
 20
18.1152464079
 30
0.0
 11
235.6907965209
 21
18.1152464079
 31
0.0
  0
LINE
  5
92
330
1F
100
AcDbEntity
  8
0
  6
Continuous
 62
     7
370
     0
100
AcDbLine
 10
185.6907965209
 20
23.1152464079
 30
0.0
 11
235.6907965209
 21
23.1152464079
 31
0.0
  0
LINE
  5
93
330
1F
100
AcDbEntity
  8
0
  6
Continuous
 62
     7
370
     0
100
AcDbLine
 10
185.6907965209
 20
28.1152464079
 30
0.0
 11
285.6907965209
 21
28.1152464079
 31
0.0
  0
LINE
  5
94
330
1F
100
AcDbEntity
  8
0
  6
Continuous
 62
     7
370
     0
100
AcDbLine
 10
235.6907965209
 20
33.1152464079
 30
0.0
 11
285.6907965209
 21
33.1152464079
 31
0.0
  0
LINE
  5
95
330
1F
100
AcDbEntity
  8
0
  6
Continuous
 62
     7
370
    15
100
AcDbLine
 10
235.6907965209
 20
18.1152464079
 30
0.0
 11
285.6907965209
 21
18.1152464079
 31
0.0
  0
LINE
  5
96
330
1F
100
AcDbEntity
  8
0
  6
Continuous
 62
     7
370
     0
100
AcDbLine
 10
185.6907965209
 20
43.1152464079
 30
0.0
 11
285.6907965209
 21
43.1152464079
 31
0.0
  0
LINE
  5
97
330
1F
100
AcDbEntity
  8
0
  6
Continuous
 62
     7
370
     0
100
AcDbLine
 10
251.237217675
 20
8.1152464079
 30
0.0
 11
251.237217675
 21
18.1152464079
 31
0.0
  0
LINE
  5
98
330
1F
100
AcDbEntity
  8
0
  6
Continuous
 62
     7
370
     0
100
AcDbLine
 10
235.6907965209
 20
8.1152464079
 30
0.0
 11
235.6907965209
 21
43.1152464079
 31
0.0
  0
LINE
  5
99
330
1F
100
AcDbEntity
  8
0
  6
Continuous
 62
     7
370
     0
100
AcDbLine
 10
251.237217675
 20
28.1152464079
 30
0.0
 11
251.237217675
 21
33.1152464079
 31
0.0
  0
LINE
  5
9A
330
1F
100
AcDbEntity
  8
0
  6
Continuous
 62
     7
370
     0
100
AcDbLine
 10
214.4164086353
 20
8.1152464079
 30
0.0
 11
214.4164086353
 21
28.1152464079
 31
0.0
  0
LINE
  5
9B
330
1F
100
AcDbEntity
  8
0
  6
Continuous
 62
     7
370
     0
100
AcDbLine
 10
199.7785887506
 20
8.1152464079
 30
0.0
 11
199.7785887506
 21
28.1152464079
 31
0.0
  0
LINE
  5
9C
330
1F
100
AcDbEntity
  8
0
  6
Continuous
 62
     7
370
     0
100
AcDbLine
 10
185.6907965209
 20
8.1152464079
 30
0.0
 11
185.6907965209
 21
43.1152464079
 31
0.0
  0
LINE
  5
9D
330
1F
100
AcDbEntity
  8
0
  6
Continuous
 62
     7
370
    15
100
AcDbLine
 10
8.6907965209
 20
104.7436369915
 30
0.0
 11
14.6907965209
 21
104.7436369915
 31
0.0
  0
LINE
  5
9E
330
1F
100
AcDbEntity
  8
0
  6
Continuous
 62
     7
370
    15
100
AcDbLine
 10
285.6907965209
 20
104.7436369915
 30
0.0
 11
279.6907965209
 21
104.7436369915
 31
0.0
  0
LINE
  5
9F
330
1F
100
AcDbEntity
  8
0
  6
Continuous
 62
     7
370
    15
100
AcDbLine
 10
147.1907965209
 20
8.1152464079
 30
0.0
 11
147.1907965209
 21
14.1152464079
 31
0.0
  0
LINE
  5
A0
330
1F
100
AcDbEntity
  8
0
  6
Continuous
 62
     7
370
    15
100
AcDbLine
 10
147.1907965209
 20
201.3720275751
 30
0.0
 11
147.1907965209
 21
195.3720275751
 31
0.0
  0
LINE
  5
A1
330
1F
100
AcDbEntity
  8
0
  6
Continuous
 62
     7
370
    15
100
AcDbLine
 10
43.3207965209
 20
201.3720275751
 30
0.0
 11
43.3207965209
 21
202.8720275751
 31
0.0
  0
LINE
  5
A2
330
1F
100
AcDbEntity
  8
0
  6
Continuous
 62
     7
370
    15
100
AcDbLine
 10
77.9507965209
 20
201.3720275751
 30
0.0
 11
77.9507965209
 21
202.8720275751
 31
0.0
  0
LINE
  5
A3
330
1F
100
AcDbEntity
  8
0
  6
Continuous
 62
     7
370
    15
100
AcDbLine
 10
112.5807965209
 20
201.3720275751
 30
0.0
 11
112.5807965209
 21
202.8720275751
 31
0.0
  0
LINE
  5
A4
330
1F
100
AcDbEntity
  8
0
  6
Continuous
 62
     7
370
    15
100
AcDbLine
 10
147.2107965209
 20
201.3720275751
 30
0.0
 11
147.2107965209
 21
202.8720275751
 31
0.0
  0
LINE
  5
A5
330
1F
100
AcDbEntity
  8
0
  6
Continuous
 62
     7
370
    15
100
AcDbLine
 10
181.8407965209
 20
201.3720275751
 30
0.0
 11
181.8407965209
 21
202.8720275751
 31
0.0
  0
LINE
  5
A6
330
1F
100
AcDbEntity
  8
0
  6
Continuous
 62
     7
370
    15
100
AcDbLine
 10
216.4707965209
 20
201.3720275751
 30
0.0
 11
216.4707965209
 21
202.8720275751
 31
0.0
  0
LINE
  5
A7
330
1F
100
AcDbEntity
  8
0
  6
Continuous
 62
     7
370
    15
100
AcDbLine
 10
251.1007965209
 20
201.3720275751
 30
0.0
 11
251.1007965209
 21
202.8720275751
 31
0.0
  0
LINE
  5
A8
330
1F
100
AcDbEntity
  8
0
  6
Continuous
 62
     7
370
    15
100
AcDbLine
 10
43.3157965209
 20
8.1152464079
 30
0.0
 11
43.3157965209
 21
6.6152464079
 31
0.0
  0
LINE
  5
A9
330
1F
100
AcDbEntity
  8
0
  6
Continuous
 62
     7
370
    15
100
AcDbLine
 10
77.9407965209
 20
8.1152464079
 30
0.0
 11
77.9407965209
 21
6.6152464079
 31
0.0
  0
LINE
  5
AA
330
1F
100
AcDbEntity
  8
0
  6
Continuous
 62
     7
370
    15
100
AcDbLine
 10
112.5657965209
 20
8.1152464079
 30
0.0
 11
112.5657965209
 21
6.6152464079
 31
0.0
  0
LINE
  5
AB
330
1F
100
AcDbEntity
  8
0
  6
Continuous
 62
     7
370
    15
100
AcDbLine
 10
147.1907965209
 20
8.1152464079
 30
0.0
 11
147.1907965209
 21
6.6152464079
 31
0.0
  0
LINE
  5
AC
330
1F
100
AcDbEntity
  8
0
  6
Continuous
 62
     7
370
    15
100
AcDbLine
 10
181.8157965209
 20
8.1152464079
 30
0.0
 11
181.8157965209
 21
6.6152464079
 31
0.0
  0
LINE
  5
AD
330
1F
100
AcDbEntity
  8
0
  6
Continuous
 62
     7
370
    15
100
AcDbLine
 10
216.4407965209
 20
8.1152464079
 30
0.0
 11
216.4407965209
 21
6.6152464079
 31
0.0
  0
LINE
  5
AE
330
1F
100
AcDbEntity
  8
0
  6
Continuous
 62
     7
370
     0
100
AcDbLine
 10
285.6907965209
 20
201.3720275751
 30
0.0
 11
8.6907965209
 21
201.3720275751
 31
0.0
  0
LINE
  5
AF
330
1F
100
AcDbEntity
  8
0
  6
Continuous
 62
     7
370
     0
100
AcDbLine
 10
285.6907965209
 20
8.1152464079
 30
0.0
 11
285.6907965209
 21
201.3720275751
 31
0.0
  0
LINE
  5
B0
330
1F
100
AcDbEntity
  8
0
  6
Continuous
 62
     7
370
     0
100
AcDbLine
 10
8.6907965209
 20
201.3720275751
 30
0.0
 11
8.6907965209
 21
8.1152464079
 31
0.0
  0
LINE
  5
B1
330
1F
100
AcDbEntity
  8
0
  6
Continuous
 62
     7
370
     0
100
AcDbLine
 10
8.6907965209
 20
8.1152464079
 30
0.0
 11
285.6907965209
 21
8.1152464079
 31
0.0
  0
LINE
  5
B2
330
1F
100
AcDbEntity
  8
0
  6
Continuous
 62
     7
370
    15
100
AcDbLine
 10
251.0657965209
 20
8.1152464079
 30
0.0
 11
251.0657965209
 21
6.6152464079
 31
0.0
  0
LINE
  5
B3
330
1F
100
AcDbEntity
  8
0
  6
Continuous
 62
     7
370
    15
100
AcDbLine
 10
8.6907965209
 20
40.3252464079
 30
0.0
 11
7.1907965209
 21
40.3252464079
 31
0.0
  0
LINE
  5
B4
330
1F
100
AcDbEntity
  8
0
  6
Continuous
 62
     7
370
    15
100
AcDbLine
 10
8.6907965209
 20
72.5352464079
 30
0.0
 11
7.1907965209
 21
72.5352464079
 31
0.0
  0
LINE
  5
B5
330
1F
100
AcDbEntity
  8
0
  6
Continuous
 62
     7
370
    15
100
AcDbLine
 10
8.6907965209
 20
104.7452464079
 30
0.0
 11
7.1907965209
 21
104.7452464079
 31
0.0
  0
LINE
  5
B6
330
1F
100
AcDbEntity
  8
0
  6
Continuous
 62
     7
370
    15
100
AcDbLine
 10
8.6907965209
 20
136.9552464079
 30
0.0
 11
7.1907965209
 21
136.9552464079
 31
0.0
  0
LINE
  5
B7
330
1F
100
AcDbEntity
  8
0
  6
Continuous
 62
     7
370
    15
100
AcDbLine
 10
8.6907965209
 20
169.1652464079
 30
0.0
 11
7.1907965209
 21
169.1652464079
 31
0.0
  0
LINE
  5
B8
330
1F
100
AcDbEntity
  8
0
  6
Continuous
 62
     7
370
    15
100
AcDbLine
 10
285.6907965209
 20
40.3252464079
 30
0.0
 11
287.1907965209
 21
40.3252464079
 31
0.0
  0
LINE
  5
B9
330
1F
100
AcDbEntity
  8
0
  6
Continuous
 62
     7
370
    15
100
AcDbLine
 10
285.6907965209
 20
72.5352464079
 30
0.0
 11
287.1907965209
 21
72.5352464079
 31
0.0
  0
LINE
  5
BA
330
1F
100
AcDbEntity
  8
0
  6
Continuous
 62
     7
370
    15
100
AcDbLine
 10
285.6907965209
 20
104.7452464079
 30
0.0
 11
287.1907965209
 21
104.7452464079
 31
0.0
  0
LINE
  5
BB
330
1F
100
AcDbEntity
  8
0
  6
Continuous
 62
     7
370
    15
100
AcDbLine
 10
285.6907965209
 20
136.9552464079
 30
0.0
 11
287.1907965209
 21
136.9552464079
 31
0.0
  0
LINE
  5
BC
330
1F
100
AcDbEntity
  8
0
  6
Continuous
 62
     7
370
    15
100
AcDbLine
 10
285.6907965209
 20
169.1652464079
 30
0.0
 11
287.1907965209
 21
169.1652464079
 31
0.0
  0
CIRCLE
  5
BD
330
1F
100
AcDbEntity
  8
0
  6
Continuous
 62
     7
370
     0
100
AcDbCircle
 10
168.3593775185
 20
17.7745192513
 30
0.0
 40
1.5
  0
CIRCLE
  5
BE
330
1F
100
AcDbEntity
  8
0
  6
Continuous
 62
     7
370
     0
100
AcDbCircle
 10
168.3593775185
 20
17.7745192513
 30
0.0
 40
2.5
  0
ARC
  5
BF
330
1F
100
AcDbEntity
  8
0
370
     0
100
AcDbCircle
 10
188.5592906719
 20
35.5499562983
 30
0.0
 40
1.531992467805816
100
AcDbArc
 50
130.2910647925
 51
228.509361907
  0
ARC
  5
C0
330
1F
100
AcDbEntity
  8
0
370
     0
100
AcDbCircle
 10
191.8636882301
 20
35.437175435
 30
0.0
 40
2.570544369711281
100
AcDbArc
 50
140.1430462781
 51
253.0452525074
  0
ARC
  5
C1
330
1F
100
AcDbEntity
  8
0
370
     0
100
AcDbCircle
 10
192.1950854384
 20
35.8258171842
 30
0.0
 40
3.045751395731261
100
AcDbArc
 50
249.2112209143
 51
308.9221353953
  0
ARC
  5
C2
330
1F
100
AcDbEntity
  8
0
 62
     1
370
     0
100
AcDbCircle
 10
196.0092308932
 20
35.597211936
 30
0.0
 40
1.518552937418265
100
AcDbArc
 50
306.0377529468
 51
43.4396461534
  0
ARC
  5
C3
330
1F
100
AcDbEntity
  8
0
 62
     1
370
     0
100
AcDbCircle
 10
192.3282508773
 20
35.0716175455
 30
0.0
 40
3.181636704527866
100
AcDbArc
 50
45.5592925416
 51
125.8325555121
  0
ARC
  5
C4
330
1F
100
AcDbEntity
  8
0
 62
     1
370
     0
100
AcDbCircle
 10
192.645907168
 20
35.612439351
 30
0.0
 40
2.577567488346255
100
AcDbArc
 50
321.9435288427
 51
42.1815007004
  0
MTEXT
  5
C6
330
1F
100
AcDbEntity
  8
0
  6
Continuous
 62
     7
370
     0
100
AcDbMText
 10
165.5426850804
 20
13.2208440369
 30
0.0
 40
2.6458333333
 41
0.0
 71
     1
 72
     1
  1
UNIT:m/m
  7
SLDTEXTSTYLE0
 73
     1
 44
1.0
  0
INSERT
  5
CD
330
1F
100
AcDbEntity
  8
0
  6
Continuous
 62
     7
370
     0
100
AcDbBlockReference
  2
SW_NOTE_0
 10
12.2315076053
 20
193.8904304251
 30
0.0
  0
MTEXT
  5
CF
330
1F
100
AcDbEntity
  8
0
  6
Continuous
 62
     7
370
     0
100
AcDbMText
 10
198.7251893935
 20
40.4406774139
 30
0.0
 40
2.38125
 41
0.0
 71
     1
 72
     1
  1
Unice E-O Services Inc.
  7
SLDTEXTSTYLE1
 73
     1
 44
1.0
  0
MTEXT
  5
D0
330
1F
100
AcDbEntity
  8
0
  6
Continuous
 62
     7
370
     0
100
AcDbMText
 10
217.5590538149
 20
21.5867148511
 30
0.0
 40
1.8520833333
 41
0.0
 71
     1
 72
     1
  1
2010/12/30
  7
SLDTEXTSTYLE0
 73
     1
 44
1.0
  0
MTEXT
  5
D1
330
1F
100
AcDbEntity
  8
0
  6
Continuous
 62
     7
370
     0
100
AcDbMText
 10
252.6088982507
 20
16.87117774
 30
0.0
 40
2.5
 41
0.0
 71
     1
 72
     1
  1
1:1
  7
SLDTEXTSTYLE0
 73
     1
 44
1.0
  0
MTEXT
  5
D2
330
1F
100
AcDbEntity
  8
0
  6
Continuous
 62
     7
370
     0
100
AcDbMText
 10
252.3075599985
 20
32.1519195438
 30
0.0
 40
2.5
 41
0.0
 71
     1
 72
     1
  1
04MAD-1M
  7
SLDTEXTSTYLE0
 73
     1
 44
1.0
  0
MTEXT
  5
D3
330
1F
100
AcDbEntity
  8
0
  6
Continuous
 62
     7
370
     0
100
AcDbMText
 10
252.3075599985
 20
38.1082117879
 30
0.0
 40
2.5
 41
0.0
 71
     1
 72
     1
  1
04MAD-1M
  7
SLDTEXTSTYLE0
 73
     1
 44
1.0
  0
MTEXT
  5
D4
330
1F
100
AcDbEntity
  8
0
  6
Continuous
 62
     7
370
     0
100
AcDbMText
 10
236.3921866786
 20
16.5064795728
 30
0.0
 40
2.1166666667
 41
0.0
 71
     1
 72
     1
  1
SCALE:
  7
SLDTEXTSTYLE0
 73
     1
 44
1.0
  0
MTEXT
  5
D5
330
1F
100
AcDbEntity
  8
0
  6
Continuous
 62
     7
370
     0
100
AcDbMText
 10
186.3336086789
 20
21.5867148511
 30
0.0
 40
1.8520833333
 41
0.0
 71
     1
 72
     1
  1
DRAWN
  7
SLDTEXTSTYLE0
 73
     1
 44
1.0
  0
MTEXT
  5
D6
330
1F
100
AcDbEntity
  8
0
  6
Continuous
 62
     7
370
     0
100
AcDbMText
 10
203.2228367937
 20
26.683208308
 30
0.0
 40
1.8520833333
 41
0.0
 71
     1
 72
     1
  1
NAME
  7
SLDTEXTSTYLE0
 73
     1
 44
1.0
  0
MTEXT
  5
D7
330
1F
100
AcDbEntity
  8
0
  6
Continuous
 62
     7
370
     0
100
AcDbMText
 10
220.8710155758
 20
26.683208308
 30
0.0
 40
1.8520833333
 41
0.0
 71
     1
 72
     1
  1
DATE
  7
SLDTEXTSTYLE0
 73
     1
 44
1.0
  0
MTEXT
  5
D8
330
1F
100
AcDbEntity
  8
0
  6
Continuous
 62
     7
370
     0
100
AcDbMText
 10
236.2756316645
 20
31.7872213766
 30
0.0
 40
2.1166666667
 41
0.0
 71
     1
 72
     1
  1
DWG. NO.
  7
SLDTEXTSTYLE0
 73
     1
 44
1.0
  0
MTEXT
  5
D9
330
1F
100
AcDbEntity
  8
0
  6
Continuous
 62
     7
370
     0
100
AcDbMText
 10
236.3629907088
 20
41.8840658243
 30
0.0
 40
2.1166666667
 41
0.0
 71
     1
 72
     1
  1
TITLE:
  7
SLDTEXTSTYLE0
 73
     1
 44
1.0
  0
MTEXT
  5
DA
330
1F
100
AcDbEntity
  8
0
  6
Continuous
 62
     7
370
     0
100
AcDbMText
 10
203.0314209802
 20
16.2403789724
 30
0.0
 40
1.8520833333
 41
0.0
 71
     1
 72
     1
  1
Johnny
  7
SLDTEXTSTYLE0
 73
     1
 44
1.0
  0
MTEXT
  5
DB
330
1F
100
AcDbEntity
  8
0
  6
Continuous
 62
     7
370
     0
100
AcDbMText
 10
217.5590538149
 20
16.2403789724
 30
0.0
 40
1.8520833333
 41
0.0
 71
     1
 72
     1
  1
2010/12/30
  7
SLDTEXTSTYLE0
 73
     1
 44
1.0
  0
MTEXT
  5
DC
330
1F
100
AcDbEntity
  8
0
  6
Continuous
 62
     7
370
     0
100
AcDbMText
 10
186.3336086789
 20
16.2403789724
 30
0.0
 40
1.8520833333
 41
0.0
 71
     1
 72
     1
  1
ENG APPR.
  7
SLDTEXTSTYLE0
 73
     1
 44
1.0
  0
MTEXT
  5
DD
330
1F
100
AcDbEntity
  8
0
  6
Continuous
 62
     7
370
     0
100
AcDbMText
 10
236.3921866786
 20
11.6853389288
 30
0.0
 40
2.1166666667
 41
0.0
 71
     1
 72
     1
  1
REV
  7
SLDTEXTSTYLE0
 73
     1
 44
1.0
  0
MTEXT
  5
DE
330
1F
100
AcDbEntity
  8
0
  6
Continuous
 62
     7
370
     0
100
AcDbMText
 10
236.3629907088
 20
26.9493089085
 30
0.0
 40
2.1166666667
 41
0.0
 71
     1
 72
     1
  1
MATERIAL:
  7
SLDTEXTSTYLE0
 73
     1
 44
1.0
  0
MTEXT
  5
DF
330
1F
100
AcDbEntity
  8
0
  6
Continuous
 62
     7
370
     0
100
AcDbMText
 10
252.6088982507
 20
22.2175136187
 30
0.0
 40
2.5
 41
0.0
 71
     1
 72
     1
  1
N/A
  7
SLDTEXTSTYLE0
 73
     1
 44
1.0
  0
MTEXT
  5
E0
330
1F
100
AcDbEntity
  8
0
  6
Continuous
 62
     7
370
     0
100
AcDbMText
 10
26.6029931533
 20
204.453351657
 30
0.0
 40
2.1166666667
 41
0.0
 71
     1
 72
     1
  1
1
  7
SLDTEXTSTYLE0
 73
     1
 44
1.0
  0
MTEXT
  5
E1
330
1F
100
AcDbEntity
  8
0
  6
Continuous
 62
     7
370
     0
100
AcDbMText
 10
60.7170995724
 20
204.453351657
 30
0.0
 40
2.1166666667
 41
0.0
 71
     1
 72
     1
  1
2
  7
SLDTEXTSTYLE0
 73
     1
 44
1.0
  0
MTEXT
  5
E2
330
1F
100
AcDbEntity
  8
0
  6
Continuous
 62
     7
370
     0
100
AcDbMText
 10
94.9009943906
 20
204.453351657
 30
0.0
 40
2.1166666667
 41
0.0
 71
     1
 72
     1
  1
3
  7
SLDTEXTSTYLE0
 73
     1
 44
1.0
  0
MTEXT
  5
E3
330
1F
100
AcDbEntity
  8
0
  6
Continuous
 62
     7
370
     0
100
AcDbMText
 10
129.2533362851
 20
204.2992584364
 30
0.0
 40
2.1166666667
 41
0.0
 71
     1
 72
     1
  1
4
  7
SLDTEXTSTYLE0
 73
     1
 44
1.0
  0
MTEXT
  5
E4
330
1F
100
AcDbEntity
  8
0
  6
Continuous
 62
     7
370
     0
100
AcDbMText
 10
163.702323464
 20
204.453351657
 30
0.0
 40
2.1166666667
 41
0.0
 71
     1
 72
     1
  1
5
  7
SLDTEXTSTYLE0
 73
     1
 44
1.0
  0
MTEXT
  5
E5
330
1F
100
AcDbEntity
  8
0
  6
Continuous
 62
     7
370
     0
100
AcDbMText
 10
198.6382170415
 20
204.453351657
 30
0.0
 40
2.1166666667
 41
0.0
 71
     1
 72
     1
  1
6
  7
SLDTEXTSTYLE0
 73
     1
 44
1.0
  0
MTEXT
  5
E6
330
1F
100
AcDbEntity
  8
0
  6
Continuous
 62
     7
370
     0
100
AcDbMText
 10
234.3630657407
 20
204.453351657
 30
0.0
 40
2.1166666667
 41
0.0
 71
     1
 72
     1
  1
7
  7
SLDTEXTSTYLE0
 73
     1
 44
1.0
  0
MTEXT
  5
E7
330
1F
100
AcDbEntity
  8
0
  6
Continuous
 62
     7
370
     0
100
AcDbMText
 10
266.2787820494
 20
204.453351657
 30
0.0
 40
2.1166666667
 41
0.0
 71
     1
 72
     1
  1
8
  7
SLDTEXTSTYLE0
 73
     1
 44
1.0
  0
MTEXT
  5
E8
330
1F
100
AcDbEntity
  8
0
  6
Continuous
 62
     7
370
     0
100
AcDbMText
 10
5.3568236555
 20
185.8113022879
 30
0.0
 40
2.1166666667
 41
0.0
 71
     1
 72
     1
  1
A
  7
SLDTEXTSTYLE0
 73
     1
 44
1.0
  0
MTEXT
  5
E9
330
1F
100
AcDbEntity
  8
0
  6
Continuous
 62
     7
370
     0
100
AcDbMText
 10
5.5910431831
 20
154.2993048238
 30
0.0
 40
2.1166666667
 41
0.0
 71
     1
 72
     1
  1
B
  7
SLDTEXTSTYLE0
 73
     1
 44
1.0
  0
MTEXT
  5
EA
330
1F
100
AcDbEntity
  8
0
  6
Continuous
 62
     7
370
     0
100
AcDbMText
 10
5.5910431831
 20
121.274351423
 30
0.0
 40
2.1166666667
 41
0.0
 71
     1
 72
     1
  1
C
  7
SLDTEXTSTYLE0
 73
     1
 44
1.0
  0
MTEXT
  5
EB
330
1F
100
AcDbEntity
  8
0
  6
Continuous
 62
     7
370
     0
100
AcDbMText
 10
5.5910431831
 20
88.7453220221
 30
0.0
 40
2.1166666667
 41
0.0
 71
     1
 72
     1
  1
D
  7
SLDTEXTSTYLE0
 73
     1
 44
1.0
  0
MTEXT
  5
EC
330
1F
100
AcDbEntity
  8
0
  6
Continuous
 62
     7
370
     0
100
AcDbMText
 10
5.5910431831
 20
57.5558849197
 30
0.0
 40
2.1166666667
 41
0.0
 71
     1
 72
     1
  1
E
  7
SLDTEXTSTYLE0
 73
     1
 44
1.0
  0
MTEXT
  5
ED
330
1F
100
AcDbEntity
  8
0
  6
Continuous
 62
     7
370
     0
100
AcDbMText
 10
5.5910431831
 20
25.5694212252
 30
0.0
 40
2.1166666667
 41
0.0
 71
     1
 72
     1
  1
F
  7
SLDTEXTSTYLE0
 73
     1
 44
1.0
  0
MTEXT
  5
EE
330
1F
100
AcDbEntity
  8
0
  6
Continuous
 62
     7
370
     0
100
AcDbMText
 10
266.1858616964
 20
6.6236223963
 30
0.0
 40
2.1166666667
 41
0.0
 71
     1
 72
     1
  1
8
  7
SLDTEXTSTYLE0
 73
     1
 44
1.0
  0
MTEXT
  5
EF
330
1F
100
AcDbEntity
  8
0
  6
Continuous
 62
     7
370
     0
100
AcDbMText
 10
234.2701453876
 20
6.6236223963
 30
0.0
 40
2.1166666667
 41
0.0
 71
     1
 72
     1
  1
7
  7
SLDTEXTSTYLE0
 73
     1
 44
1.0
  0
MTEXT
  5
F0
330
1F
100
AcDbEntity
  8
0
  6
Continuous
 62
     7
370
     0
100
AcDbMText
 10
198.5452966885
 20
6.6236223963
 30
0.0
 40
2.1166666667
 41
0.0
 71
     1
 72
     1
  1
6
  7
SLDTEXTSTYLE0
 73
     1
 44
1.0
  0
MTEXT
  5
F1
330
1F
100
AcDbEntity
  8
0
  6
Continuous
 62
     7
370
     0
100
AcDbMText
 10
163.6094031109
 20
6.6236223963
 30
0.0
 40
2.1166666667
 41
0.0
 71
     1
 72
     1
  1
5
  7
SLDTEXTSTYLE0
 73
     1
 44
1.0
  0
MTEXT
  5
F2
330
1F
100
AcDbEntity
  8
0
  6
Continuous
 62
     7
370
     0
100
AcDbMText
 10
129.1604159321
 20
6.4695291758
 30
0.0
 40
2.1166666667
 41
0.0
 71
     1
 72
     1
  1
4
  7
SLDTEXTSTYLE0
 73
     1
 44
1.0
  0
MTEXT
  5
F3
330
1F
100
AcDbEntity
  8
0
  6
Continuous
 62
     7
370
     0
100
AcDbMText
 10
94.8080740376
 20
6.6236223963
 30
0.0
 40
2.1166666667
 41
0.0
 71
     1
 72
     1
  1
3
  7
SLDTEXTSTYLE0
 73
     1
 44
1.0
  0
MTEXT
  5
F4
330
1F
100
AcDbEntity
  8
0
  6
Continuous
 62
     7
370
     0
100
AcDbMText
 10
60.6241792194
 20
6.6236223963
 30
0.0
 40
2.1166666667
 41
0.0
 71
     1
 72
     1
  1
2
  7
SLDTEXTSTYLE0
 73
     1
 44
1.0
  0
MTEXT
  5
F5
330
1F
100
AcDbEntity
  8
0
  6
Continuous
 62
     7
370
     0
100
AcDbMText
 10
26.5100728003
 20
6.6236223963
 30
0.0
 40
2.1166666667
 41
0.0
 71
     1
 72
     1
  1
1
  7
SLDTEXTSTYLE0
 73
     1
 44
1.0
  0
MTEXT
  5
F6
330
1F
100
AcDbEntity
  8
0
  6
Continuous
 62
     7
370
     0
100
AcDbMText
 10
287.1023846145
 20
186.6424909092
 30
0.0
 40
2.1166666667
 41
0.0
 71
     1
 72
     1
  1
A
  7
SLDTEXTSTYLE0
 73
     1
 44
1.0
  0
MTEXT
  5
F7
330
1F
100
AcDbEntity
  8
0
  6
Continuous
 62
     7
370
     0
100
AcDbMText
 10
287.3366041421
 20
155.1304934451
 30
0.0
 40
2.1166666667
 41
0.0
 71
     1
 72
     1
  1
B
  7
SLDTEXTSTYLE0
 73
     1
 44
1.0
  0
MTEXT
  5
F8
330
1F
100
AcDbEntity
  8
0
  6
Continuous
 62
     7
370
     0
100
AcDbMText
 10
287.3366041421
 20
122.1055400442
 30
0.0
 40
2.1166666667
 41
0.0
 71
     1
 72
     1
  1
C
  7
SLDTEXTSTYLE0
 73
     1
 44
1.0
  0
MTEXT
  5
F9
330
1F
100
AcDbEntity
  8
0
  6
Continuous
 62
     7
370
     0
100
AcDbMText
 10
287.3366041421
 20
89.5765106433
 30
0.0
 40
2.1166666667
 41
0.0
 71
     1
 72
     1
  1
D
  7
SLDTEXTSTYLE0
 73
     1
 44
1.0
  0
MTEXT
  5
FA
330
1F
100
AcDbEntity
  8
0
  6
Continuous
 62
     7
370
     0
100
AcDbMText
 10
287.3366041421
 20
58.3870735409
 30
0.0
 40
2.1166666667
 41
0.0
 71
     1
 72
     1
  1
E
  7
SLDTEXTSTYLE0
 73
     1
 44
1.0
  0
MTEXT
  5
FB
330
1F
100
AcDbEntity
  8
0
  6
Continuous
 62
     7
370
     0
100
AcDbMText
 10
287.3366041421
 20
26.4006098464
 30
0.0
 40
2.1166666667
 41
0.0
 71
     1
 72
     1
  1
F
  7
SLDTEXTSTYLE0
 73
     1
 44
1.0
  0
MTEXT
  5
FC
330
1F
100
AcDbEntity
  8
0
  6
Continuous
 62
     7
370
     0
100
AcDbMText
 10
203.1553128802
 20
21.5867148511
 30
0.0
 40
1.8520833333
 41
0.0
 71
     1
 72
     1
  1
Jimmy
  7
SLDTEXTSTYLE0
 73
     1
 44
1.0
  0
MTEXT
  5
FD
330
1F
100
AcDbEntity
  8
0
  6
Continuous
 62
     7
370
     0
100
AcDbMText
 10
252.8482239645
 20
12.0500370959
 30
0.0
 40
2.5
 41
0.0
 71
     1
 72
     1
  1
0
  7
SLDTEXTSTYLE0
 73
     1
 44
1.0
  0
INSERT
  5
103
330
1F
100
AcDbEntity
  8
SLD-0
 62
     7
100
AcDbBlockReference
  2
SW_NOTE_1
 10
198.7251893935
 20
32.9781087458
 30
0.0
  0
LINE
  5
104
330
1F
100
AcDbEntity
  8
0
  6
Continuous
 62
     7
370
    30
100
AcDbLine
 10
253.3687753636
 20
144.0900934817
 30
0.0
 11
253.3687753636
 21
166.6320104618
 31
0.0
  0
LINE
  5
105
330
1F
100
AcDbEntity
  8
0
  6
Continuous
 62
     7
370
    30
100
AcDbLine
 10
223.3687753636
 20
149.3105641058
 30
0.0
 11
223.3687753636
 21
144.0900934817
 31
0.0
  0
LINE
  5
106
330
1F
100
AcDbEntity
  8
0
  6
Continuous
 62
     7
370
    30
100
AcDbLine
 10
251.0687753636
 20
138.7825782045
 30
0.0
 11
251.0687753636
 21
139.4822670048
 31
0.0
  0
LINE
  5
107
330
1F
100
AcDbEntity
  8
0
  6
Continuous
 62
     7
370
    30
100
AcDbLine
 10
225.6687753636
 20
139.4822670048
 30
0.0
 11
225.6687753636
 21
138.7825782045
 31
0.0
  0
ELLIPSE
  5
108
330
1F
100
AcDbEntity
  8
0
  6
Continuous
 62
     7
370
    30
100
AcDbEllipse
 10
238.3687753636
 20
152.1974718318
 30
0.0
 11
10.60703267681299
 21
18.37092420939317
 31
0.0
210
0.0
220
0.0
230
1.0
 40
0.5773346305
 41
4.325740986259943
 42
5.099118238571558
  0
ELLIPSE
  5
109
330
1F
100
AcDbEntity
  8
0
  6
Continuous
 62
     7
370
    30
100
AcDbEllipse
 10
238.3687753636
 20
161.435576555
 30
0.0
 11
15.00000002548174
 21
-8.660723249901963
 31
0.0
210
0.0
220
0.0
230
1.0
 40
0.0000703729
 41
0.3987501701862921
 42
0.6435417420434705
  0
ELLIPSE
  5
10A
330
1F
100
AcDbEntity
  8
0
  6
Continuous
 62
     7
370
    30
100
AcDbEllipse
 10
238.3687753636
 20
157.9712872838
 30
0.0
 11
10.60703267681293
 21
18.37092420939331
 31
0.0
210
0.0
220
0.0
230
1.0
 40
0.5773346305
 41
4.854326667019912
 42
5.58606280556844
  0
ELLIPSE
  5
10B
330
1F
100
AcDbEntity
  8
0
  6
Continuous
 62
     7
370
    30
100
AcDbEllipse
 10
238.3687753636
 20
157.9712872838
 30
0.0
 11
10.60703267681293
 21
18.37092420939331
 31
0.0
210
0.0
220
0.0
230
1.0
 40
0.5773346305
 41
0.6972037656732655
 42
1.428939904221789
  0
ELLIPSE
  5
10C
330
1F
100
AcDbEntity
  8
0
  6
Continuous
 62
     7
370
    30
100
AcDbEllipse
 10
238.3687753636
 20
161.435576555
 30
0.0
 11
15.00000002548174
 21
-8.660723249901963
 31
0.0
210
0.0
220
0.0
230
1.0
 40
0.0000703729
 41
4.068928504881852
 42
4.31372007609378
  0
ELLIPSE
  5
10D
330
1F
100
AcDbEntity
  8
0
  6
Continuous
 62
     7
370
    30
100
AcDbEllipse
 10
238.3687753636
 20
152.1974718318
 30
0.0
 11
10.60703267681299
 21
18.37092420939317
 31
0.0
210
0.0
220
0.0
230
1.0
 40
0.5773346305
 41
1.184148332670151
 42
1.957525584981771
  0
ELLIPSE
  5
10E
330
1F
100
AcDbEntity
  8
0
  6
Continuous
 62
     7
370
    30
100
AcDbEllipse
 10
238.3687753636
 20
157.9712872838
 30
0.0
 11
10.60703267681293
 21
18.37092420939331
 31
0.0
210
0.0
220
0.0
230
1.0
 40
0.5773346305
 41
2.230468685110202
 42
4.052797886131509
  0
ELLIPSE
  5
10F
330
1F
100
AcDbEntity
  8
0
  6
Continuous
 62
     7
370
    30
100
AcDbEllipse
 10
238.3687753636
 20
142.9593671086
 30
0.0
 11
15.00000002569507
 21
-8.660723250025171
 31
0.0
210
0.0
220
0.0
230
1.0
 40
0.0000703729
 41
1.172127422496194
 42
1.445070522026532
  0
LWPOLYLINE
  5
110
330
1F
100
AcDbEntity
  8
0
  6
Continuous
 62
     7
370
    30
100
AcDbPolyline
 90
       59
 70
   128
 43
0.0
 10
253.3687753636
 20
144.0900934817
 10
253.3559617394
 20
143.7322474842
 10
253.299056439
 20
143.2561760527
 10
253.1968083657
 20
142.782637201
 10
253.0495280435
 20
142.313069051
 10
252.8576627579
 20
141.8488976659
 10
252.6217951975
 20
141.3915327187
 10
252.3426416843
 20
140.942363212
 10
252.0210499984
 20
140.5027532586
 10
251.6579968031
 20
140.0740379395
 10
251.2545846791
 20
139.6575192491
 10
250.8120387757
 20
139.254462141
 10
250.3317030903
 20
138.8660906864
 10
249.8150363866
 20
138.4935843565
 10
249.2636077643
 20
138.1380744409
 10
248.6790918941
 20
137.8006406116
 10
248.0632639315
 20
137.4823076438
 10
247.4179941257
 20
137.1840423045
 10
246.74524214
 20
136.9067504157
 10
246.0470510999
 20
136.6512741036
 10
245.3255413888
 20
136.4183892415
 10
244.582904208
 20
136.208803093
 10
243.821394922
 20
136.0231521644
 10
243.0433262097
 20
135.8620002715
 10
242.2510610401
 20
135.7258368272
 10
241.4470054965
 20
135.6150753555
 10
240.6336014692
 20
135.5300522352
 10
239.8133192394
 20
135.4710256789
 10
238.9886499773
 20
135.4381749483
 10
238.1620981764
 20
135.4315998098
 10
237.3361740473
 20
135.4513202321
 10
236.5133858945
 20
135.4972763248
 10
235.6962324986
 20
135.5693285207
 10
234.8871955274
 20
135.6672579999
 10
234.0887319998
 20
135.7907673535
 10
233.3032668233
 20
135.9394814878
 10
232.5331854297
 20
136.1129487629
 10
231.7808265309
 20
136.3106423643
 10
231.0484750162
 20
136.5319619031
 10
230.338355013
 20
136.776235239
 10
229.6526231326
 20
137.0427205221
 10
228.9933619199
 20
137.3306084452
 10
228.3625735298
 20
137.6390247022
 10
227.7621736458
 20
137.9670326431
 10
227.1939856626
 20
138.3136361185
 10
226.6597351484
 20
138.677782505
 10
226.1610446045
 20
139.0583659021
 10
225.6994285377
 20
139.4542304905
 10
225.2762888609
 20
139.8641740424
 10
224.8929106352
 20
140.2869515728
 10
224.5504581678
 20
140.7212791201
 10
224.2499714756
 20
141.165837646
 10
223.9923631267
 20
141.6192770407
 10
223.7784154693
 20
142.0802202237
 10
223.6087782554
 20
142.5472673257
 10
223.4839666675
 20
143.0189999401
 10
223.4043597545
 20
143.4939854304
 10
223.3701992798
 20
143.9707812812
 10
223.3687753636
 20
144.0900934817
  0
SPLINE
  5
111
330
1F
100
AcDbEntity
  8
0
  6
Continuous
 62
     7
370
    30
100
AcDbSpline
210
0.0
220
0.0
230
1.0
 70
     8
 71
     3
 72
    25
 73
    21
 74
     0
 42
0.000000001
 43
0.00000001
 40
0.0
 40
0.0
 40
0.0
 40
0.0
 40
0.0138548622697889
 40
0.0729161017067225
 40
0.1319714897503211
 40
0.193358872216932
 40
0.2547450660375888
 40
0.3057374673528225
 40
0.3567323341509487
 40
0.4091519068628948
 40
0.4615756047015592
 40
0.5138773256035665
 40
0.5661825838068844
 40
0.6730375239281439
 40
0.7329579921468924
 40
0.7928788979652861
 40
0.8543446564342979
 40
0.9158078347516373
 40
0.9790229668105553
 40
0.9999999999999999
 40
0.9999999999999999
 40
0.9999999999999999
 40
0.9999999999999999
 10
242.0945014135372
 20
162.5089608691369
 30
0.0
 10
242.0757398496806
 20
162.4722292199675
 30
0.0
 10
241.9770004994286
 20
162.2789159545929
 30
0.0
 10
241.8554394333509
 20
161.9009764620084
 30
0.0
 10
241.7311018926862
 20
161.3753733776668
 30
0.0
 10
241.6765312337198
 20
160.8237637700817
 30
0.0
 10
241.6878791828699
 20
160.2869107633087
 30
0.0
 10
241.7555467874788
 20
159.778032787383
 30
0.0
 10
241.8657398359777
 20
159.2966160429424
 30
0.0
 10
242.0228715663931
 20
158.813051263486
 30
0.0
 10
242.2245527248852
 20
158.3299961538299
 30
0.0
 10
242.4662974307605
 20
157.8536465817871
 30
0.0
 10
242.8404518448991
 20
157.2224563840309
 30
0.0
 10
243.2982700777151
 20
156.5855383504067
 30
0.0
 10
243.8303853135888
 20
155.9493843722982
 30
0.0
 10
244.28519352912
 20
155.4537971600935
 30
0.0
 10
244.768711570966
 20
154.9679848671063
 30
0.0
 10
245.2822551449457
 20
154.4907018224732
 30
0.0
 10
245.6949344407552
 20
154.1267212453206
 30
0.0
 10
245.939138466472
 20
153.928399887434
 30
0.0
 10
245.9999835099193
 20
153.8789868132568
 30
0.0
  0
LINE
  5
112
330
1F
100
AcDbEntity
  8
0
  6
Continuous
 62
     7
370
    30
100
AcDbLine
 10
252.1922167158
 20
153.4547230587
 30
0.0
 11
249.4341840566
 21
155.0469014224
 31
0.0
  0
ARC
  5
113
330
1F
100
AcDbEntity
  8
0
  6
Continuous
 62
     7
370
    30
100
AcDbCircle
 10
237.4815339714
 20
149.6051227233
 30
0.0
 40
10.1814134568577
100
AcDbArc
 50
181.4468710367
 51
228.8294620111
  0
LINE
  5
114
330
1F
100
AcDbEntity
  8
0
  6
Continuous
 62
     7
370
    30
100
AcDbLine
 10
235.3033666705
 20
163.2044486611
 30
0.0
 11
232.5453340114
 21
164.7966270248
 31
0.0
  0
ARC
  5
115
330
1F
100
AcDbEntity
  8
0
  6
Continuous
 62
     7
370
    30
100
AcDbCircle
 10
240.1738107041
 20
154.2224830316
 30
0.0
 40
10.21748166885997
100
AcDbArc
 50
71.2479043493
 51
118.4686308377
  0
ELLIPSE
  5
116
330
1F
100
AcDbEntity
  8
0
  6
Continuous
 62
     7
370
    30
100
AcDbEllipse
 10
238.3687753636
 20
152.1974718318
 30
0.0
 11
5.657084094300445
 21
9.797826245010045
 31
0.0
210
0.0
220
0.0
230
1.0
 40
0.5773346305
 41
0.0
 42
6.283185307179586
  0
LINE
  5
117
330
1F
100
AcDbEntity
  8
0
  6
Continuous
 62
     7
370
    30
100
AcDbLine
 10
253.3104225832
 20
168.1245705683
 30
0.0
 11
239.6905841113
 21
175.9871359587
 31
0.0
  0
LINE
  5
118
330
1F
100
AcDbEntity
  8
0
  6
Continuous
 62
     7
370
    30
100
AcDbLine
 10
250.3687753636
 20
154.5078425106
 30
0.0
 11
246.9341840566
 21
156.4905898682
 31
0.0
  0
ARC
  5
119
330
1F
100
AcDbEntity
  8
0
  6
Continuous
 62
     7
370
    30
100
AcDbCircle
 10
237.5228769104
 20
156.5057078718
 30
0.0
 40
9.411319288714596
100
AcDbArc
 50
359.9079620884
 51
120.0974144443
  0
LINE
  5
11A
330
1F
100
AcDbEntity
  8
0
  6
Continuous
 62
     7
370
    30
100
AcDbLine
 10
232.8033666705
 20
164.6481371069
 30
0.0
 11
229.3687753636
 21
166.6308844644
 31
0.0
  0
LINE
  5
11B
330
1F
100
AcDbEntity
  8
0
  6
Continuous
 62
     7
370
    30
100
AcDbLine
 10
224.8033666705
 20
150.791730687
 30
0.0
 11
223.4872480565
 21
151.5515097906
 31
0.0
  0
ARC
  5
11C
330
1F
100
AcDbEntity
  8
0
  6
Continuous
 62
     7
370
    30
100
AcDbCircle
 10
234.2146738167
 20
150.7766126834
 30
0.0
 40
9.411319288714424
100
AcDbArc
 50
179.9079620884
 51
300.0974144443
  0
LINE
  5
11D
330
1F
100
AcDbEntity
  8
0
  6
Continuous
 62
     7
370
    30
100
AcDbLine
 10
240.2503026707
 20
141.8744043447
 30
0.0
 11
238.9341840566
 21
142.6341834483
 31
0.0
  0
LINE
  5
11E
330
1F
100
AcDbEntity
  8
0
  6
Continuous
 62
     7
370
    30
100
AcDbLine
 10
246.9341840566
 20
156.4905898682
 30
0.0
 11
249.4341840566
 21
155.0469014224
 31
0.0
  0
LINE
  5
11F
330
1F
100
AcDbEntity
  8
0
  6
Continuous
 62
     7
370
    30
100
AcDbLine
 10
224.8033666705
 20
150.791730687
 30
0.0
 11
227.3033666705
 21
149.3480422412
 31
0.0
  0
LINE
  5
120
330
1F
100
AcDbEntity
  8
0
  6
Continuous
 62
     7
370
    30
100
AcDbLine
 10
235.3033666705
 20
163.2044486611
 30
0.0
 11
232.8033666705
 21
164.6481371069
 31
0.0
  0
SPLINE
  5
121
330
1F
100
AcDbEntity
  8
0
  6
Continuous
 62
     7
370
    30
100
AcDbSpline
210
0.0
220
0.0
230
1.0
 70
     8
 71
     3
 72
    21
 73
    17
 74
     0
 42
0.000000001
 43
0.00000001
 40
0.0
 40
0.0
 40
0.0
 40
0.0
 40
0.0748716021333579
 40
0.1519254185360281
 40
0.2267939276768125
 40
0.3038126991445117
 40
0.379064966029099
 40
0.4564832299805844
 40
0.5319865196451453
 40
0.6097025755196791
 40
0.6847812836455852
 40
0.7620640783527622
 40
0.8367044024462802
 40
0.9134979653658373
 40
0.9883696838584293
 40
1.0
 40
1.0
 40
1.0
 40
1.0
 10
242.6937753635799
 20
164.4808583777109
 30
0.0
 10
242.6313145504323
 20
164.5162615588978
 30
0.0
 10
242.5045724358098
 20
164.5880997854894
 30
0.0
 10
242.3462049165108
 20
164.6691158872787
 30
0.0
 10
242.2155978126526
 20
164.7290145722106
 30
0.0
 10
242.1208752321737
 20
164.7644256735847
 30
0.0
 10
242.063312119445
 20
164.7765819465254
 30
0.0
 10
242.0466204497378
 20
164.7659587294895
 30
0.0
 10
242.0719965793481
 20
164.7338685099938
 30
0.0
 10
242.1390617510215
 20
164.682840668969
 30
0.0
 10
242.2473345775634
 20
164.6143551368743
 30
0.0
 10
242.3915736734475
 20
164.5321901363392
 30
0.0
 10
242.5697641440466
 20
164.4372890475994
 30
0.0
 10
242.7747275945642
 20
164.3329014271588
 30
0.0
 10
242.934867327712
 20
164.2532533370316
 30
0.0
 10
243.0262575974873
 20
164.2082188302605
 30
0.0
 10
243.0385451434884
 20
164.2021638796083
 30
0.0
  0
LWPOLYLINE
  5
122
330
1F
100
AcDbEntity
  8
0
  6
Continuous
 62
     7
370
    30
100
AcDbPolyline
 90
       54
 70
   128
 43
0.0
 10
251.0687753636
 20
138.7825782045
 10
251.051370455
 20
138.3988743181
 10
250.9889204292
 20
137.9617046082
 10
250.8812935595
 20
137.5274734127
 10
250.7288751221
 20
137.0977351666
 10
250.5322107355
 20
136.6740282213
 10
250.292004407
 20
136.2578693377
 10
250.0091160131
 20
135.8507482566
 10
249.6845582208
 20
135.4541223658
 10
249.3194928626
 20
135.0694114831
 10
248.9152267779
 20
134.6979927735
 10
248.4732071344
 20
134.3411958196
 10
247.9950162475
 20
134.000297862
 10
247.4823659167
 20
133.6765192269
 10
246.9370912969
 20
133.3710189577
 10
246.3611443299
 20
133.0848906661
 10
245.7565867563
 20
132.8191586171
 10
245.1255827353
 20
132.5747740626
 10
244.4703910976
 20
132.3526118357
 10
243.7933572591
 20
132.1534672196
 10
243.0969048253
 20
131.9780531004
 10
242.3835269151
 20
131.826997415
 10
241.6557772364
 20
131.7008409036
 10
240.916260944
 20
131.6000351738
 10
240.1676253145
 20
131.524941084
 10
239.4125502689
 20
131.4758274514
 10
238.6537387801
 20
131.4528700901
 10
237.8939071963
 20
131.4561511816
 10
237.1357755172
 20
131.4856589803
 10
236.3820576576
 20
131.5412878561
 10
235.6354517317
 20
131.6228386719
 10
234.898630395
 20
131.730019497
 10
234.1742312767
 20
131.862446652
 10
233.4648475377
 20
132.0196460818
 10
232.7730185874
 20
132.2010550535
 10
232.1012209942
 20
132.4060241699
 10
231.4518596189
 20
132.6338196948
 10
230.8272590068
 20
132.8836261793
 10
230.229655066
 20
133.1545493811
 10
229.6611870634
 20
133.4456194654
 10
229.1238899671
 20
133.7557944769
 10
228.619687161
 20
134.0839640695
 10
228.1503835605
 20
134.4289534812
 10
227.7176591507
 20
134.7895277395
 10
227.3230629725
 20
135.1643960822
 10
226.9680075779
 20
135.5522165778
 10
226.6537639731
 20
135.9516009296
 10
226.3814570687
 20
136.3611194454
 10
226.1520616525
 20
136.779306155
 10
225.9663989008
 20
137.2046640587
 10
225.825133438
 20
137.6356704854
 10
225.7287709578
 20
138.0707825442
 10
225.6776564128
 20
138.5084426466
 10
225.6687753636
 20
138.7825782045
  0
LINE
  5
123
330
1F
100
AcDbEntity
  8
0
  6
Continuous
 62
     7
370
    30
100
AcDbLine
 10
104.5665262224
 20
97.0253515609
 30
0.0
 11
104.5665262224
 21
104.0964193728
 31
0.0
  0
LINE
  5
124
330
1F
100
AcDbEntity
  8
0
  6
Continuous
 62
     7
370
    30
100
AcDbLine
 10
104.5665262224
 20
79.0964193728
 30
0.0
 11
104.5665262224
 21
81.0254242125
 31
0.0
  0
LINE
  5
125
330
1F
100
AcDbEntity
  8
0
  6
Continuous
 62
     7
370
    30
100
AcDbLine
 10
74.5665262224
 20
81.0964193728
 30
0.0
 11
74.5665262224
 21
79.0964193728
 31
0.0
  0
LINE
  5
126
330
1F
100
AcDbEntity
  8
0
  6
Continuous
 62
     7
370
    30
100
AcDbLine
 10
102.2665262224
 20
72.5964193728
 30
0.0
 11
102.2665262224
 21
79.0964193728
 31
0.0
  0
LINE
  5
127
330
1F
100
AcDbEntity
  8
0
  6
Continuous
 62
     7
370
    30
100
AcDbLine
 10
76.8665262224
 20
79.0964193728
 30
0.0
 11
76.8665262224
 21
72.5964193728
 31
0.0
  0
LINE
  5
128
330
1F
100
AcDbEntity
  8
0
  6
Continuous
 62
     7
370
    30
100
AcDbLine
 10
83.9096719729
 20
83.3684973114
 30
0.0
 11
95.2233804719
 21
94.6822058104
 31
0.0
  0
LINE
  5
129
330
1F
100
AcDbEntity
  8
0
  6
Continuous
 62
     7
370
    30
100
AcDbLine
 10
95.2233804719
 20
94.6822058104
 30
0.0
 11
91.687846566
 21
98.2177397163
 31
0.0
  0
LINE
  5
12A
330
1F
100
AcDbEntity
  8
0
  6
Continuous
 62
     7
370
    30
100
AcDbLine
 10
91.687846566
 20
98.2177397163
 30
0.0
 11
101.0665262224
 21
107.5964193728
 31
0.0
  0
LINE
  5
12B
330
1F
100
AcDbEntity
  8
0
  6
Continuous
 62
     7
370
    30
100
AcDbLine
 10
101.0665262224
 20
107.5964193728
 30
0.0
 11
104.5665262224
 21
104.0964193728
 31
0.0
  0
LINE
  5
12C
330
1F
100
AcDbEntity
  8
0
  6
Continuous
 62
     7
370
    30
100
AcDbLine
 10
74.5665262224
 20
81.0964193728
 30
0.0
 11
80.374138067
 21
86.9040312173
 31
0.0
  0
LINE
  5
12D
330
1F
100
AcDbEntity
  8
0
  6
Continuous
 62
     7
370
    30
100
AcDbLine
 10
80.374138067
 20
86.9040312173
 30
0.0
 11
83.9096719729
 21
83.3684973114
 31
0.0
  0
LINE
  5
12E
330
1F
100
AcDbEntity
  8
0
  6
Continuous
 62
     7
370
    30
100
AcDbLine
 10
104.5665262224
 20
79.0964193728
 30
0.0
 11
74.5665262224
 21
79.0964193728
 31
0.0
  0
SPLINE
  5
12F
330
1F
100
AcDbEntity
  8
0
  6
Continuous
 62
     7
370
    30
100
AcDbSpline
210
0.0
220
0.0
230
1.0
 70
     8
 71
     3
 72
    46
 73
    42
 74
     0
 42
0.000000001
 43
0.00000001
 40
0.0
 40
0.0
 40
0.0
 40
0.0
 40
0.0000685145373522
 40
0.0264168198191155
 40
0.0610836179520188
 40
0.0904509733927523
 40
0.1201281743025957
 40
0.1439190632739241
 40
0.1678723672671192
 40
0.1919651135547006
 40
0.2162105636499846
 40
0.2424215674624282
 40
0.2687937773234867
 40
0.2956674790723224
 40
0.3227156862384917
 40
0.3505339620817588
 40
0.3785678999516985
 40
0.4073402321926524
 40
0.4363987426092751
 40
0.4616307538474179
 40
0.4870865368272355
 40
0.5128408850425346
 40
0.5388432815838003
 40
0.5610952315909707
 40
0.583513325380685
 40
0.6060736656455504
 40
0.6287872688582538
 40
0.6525157785870509
 40
0.6763962329613266
 40
0.7004064012575315
 40
0.7245594406952818
 40
0.7515268438274423
 40
0.778668401650897
 40
0.8063684783044488
 40
0.8342698281800368
 40
0.8617307707569032
 40
0.8894134238468442
 40
0.9178434845913637
 40
0.9465536821458678
 40
0.9731525510646818
 40
1.0
 40
1.0
 40
1.0
 40
1.0
 10
104.5664875222108
 20
81.02542421254051
 30
0.0
 10
104.5665004184453
 20
81.02540000247703
 30
0.0
 10
104.5714727573879
 20
81.01606544503137
 30
0.0
 10
104.5515954751891
 20
81.05333231799418
 30
0.0
 10
104.4980189734065
 20
81.15418694280707
 30
0.0
 10
104.3970190947761
 20
81.34715780121597
 30
0.0
 10
104.2789597353437
 20
81.57742661999139
 30
0.0
 10
104.1465576202528
 20
81.84239051765135
 30
0.0
 10
104.0082948443824
 20
82.12691721654146
 30
0.0
 10
103.8563445469421
 20
82.4504272810664
 30
0.0
 10
103.6895385129794
 20
82.82044153101644
 30
0.0
 10
103.5103036788756
 20
83.23879153880226
 30
0.0
 10
103.3213752490758
 20
83.70896245976473
 30
0.0
 10
103.1314323143571
 20
84.22022607131575
 30
0.0
 10
102.9441481326112
 20
84.77564220303516
 30
0.0
 10
102.7659546882721
 20
85.37255528922904
 30
0.0
 10
102.6023149293602
 20
86.01381447125507
 30
0.0
 10
102.4614391793202
 20
86.69364815997685
 30
0.0
 10
102.3560471276841
 20
87.37519900189479
 30
0.0
 10
102.2874952079288
 20
88.04525655511074
 30
0.0
 10
102.2536954350292
 20
88.6965316806907
 30
0.0
 10
102.253658744864
 20
89.35750843525189
 30
0.0
 10
102.286672560229
 20
89.98805961835446
 30
0.0
 10
102.3462387733318
 20
90.58211088827316
 30
0.0
 10
102.4257441462897
 20
91.13666506205136
 30
0.0
 10
102.526482410393
 20
91.68109370780103
 30
0.0
 10
102.6474325460897
 20
92.21900795245368
 30
0.0
 10
102.7864414628246
 20
92.74700371661146
 30
0.0
 10
102.9407012722327
 20
93.26145567192698
 30
0.0
 10
103.1049334869364
 20
93.75355131338402
 30
0.0
 10
103.2818144927602
 20
94.23831362789103
 30
0.0
 10
103.4681223031914
 20
94.71003545072801
 30
0.0
 10
103.6601729421079
 20
95.16392462415327
 30
0.0
 10
103.8467565752014
 20
95.58021795423409
 30
0.0
 10
104.0213721986224
 20
95.95162808383407
 30
0.0
 10
104.1786643903613
 20
96.2735457295792
 30
0.0
 10
104.315260434017
 20
96.54465476425133
 30
0.0
 10
104.427640007555
 20
96.76234890254513
 30
0.0
 10
104.5077599196864
 20
96.91483180899027
 30
0.0
 10
104.5574048709682
 20
97.0082720097956
 30
0.0
 10
104.5634763590414
 20
97.0196407517737
 30
0.0
 10
104.5665262223912
 20
97.025351560899
 30
0.0
  0
LINE
  5
130
330
1F
100
AcDbEntity
  8
0
  6
Continuous
 62
     7
370
    30
100
AcDbLine
 10
102.2665262224
 20
72.5964193728
 30
0.0
 11
76.8665262224
 21
72.5964193728
 31
0.0
  0
LINE
  5
131
330
1F
100
AcDbEntity
  8
SLD-0
  6
CENTERX2
100
AcDbLine
 10
98.6174930216
 20
98.0763183601
 30
0.0
 11
80.5155594232
 21
79.9743847617
 31
0.0
  0
LINE
  5
132
330
1F
100
AcDbEntity
  8
SLD-0
  6
CENTERX2
100
AcDbLine
 10
98.6174930216
 20
98.0763183601
 30
0.0
 11
95.0819591156
 21
101.611852266
 31
0.0
  0
LINE
  5
133
330
1F
100
AcDbEntity
  8
SLD-0
  6
CENTERX2
100
AcDbLine
 10
76.9800255173
 20
83.5099186676
 30
0.0
 11
80.5155594232
 21
79.9743847617
 31
0.0
  0
DIMENSION
  5
134
330
1F
100
AcDbEntity
  8
SLD-0
100
AcDbDimension
  2
_D
 10
108.8180625221
 20
108.2768878606
 30
0.0
 11
107.0502955692
 21
110.0446548136
 31
0.0
 70
   160
  1
<>
 71
     2
 42
-1.0
  3
SLDDIMSTYLE0
100
AcDbAlignedDimension
 13
101.0665262224
 23
107.5964193728
 33
0.0
 14
98.6174930216
 24
98.0763183601
 34
0.0
 50
-45.0
100
AcDbRotatedDimension
  0
DIMENSION
  5
13F
330
1F
100
AcDbEntity
  8
SLD-0
 62
     7
100
AcDbDimension
  2
_D_1
 10
102.2665262224
 20
63.0976334755
 30
0.0
 11
89.5665262224
 21
63.0976334755
 31
0.0
 70
   160
  1
%%c<>
 71
     2
 42
-1.0
  3
SLDDIMSTYLE0
100
AcDbAlignedDimension
 13
76.8665262224
 23
72.5964193728
 33
0.0
 14
102.2665262224
 24
72.5964193728
 34
0.0
100
AcDbRotatedDimension
  0
DIMENSION
  5
14A
330
1F
100
AcDbEntity
  8
SLD-0
 62
     7
100
AcDbDimension
  2
_D_2
 10
104.5665262224
 20
55.4893646029
 30
0.0
 11
89.5665262224
 21
55.4893646029
 31
0.0
 70
   160
  1
%%c<>
 71
     2
 42
-1.0
  3
SLDDIMSTYLE0
100
AcDbAlignedDimension
 13
74.5665262224
 23
79.0964193728
 33
0.0
 14
104.5665262224
 24
79.0964193728
 34
0.0
100
AcDbRotatedDimension
  0
DIMENSION
  5
155
330
1F
100
AcDbEntity
  8
SLD-0
 62
     7
100
AcDbDimension
  2
_D_3
 10
116.3523179701
 20
104.0964193728
 30
0.0
 11
116.3523179701
 21
88.3464193728
 31
0.0
 70
   160
  1
<>
 71
     2
 42
-1.0
  3
SLDDIMSTYLE0
100
AcDbAlignedDimension
 13
102.2665262224
 23
72.5964193728
 33
0.0
 14
104.5665262224
 24
104.0964193728
 34
0.0
 50
90.0
100
AcDbRotatedDimension
  0
DIMENSION
  5
15F
330
1F
100
AcDbEntity
  8
SLD-0
 62
     7
100
AcDbDimension
  2
_D_4
 10
101.0665262224
 20
107.5964193728
 30
0.0
 11
126.2363753154
 21
101.3271987576
 31
0.0
 70
   162
  1
<>
 71
     1
 42
-1.0
  3
SLDDIMSTYLE1
100
AcDb2LineAngularDimension
 13
104.5665262224
 23
79.0964193728
 33
0.0
 14
74.5665262224
 24
79.0964193728
 34
0.0
 15
91.687846566
 25
98.2177397163
 35
0.0
 16
126.2363753154
 26
101.3271987576
 36
0.0
  0
LINE
  5
16A
330
1F
100
AcDbEntity
  8
SLD-0
  6
CENTERX2
 62
     7
370
     0
100
AcDbLine
 10
84.6167787541
 20
93.9750990292
 30
0.0
 11
90.9807397848
 21
87.6111379985
 31
0.0
  0
INSERT
  5
175
330
1F
100
AcDbEntity
  8
0
  6
Continuous
 62
     7
370
    30
100
AcDbBlockReference
  2
SW_PROJECTIONARROW_0
 10
0.0
 20
0.0
 30
0.0
  0
LINE
  5
176
330
1F
100
AcDbEntity
  8
0
  6
Continuous
 62
     7
370
    30
100
AcDbLine
 10
61.866407587
 20
106.7965380081
 30
0.0
 11
66.8308736811
 21
111.7610041022
 31
0.0
  0
LINE
  5
177
330
1F
100
AcDbEntity
  8
0
  6
Continuous
 62
     7
370
    30
100
AcDbLine
 10
45.6176702455
 20
132.9742075378
 30
0.0
 11
40.6532041514
 21
128.0097414437
 31
0.0
  0
ELLIPSE
  5
178
330
1F
100
AcDbEntity
  8
0
  6
Continuous
 62
     7
370
    30
100
AcDbEllipse
 10
56.2242719633
 20
122.36760582
 30
0.0
 11
-15.00000000000003
 21
-14.99999999999964
 31
0.0
210
0.0
220
0.0
230
1.0
 40
0.7071067812
 41
1.18410770063908
 42
1.957484952950696
  0
ELLIPSE
  5
179
330
1F
100
AcDbEntity
  8
0
  6
Continuous
 62
     7
370
    30
100
AcDbEllipse
 10
59.7598058692
 20
125.9031397259
 30
0.0
 11
-15.00000000000012
 21
-14.99999999999972
 31
-1.154631945610163E-13
210
-3.848773152033944E-15
220
-3.848773152033847E-15
230
1.0
 40
0.7071067812
 41
1.712693381399057
 42
2.444429519947576
  0
ELLIPSE
  5
17A
330
1F
100
AcDbEntity
  8
0
  6
Continuous
 62
     7
370
    30
100
AcDbEllipse
 10
59.7598058692
 20
125.9031397259
 30
0.0
 11
-15.00000000000012
 21
-14.99999999999972
 31
-1.154631945610163E-13
210
-3.848773152033944E-15
220
-3.848773152033847E-15
230
1.0
 40
0.7071067812
 41
3.838755787232022
 42
4.570491925780539
  0
ELLIPSE
  5
17B
330
1F
100
AcDbEntity
  8
0
  6
Continuous
 62
     7
370
    30
100
AcDbEllipse
 10
56.2242719633
 20
122.36760582
 30
0.0
 11
-15.00000000000003
 21
-14.99999999999964
 31
0.0
210
0.0
220
0.0
230
1.0
 40
0.7071067812
 41
4.325700354228899
 42
5.099077606540519
  0
LINE
  5
17C
330
1F
100
AcDbEntity
  8
0
  6
Continuous
 62
     7
370
    30
100
AcDbLine
 10
40.7439763616
 20
126.5341929227
 30
0.0
 11
42.1858904067
 21
125.0922788776
 31
0.0
  0
ELLIPSE
  5
17D
330
1F
100
AcDbEntity
  8
0
  6
Continuous
 62
     7
370
    30
100
AcDbEllipse
 10
59.7598058692
 20
125.9031397259
 30
0.0
 11
-15.00000000000012
 21
-14.99999999999972
 31
-1.154631945610163E-13
210
-3.848773152033944E-15
220
-3.848773152033847E-15
230
1.0
 40
0.7071067812
 41
5.372020706668954
 42
7.194349907690234
  0
LINE
  5
17E
330
1F
100
AcDbEntity
  8
0
  6
Continuous
 62
     7
370
    30
100
AcDbLine
 10
58.9489450209
 20
108.3292242634
 30
0.0
 11
60.390859066
 21
106.8873102183
 31
0.0
  0
LWPOLYLINE
  5
17F
330
1F
100
AcDbEntity
  8
0
  6
Continuous
 62
     7
370
    30
100
AcDbPolyline
 90
       59
 70
   128
 43
0.0
 10
61.866407587
 20
106.7965380081
 10
61.6557227671
 20
106.5939076925
 10
61.2108355736
 20
106.2134198394
 10
60.73572743
 20
105.8669147979
 10
60.2318412241
 20
105.5554448922
 10
59.7007072416
 20
105.2799560464
 10
59.1439385191
 20
105.041284911
 10
58.5632259449
 20
104.8401563224
 10
57.9603331239
 20
104.6771811014
 10
57.3370910219
 20
104.5528541986
 10
56.6953924047
 20
104.4675531905
 10
56.0371860897
 20
104.4215371336
 10
55.3644710281
 20
104.4149457771
 10
54.6792902332
 20
104.4477991388
 10
53.9837245768
 20
104.519997444
 10
53.2798864688
 20
104.6313214289
 10
52.5699134423
 20
104.7814330062
 10
51.8559616623
 20
104.969876292
 10
51.1401993766
 20
105.1960789901
 10
50.424800332
 20
105.4593541306
 10
49.7119371717
 20
105.7589021553
 10
49.0037748378
 20
106.0938133469
 10
48.302463996
 20
106.4630705909
 10
47.6101345043
 20
106.8655524654
 10
46.9288889445
 20
107.300036646
 10
46.2607962371
 20
107.7652036186
 10
45.6078853577
 20
108.2596406864
 10
44.9721391751
 20
108.7818462603
 10
44.3554884296
 20
109.3302344191
 10
43.7598058692
 20
109.9031397259
 10
43.1869005623
 20
110.4988222863
 10
42.6385124036
 20
111.1154730318
 10
42.1163068297
 20
111.7512192144
 10
41.6218697619
 20
112.4041300939
 10
41.1567027892
 20
113.0722228013
 10
40.7222186086
 20
113.753468361
 10
40.3197367342
 20
114.4457978528
 10
39.9504794901
 20
115.1471086946
 10
39.6155682986
 20
115.8552710285
 10
39.3160202739
 20
116.5681341887
 10
39.0527451334
 20
117.2835332334
 10
38.8265424352
 20
117.999295519
 10
38.6380991495
 20
118.713247299
 10
38.4879875722
 20
119.4232203255
 10
38.3766635873
 20
120.1270584335
 10
38.304465282
 20
120.82262409
 10
38.2716119204
 20
121.5078048848
 10
38.2782032769
 20
122.1805199464
 10
38.3242193338
 20
122.8387262614
 10
38.4095203418
 20
123.4804248787
 10
38.5338472447
 20
124.1036669807
 10
38.6968224657
 20
124.7065598016
 10
38.8979510543
 20
125.2872723758
 10
39.1366221897
 20
125.8440410983
 10
39.4121110355
 20
126.3751750808
 10
39.7235809411
 20
126.8790612867
 10
40.0700859827
 20
127.3541694304
 10
40.4505738358
 20
127.7990566238
 10
40.6532041514
 20
128.0097414437
  0
SPLINE
  5
180
330
1F
100
AcDbEntity
  8
0
  6
Continuous
 62
     7
370
    30
100
AcDbSpline
210
0.0
220
0.0
230
1.0
 70
     8
 71
     3
 72
    31
 73
    27
 74
     0
 42
0.000000001
 43
0.00000001
 40
0.0
 40
0.0
 40
0.0
 40
0.0
 40
0.0216730095873931
 40
0.0640328268259245
 40
0.1066535156698852
 40
0.1500941065839464
 40
0.1938234856701463
 40
0.2384741541735569
 40
0.2834726626331075
 40
0.3296424483483763
 40
0.3762528023289172
 40
0.4170237668699817
 40
0.4583993890242252
 40
0.4997739661482665
 40
0.5421602911047214
 40
0.597928514341382
 40
0.6451715630882097
 40
0.6929130579627686
 40
0.7313147405449602
 40
0.7697186157840996
 40
0.8085983695263341
 40
0.8474797968179821
 40
0.8896452459103784
 40
0.9320700259877649
 40
0.975301552377335
 40
1.0
 40
1.0
 40
1.0
 40
1.0
 10
56.03942931449703
 20
131.5236372637837
 30
0.0
 10
56.05013759147545
 20
131.449477474233
 30
0.0
 10
56.08177515628147
 20
131.2303726497459
 30
0.0
 10
56.20011243308011
 20
130.852485709761
 30
0.0
 10
56.37433236598954
 20
130.3905703831161
 30
0.0
 10
56.5994263266786
 20
129.9131932971042
 30
0.0
 10
56.8705242762709
 20
129.4190451934416
 30
0.0
 10
57.18710751232442
 20
128.9101386161603
 30
0.0
 10
57.54974421984234
 20
128.3843218505989
 30
0.0
 10
57.95584260322264
 20
127.8453484638631
 30
0.0
 10
58.38329798511309
 20
127.3205375417997
 30
0.0
 10
58.82193853499817
 20
126.8161766928372
 30
0.0
 10
59.26324019326367
 20
126.3370580874842
 30
0.0
 10
59.72715274345505
 20
125.8603852327697
 30
0.0
 10
60.25883805703298
 20
125.3433967389822
 30
0.0
 10
60.82503535249492
 20
124.8278391958439
 30
0.0
 10
61.4169935639121
 20
124.3270146370428
 30
0.0
 10
61.94052180486305
 20
123.9160058930836
 30
0.0
 10
62.4257082455987
 20
123.5633919598769
 30
0.0
 10
62.8719135545953
 20
123.263646688904
 30
0.0
 10
63.31406044989926
 20
122.9928921978611
 30
0.0
 10
63.76348104561194
 20
122.7468102171465
 30
0.0
 10
64.21804679335418
 20
122.5307321404997
 30
0.0
 10
64.67874282961762
 20
122.3527919172319
 30
0.0
 10
65.06957363325571
 20
122.2315504680098
 30
0.0
 10
65.3031820670225
 20
122.1917478214302
 30
0.0
 10
65.38811902967409
 20
122.1772761011611
 30
0.0
  0
ELLIPSE
  5
181
330
1F
100
AcDbEntity
  8
0
  6
Continuous
 62
     7
370
    30
100
AcDbEllipse
 10
56.2242719633
 20
122.36760582
 30
0.0
 11
-8.000000000000291
 21
-8.000000000000085
 31
0.0
210
0.0
220
0.0
230
1.0
 40
0.7071067812
 41
0.0
 42
6.283185307179586
  0
LINE
  5
182
330
1F
100
AcDbEntity
  8
0
  6
Continuous
 62
     7
370
    30
100
AcDbLine
 10
78.0697251052
 20
130.59322049
 30
0.0
 11
64.4498866333
 21
144.2130589619
 31
0.0
  0
LINE
  5
183
330
1F
100
AcDbEntity
  8
0
  6
Continuous
 62
     7
370
    30
100
AcDbLine
 10
72.3811262128
 20
117.5244600695
 30
0.0
 11
68.9465349058
 21
120.9590513764
 31
0.0
  0
ARC
  5
184
330
1F
100
AcDbEntity
  8
0
  6
Continuous
 62
     7
370
    30
100
AcDbCircle
 10
56.2242719633
 20
122.36760582
 30
0.0
 40
12.8
100
AcDbArc
 50
353.6821874535
 51
96.3178125465
  0
LINE
  5
185
330
1F
100
AcDbEntity
  8
0
  6
Continuous
 62
     7
370
    30
100
AcDbLine
 10
54.8157175197
 20
135.0898687626
 30
0.0
 11
51.3811262128
 21
138.5244600695
 31
0.0
  0
LINE
  5
186
330
1F
100
AcDbEntity
  8
0
  6
Continuous
 62
     7
370
    30
100
AcDbLine
 10
43.5020090207
 20
123.7761602636
 30
0.0
 11
42.1858904067
 21
125.0922788776
 31
0.0
  0
ARC
  5
187
330
1F
100
AcDbEntity
  8
0
  6
Continuous
 62
     7
370
    30
100
AcDbCircle
 10
56.2242719633
 20
122.36760582
 30
0.0
 40
12.8
100
AcDbArc
 50
173.6821874535
 51
276.3178125465
  0
LINE
  5
188
330
1F
100
AcDbEntity
  8
0
  6
Continuous
 62
     7
370
    30
100
AcDbLine
 10
58.9489450209
 20
108.3292242634
 30
0.0
 11
57.6328264069
 21
109.6453428775
 31
0.0
  0
LWPOLYLINE
  5
189
330
1F
100
AcDbEntity
  8
0
  6
Continuous
 62
     7
370
    30
100
AcDbPolyline
 90
       50
 70
   128
 43
0.0
 10
56.0884922595
 20
104.4236841049
 10
55.8285003262
 20
104.253957794
 10
55.3519002896
 20
103.9850294443
 10
54.8490174605
 20
103.7525002905
 10
54.3216520289
 20
103.5572027265
 10
53.7716918262
 20
103.399835867
 10
53.2011055672
 20
103.2809630444
 10
52.6119358026
 20
103.2010097926
 10
52.0062916072
 20
103.1602623235
 10
51.3863410301
 20
103.1588665025
 10
50.7543033335
 20
103.1968273262
 10
50.1124410483
 20
103.2740089047
 10
49.4630518748
 20
103.3901349481
 10
48.8084604579
 20
103.5447897552
 10
48.1510100647
 20
103.7374197019
 10
47.4930541972
 20
103.9673352231
 10
46.8369481665
 20
104.2337132808
 10
46.1850406621
 20
104.5356003107
 10
45.5396653435
 20
104.8719156357
 10
44.9031324868
 20
105.2414553341
 10
44.2777207146
 20
105.6428965497
 10
43.6656688387
 20
106.0748022272
 10
43.0691678458
 20
106.5356262563
 10
42.4903530548
 20
107.0237190066
 10
41.9312964724
 20
107.5373332328
 10
41.393999376
 20
108.0746303291
 10
40.8803851499
 20
108.6336869115
 10
40.3922923996
 20
109.2125017025
 10
39.9314683704
 20
109.8090026954
 10
39.499562693
 20
110.4210545714
 10
39.0981214773
 20
111.0464663436
 10
38.728581779
 20
111.6829992002
 10
38.392266454
 20
112.3283745188
 10
38.090379424
 20
112.9802820233
 10
37.8240013663
 20
113.6363880539
 10
37.5940858452
 20
114.2943439214
 10
37.4014558984
 20
114.9517943146
 10
37.2468010913
 20
115.6063857316
 10
37.130675048
 20
116.255774905
 10
37.0534934694
 20
116.8976371903
 10
37.0155326457
 20
117.5296748869
 10
37.0169284668
 20
118.1496254639
 10
37.0576759359
 20
118.7552696593
 10
37.1376291877
 20
119.3444394239
 10
37.2565020103
 20
119.9150256829
 10
37.4138688698
 20
120.4649858856
 10
37.6091664338
 20
120.9923513172
 10
37.8416955876
 20
121.4952341463
 10
38.1106239373
 20
121.9718341829
 10
38.2803502482
 20
122.2318261162
  0
DIMENSION
  5
18A
330
1F
100
AcDbEntity
  8
SLD-0
 62
     7
100
AcDbDimension
  2
_D_5
 10
47.1733051641
 20
113.3166390208
 30
0.0
 11
87.0479325628
 21
145.5250331631
 31
0.0
 70
   163
  1
ACCEPTS\P%%c1" OPTICS
 71
     1
 42
-1.0
  3
SLDDIMSTYLE2
100
AcDbDiametricDimension
 15
65.2752387625
 25
131.4185726192
 35
0.0
 40
0.0
  0
MTEXT
  5
195
330
1F
100
AcDbEntity
  8
SLD-0
100
AcDbMText
 10
74.5310858834
 20
108.4274326006
 30
0.0
 40
2.5
 41
0.0
 71
     2
 72
     1
  1
View C
  7
SLDTEXTSTYLE0
 73
     1
 44
1.0
  0
LINE
  5
196
330
1F
100
AcDbEntity
  8
0
  6
Continuous
 62
     7
370
    30
100
AcDbLine
 10
180.1608198892
 20
79.0964193728
 30
0.0
 11
180.1608198892
 21
89.0253515609
 31
0.0
  0
LINE
  5
197
330
1F
100
AcDbEntity
  8
0
  6
Continuous
 62
     7
370
    30
100
AcDbLine
 10
150.1608198892
 20
89.0253515609
 30
0.0
 11
150.1608198892
 21
79.0964193728
 31
0.0
  0
LINE
  5
198
330
1F
100
AcDbEntity
  8
0
  6
Continuous
 62
     7
370
    30
100
AcDbLine
 10
177.8608198892
 20
72.5964193728
 30
0.0
 11
177.8608198892
 21
79.0964193728
 31
0.0
  0
LINE
  5
199
330
1F
100
AcDbEntity
  8
0
  6
Continuous
 62
     7
370
    30
100
AcDbLine
 10
152.4608198892
 20
79.0964193728
 30
0.0
 11
152.4608198892
 21
72.5964193728
 31
0.0
  0
ARC
  5
19A
330
1F
100
AcDbEntity
  8
0
  6
Continuous
 62
     7
370
    30
100
AcDbCircle
 10
165.1608198892
 20
89.0253515609
 30
0.0
 40
15.00000000000003
100
AcDbArc
 50
157.8443737356
 51
180.0
  0
ARC
  5
19B
330
1F
100
AcDbEntity
  8
0
  6
Continuous
 62
     7
370
    30
100
AcDbCircle
 10
165.1608198892
 20
100.3390600599
 30
0.0
 40
15.00000000000008
100
AcDbArc
 50
188.1301023542
 51
202.1556262644
  0
ARC
  5
19C
330
1F
100
AcDbEntity
  8
0
  6
Continuous
 62
     7
370
    30
100
AcDbCircle
 10
165.1608198892
 20
96.0964193728
 30
0.0
 40
15.00000000000005
100
AcDbArc
 50
129.9445051898
 51
171.8698976458
  0
ARC
  5
19D
330
1F
100
AcDbEntity
  8
0
  6
Continuous
 62
     7
370
    30
100
AcDbCircle
 10
165.1608198892
 20
119.0964193728
 30
0.0
 40
15.00000000000012
100
AcDbArc
 50
230.0554948102
 51
309.9445051898
  0
ARC
  5
19E
330
1F
100
AcDbEntity
  8
0
  6
Continuous
 62
     7
370
    30
100
AcDbCircle
 10
165.1608198892
 20
96.0964193728
 30
0.0
 40
14.99999999999991
100
AcDbArc
 50
8.1301023542
 51
50.0554948102
  0
ARC
  5
19F
330
1F
100
AcDbEntity
  8
0
  6
Continuous
 62
     7
370
    30
100
AcDbCircle
 10
165.1608198892
 20
100.3390600599
 30
0.0
 40
14.99999999999995
100
AcDbArc
 50
337.8443737356
 51
351.8698976458
  0
ARC
  5
1A0
330
1F
100
AcDbEntity
  8
0
  6
Continuous
 62
     7
370
    30
100
AcDbCircle
 10
165.1608198892
 20
89.0253515609
 30
0.0
 40
15.0
100
AcDbArc
 50
0.0
 51
22.1556262644
  0
LINE
  5
1A1
330
1F
100
AcDbEntity
  8
0
  6
Continuous
 62
     7
370
    30
100
AcDbLine
 10
165.1608198892
 20
79.0964193728
 30
0.0
 11
150.1608198892
 21
79.0964193728
 31
0.0
  0
LINE
  5
1A2
330
1F
100
AcDbEntity
  8
0
  6
Continuous
 62
     7
370
    30
100
AcDbLine
 10
180.1608198892
 20
79.0964193728
 30
0.0
 11
165.1608198892
 21
79.0964193728
 31
0.0
  0
SPLINE
  5
1A3
330
1F
100
AcDbEntity
  8
0
  6
Continuous
 62
     7
370
    30
100
AcDbSpline
210
0.0
220
0.0
230
1.0
 70
    11
 71
     3
 72
    94
 73
    90
 74
     0
 42
0.000000001
 43
0.00000001
 40
0.0
 40
0.0
 40
0.0
 40
0.0
 40
0.03125
 40
0.03125
 40
0.0625
 40
0.0625
 40
0.09375
 40
0.09375
 40
0.1093749999999999
 40
0.1093749999999999
 40
0.1249999999999999
 40
0.1249999999999999
 40
0.1406249999999999
 40
0.1406249999999999
 40
0.1562499999999999
 40
0.1562499999999999
 40
0.1874999999999999
 40
0.1874999999999999
 40
0.203125
 40
0.203125
 40
0.2187500000000001
 40
0.2187500000000001
 40
0.2500000000000002
 40
0.2500000000000002
 40
0.2656250000000002
 40
0.2656250000000002
 40
0.2812500000000002
 40
0.2812500000000002
 40
0.2968750000000002
 40
0.2968750000000002
 40
0.3125000000000002
 40
0.3125000000000002
 40
0.3437500000000002
 40
0.3437500000000002
 40
0.3593750000000003
 40
0.3593750000000003
 40
0.3750000000000003
 40
0.3750000000000003
 40
0.4062500000000003
 40
0.4062500000000003
 40
0.4375000000000003
 40
0.4375000000000003
 40
0.4531250000000003
 40
0.4531250000000003
 40
0.4687500000000003
 40
0.4687500000000003
 40
0.5000000000000003
 40
0.5000000000000003
 40
0.5156250000000003
 40
0.5156250000000003
 40
0.5312500000000003
 40
0.5312500000000003
 40
0.5625000000000003
 40
0.5625000000000003
 40
0.5937500000000003
 40
0.5937500000000003
 40
0.6250000000000002
 40
0.6250000000000002
 40
0.6562500000000002
 40
0.6562500000000002
 40
0.6718750000000002
 40
0.6718750000000002
 40
0.6875000000000002
 40
0.6875000000000002
 40
0.7187500000000002
 40
0.7187500000000002
 40
0.7500000000000002
 40
0.7500000000000002
 40
0.7656250000000002
 40
0.7656250000000002
 40
0.7812500000000002
 40
0.7812500000000002
 40
0.8125000000000002
 40
0.8125000000000002
 40
0.8437500000000002
 40
0.8437500000000002
 40
0.8750000000000001
 40
0.8750000000000001
 40
0.9062500000000001
 40
0.9062500000000001
 40
0.9218750000000001
 40
0.9218750000000001
 40
0.9375000000000001
 40
0.9375000000000001
 40
0.96875
 40
0.96875
 40
0.984375
 40
0.984375
 40
1.0
 40
1.0
 40
1.0
 40
1.0
 10
165.1608198891813
 20
97.025351560899
 30
0.0
 10
165.7001281724464
 20
97.025351560899
 30
0.0
 10
166.2285645828235
 20
96.97139019323991
 30
0.0
 10
167.2651335306869
 20
96.7617249215654
 30
0.0
 10
167.778299442677
 20
96.60313620366018
 30
0.0
 10
168.7434363639249
 20
96.19744180711946
 30
0.0
 10
169.1993462630206
 20
95.95068053539497
 30
0.0
 10
169.8456421808916
 20
95.51533686630547
 30
0.0
 10
170.0540377838359
 20
95.3595874975474
 30
0.0
 10
170.4507289775145
 20
95.03226325517802
 30
0.0
 10
170.6400524300998
 20
94.86001920545176
 30
0.0
 10
171.0013442326535
 20
94.49834079468711
 30
0.0
 10
171.1733120099937
 20
94.30890770093876
 30
0.0
 10
171.4999810688133
 20
93.9121769646177
 30
0.0
 10
171.6553280228662
 20
93.70379797595724
 30
0.0
 10
172.0870468542232
 20
93.0618558724298
 30
0.0
 10
172.3315527413289
 20
92.60997555849849
 30
0.0
 10
172.6336396326533
 20
91.89313812754489
 30
0.0
 10
172.723464226433
 20
91.64763901553027
 30
0.0
 10
172.8801784098987
 20
91.14230335418804
 30
0.0
 10
172.9464108080621
 20
90.88393509549
 30
0.0
 10
173.1048622184131
 20
90.10758365995206
 30
0.0
 10
173.1592173361355
 20
89.58229441549763
 30
0.0
 10
173.1615693232631
 20
88.78215357833204
 30
0.0
 10
173.1487840806756
 20
88.51146792138324
 30
0.0
 10
173.0965693335701
 20
87.97867631258136
 30
0.0
 10
173.057366810077
 20
87.71600548133428
 30
0.0
 10
172.9537392395258
 20
87.19771690676114
 30
0.0
 10
172.8893121713436
 20
86.94209958757726
 30
0.0
 10
172.7353539415673
 20
86.43769516387934
 30
0.0
 10
172.6452753449152
 20
86.18783407536212
 30
0.0
 10
172.3428855866174
 20
85.46273340621582
 30
0.0
 10
172.0981143447133
 20
85.00779317788006
 30
0.0
 10
171.6674081202393
 20
84.36369766744133
 30
0.0
 10
171.5124733858475
 20
84.15475316020202
 30
0.0
 10
171.1862981902594
 20
83.75659059025122
 30
0.0
 10
171.0146294275004
 20
83.56657050825311
 30
0.0
 10
170.4738370058248
 20
83.0225725474079
 30
0.0
 10
170.0783704607604
 20
82.69374284003266
 30
0.0
 10
169.2154068379602
 20
82.10929073894401
 30
0.0
 10
168.7605370637003
 20
81.86205850238525
 30
0.0
 10
168.0418872831632
 20
81.55761204575747
 30
0.0
 10
167.7962389863308
 20
81.46728802139103
 30
0.0
 10
167.291988495273
 20
81.30992035731292
 30
0.0
 10
167.0316430146206
 20
81.24261603446188
 30
0.0
 10
166.2488894032753
 20
81.08180635129209
 30
0.0
 10
165.7216668284962
 20
81.0272780139413
 30
0.0
 10
164.9226774565878
 20
81.02446282152937
 30
0.0
 10
164.6538922989674
 20
81.0368963507257
 30
0.0
 10
164.1183054000226
 20
81.08900758104535
 30
0.0
 10
163.8545190838909
 20
81.12827226490748
 30
0.0
 10
163.0745818427405
 20
81.283985814605
 30
0.0
 10
162.5678914674793
 20
81.43876498631633
 30
0.0
 10
161.5919615410301
 20
81.84601846202834
 30
0.0
 10
161.1347509718042
 20
82.09294772417397
 30
0.0
 10
160.2757010151138
 20
82.6690108314274
 30
0.0
 10
159.8720657610248
 20
83.00108190444277
 30
0.0
 10
159.1464792806642
 20
83.72530890385049
 30
0.0
 10
158.8205090048605
 20
84.11942262245654
 30
0.0
 10
158.3861862563796
 20
84.76257554566723
 30
0.0
 10
158.2506670009625
 20
84.98594396410415
 30
0.0
 10
158.0039535679608
 20
85.44117925312946
 30
0.0
 10
157.8919228377783
 20
85.67419809572661
 30
0.0
 10
157.5895886059153
 20
86.39004656537915
 30
0.0
 10
157.4325485333486
 20
86.8896078884188
 30
0.0
 10
157.2166408457696
 20
87.94017945006044
 30
0.0
 10
157.1625826443326
 20
88.46836365019186
 30
0.0
 10
157.1600015043684
 20
89.2649633565819
 30
0.0
 10
157.1723246024426
 20
89.53122051941297
 30
0.0
 10
157.2241559164511
 20
90.06521950126478
 30
0.0
 10
157.2638113506237
 20
90.3321965785847
 30
0.0
 10
157.4199714651281
 20
91.11379995840295
 30
0.0
 10
157.5738079630496
 20
91.61657435461882
 30
0.0
 10
157.9788322704197
 20
92.58852983007296
 30
0.0
 10
158.2257313527979
 20
93.0465330999481
 30
0.0
 10
158.7987165749987
 20
93.90274793572151
 30
0.0
 10
159.1293749807575
 20
94.30602482665388
 30
0.0
 10
159.8542220602914
 20
95.03400010324457
 30
0.0
 10
160.248747601072
 20
95.36094071750065
 30
0.0
 10
160.8920606352534
 20
95.79622524626784
 30
0.0
 10
161.1165315428252
 20
95.93275535849797
 30
0.0
 10
161.5766409842008
 20
96.18231719087437
 30
0.0
 10
161.8118055335319
 20
96.29529840150663
 30
0.0
 10
162.5327584495955
 20
96.59934588015932
 30
0.0
 10
163.0338428174128
 20
96.75591963861449
 30
0.0
 10
163.8193596307329
 20
96.91660703401664
 30
0.0
 10
164.086711422563
 20
96.9574720510081
 30
0.0
 10
164.6215380494211
 20
97.01167859934256
 30
0.0
 10
164.8911657475487
 20
97.02535156089901
 30
0.0
 10
165.1608198891813
 20
97.025351560899
 30
0.0
  0
LINE
  5
1A4
330
1F
100
AcDbEntity
  8
0
  6
Continuous
 62
     7
370
    30
100
AcDbLine
 10
155.5301397471
 20
107.5964193728
 30
0.0
 11
174.7915000313
 21
107.5964193728
 31
0.0
  0
LWPOLYLINE
  5
1A5
330
1F
100
AcDbEntity
  8
0
  6
Continuous
 62
     7
370
    30
100
AcDbPolyline
 90
       38
 70
   128
 43
0.0
 10
165.1608198892
 20
106.9953786088
 10
164.8819685357
 20
106.9785963147
 10
164.6111392279
 20
106.9287322284
 10
164.3561232319
 20
106.847220849
 10
164.1242568936
 20
106.7364071103
 10
163.9222105855
 20
106.599478922
 10
163.7557968119
 20
106.4403754586
 10
163.6298029941
 20
106.2636738371
 10
163.5478537449
 20
106.0744574416
 10
163.5123065949
 20
105.8781696831
 10
163.524184171
 20
105.680457403
 10
163.5831447769
 20
105.4870084238
 10
163.6874922232
 20
105.3033879204
 10
163.8342246241
 20
105.1348783202
 10
164.0191207554
 20
104.9863273377
 10
164.2368614921
 20
104.8620085142
 10
164.4811828296
 20
104.7654982759
 10
164.7450560879
 20
104.6995730467
 10
165.0208901138
 20
104.6661293753
 10
165.3007496646
 20
104.6661293753
 10
165.5765836905
 20
104.6995730467
 10
165.8404569488
 20
104.7654982759
 10
166.0847782863
 20
104.8620085142
 10
166.302519023
 20
104.9863273377
 10
166.4874151543
 20
105.1348783202
 10
166.6341475551
 20
105.3033879204
 10
166.7384950015
 20
105.4870084238
 10
166.7974556074
 20
105.680457403
 10
166.8093331834
 20
105.8781696831
 10
166.7737860334
 20
106.0744574416
 10
166.6918367842
 20
106.2636738371
 10
166.5658429664
 20
106.4403754586
 10
166.3994291928
 20
106.599478922
 10
166.1973828847
 20
106.7364071103
 10
165.9655165465
 20
106.847220849
 10
165.7105005505
 20
106.9287322284
 10
165.4396712427
 20
106.9785963147
 10
165.1608198892
 20
106.9953786088
  0
LINE
  5
1A6
330
1F
100
AcDbEntity
  8
0
  6
Continuous
 62
     7
370
    30
100
AcDbLine
 10
165.1608198892
 20
72.5964193728
 30
0.0
 11
152.4608198892
 21
72.5964193728
 31
0.0
  0
LINE
  5
1A7
330
1F
100
AcDbEntity
  8
0
  6
Continuous
 62
     7
370
    30
100
AcDbLine
 10
177.8608198892
 20
72.5964193728
 30
0.0
 11
165.1608198892
 21
72.5964193728
 31
0.0
  0
ARC
  5
1A8
330
1F
100
AcDbEntity
  8
0
  6
Continuous
 62
     7
370
    30
100
AcDbCircle
 10
165.1607774363
 20
100.7682531281
 30
0.0
 40
17.26931434786948
100
AcDbArc
 50
246.5130848683
 51
293.4953510274
  0
LINE
  5
1A9
330
1F
100
AcDbEntity
  8
SLD-0
  6
CENTERX2
100
AcDbLine
 10
166.8108198892
 20
78.5964193728
 30
0.0
 11
165.1608198892
 21
79.5878393942
 31
0.0
  0
LINE
  5
1AA
330
1F
100
AcDbEntity
  8
SLD-0
  6
CENTERX2
100
AcDbLine
 10
165.1608198892
 20
79.5878393942
 30
0.0
 11
163.5108198892
 21
78.5964193728
 31
0.0
  0
LINE
  5
1AB
330
1F
100
AcDbEntity
  8
SLD-0
  6
CENTERX2
100
AcDbLine
 10
163.5108198892
 20
78.5964193728
 30
0.0
 11
166.8108198892
 21
78.5964193728
 31
0.0
  0
LINE
  5
1AC
330
1F
100
AcDbEntity
  8
SLD-0
  6
CENTERX2
100
AcDbLine
 10
166.8108198892
 20
72.5964193728
 30
0.0
 11
166.8108198892
 21
78.5964193728
 31
0.0
  0
LINE
  5
1AD
330
1F
100
AcDbEntity
  8
SLD-0
  6
CENTERX2
100
AcDbLine
 10
163.5108198892
 20
78.5964193728
 30
0.0
 11
163.5108198892
 21
72.5964193728
 31
0.0
  0
DIMENSION
  5
1AE
330
1F
100
AcDbEntity
  8
SLD-0
100
AcDbDimension
  2
_D_6
 10
159.3292152802
 20
83.5488209361
 30
0.0
 11
188.9902769291
 21
108.8396179296
 31
0.0
 70
   163
  1
<>
 71
     1
 42
-1.0
  3
SLDDIMSTYLE2
100
AcDbDiametricDimension
 15
170.9924244982
 25
94.5018821857
 35
0.0
 40
0.0
  0
DIMENSION
  5
1B7
330
1F
100
AcDbEntity
  8
SLD-0
100
AcDbDimension
  2
_D_7
 10
189.8820885054
 20
72.5964193728
 30
0.0
 11
189.8820885054
 21
75.8464193728
 31
0.0
 70
   160
  1
<>
 71
     2
 42
-1.0
  3
SLDDIMSTYLE0
100
AcDbAlignedDimension
 13
180.1608198892
 23
79.0964193728
 33
0.0
 14
177.8608198892
 24
72.5964193728
 34
0.0
 50
90.0
100
AcDbRotatedDimension
  0
INSERT
  5
1C7
330
1F
100
AcDbEntity
  8
SLD-0
100
AcDbBlockReference
  2
SW_NOTE_2
 10
156.9910125753
 20
59.8224296905
 30
0.0
  0
LEADER
  5
1C9
330
1F
100
AcDbEntity
  8
SLD-0
100
AcDbLeader
  3
SLDDIMSTYLE3
 76
     2
 10
163.5108198892
 20
75.778409608
 30
0.0
 10
156.9910125753
 20
59.8224296905
 30
0.0
  0
INSERT
  5
1D5
330
1F
100
AcDbEntity
  8
SLD-0
100
AcDbBlockReference
  2
SW_CENTERMARKSYMBOL_0
 10
165.1608198892
 20
89.0253515609
 30
0.0
  0
LWPOLYLINE
  5
1D6
330
1F
100
AcDbEntity
  8
0
  6
Continuous
 62
     7
370
     0
100
AcDbPolyline
 90
       38
 70
   128
 43
0.0
 10
163.1608009338
 20
105.8286524198
 10
163.1895880685
 20
106.0676556719
 10
163.2750649983
 20
106.2997832357
 10
163.4147916629
 20
106.5183572236
 10
163.6047483805
 20
106.7170896601
 10
163.8394704424
 20
106.8902633748
 10
164.1122053221
 20
107.0328964751
 10
164.4151069336
 20
107.1408856666
 10
164.7394613492
 20
107.2111242967
 10
165.0759374828
 20
107.241591728
 10
165.4148555287
 20
107.2314114679
 10
165.7464654317
 20
107.180876384
 10
166.0612273788
 20
107.0914402786
 10
166.3500862418
 20
106.9656760657
 10
166.6047320771
 20
106.8072017526
 10
166.8178391877
 20
106.6205763569
 10
166.98327687
 20
106.4111687514
 10
167.096285783
 20
106.1850032116
 10
167.1536148663
 20
105.9485861084
 10
167.1536148663
 20
105.7087187312
 10
167.096285783
 20
105.472301628
 10
166.98327687
 20
105.2461360882
 10
166.8178391877
 20
105.0367284827
 10
166.6047320771
 20
104.850103087
 10
166.3500862418
 20
104.6916287739
 10
166.0612273788
 20
104.565864561
 10
165.7464654317
 20
104.4764284556
 10
165.4148555287
 20
104.4258933717
 10
165.0759374828
 20
104.4157131116
 10
164.7394613492
 20
104.4461805429
 10
164.4151069336
 20
104.516419173
 10
164.1122053221
 20
104.6244083645
 10
163.8394704424
 20
104.7670414648
 10
163.6047483805
 20
104.9402151795
 10
163.4147916629
 20
105.138947616
 10
163.2750649983
 20
105.3575216039
 10
163.1895880685
 20
105.5896491676
 10
163.1608198892
 20
105.8286524198
  0
ENDSEC
  0
SECTION
  2
OBJECTS
  0
DICTIONARY
  5
C
330
0
100
AcDbDictionary
281
     1
  3
ACAD_GROUP
350
D
  3
ACAD_LAYOUT
350
1A
  3
ACAD_MLINESTYLE
350
17
  3
ACAD_PLOTSETTINGS
350
19
  3
ACAD_PLOTSTYLENAME
350
E
  3
ACAD_SCALELIST
350
47
  0
DICTIONARY
  5
D
102
{ACAD_REACTORS
330
C
102
}
330
C
100
AcDbDictionary
281
     1
  0
DICTIONARY
  5
1A
102
{ACAD_REACTORS
330
C
102
}
330
C
100
AcDbDictionary
281
     1
  3
Layout1
350
1E
  3
Layout2
350
26
  3
Model
350
22
  0
DICTIONARY
  5
17
102
{ACAD_REACTORS
330
C
102
}
330
C
100
AcDbDictionary
281
     1
  3
Standard
350
18
  0
DICTIONARY
  5
19
102
{ACAD_REACTORS
330
C
102
}
330
C
100
AcDbDictionary
281
     1
  0
ACDBDICTIONARYWDFLT
  5
E
102
{ACAD_REACTORS
330
C
102
}
330
C
100
AcDbDictionary
281
     1
  3
Normal
350
F
100
AcDbDictionaryWithDefault
340
F
  0
DICTIONARY
  5
47
102
{ACAD_REACTORS
330
C
102
}
330
C
100
AcDbDictionary
281
     1
  3
A0
350
48
  3
A1
350
49
  3
A2
350
4A
  3
A3
350
4B
  3
A4
350
4C
  3
A5
350
4D
  3
A6
350
4E
  3
A7
350
4F
  3
A8
350
50
  3
A9
350
51
  3
B0
350
52
  3
B1
350
53
  3
B2
350
54
  3
B3
350
55
  3
B4
350
56
  3
B5
350
57
  3
B6
350
58
  3
B7
350
59
  3
B8
350
5A
  3
B9
350
5B
  3
C0
350
5C
  3
C1
350
5D
  3
C2
350
5E
  3
C3
350
5F
  3
C4
350
60
  3
C5
350
61
  3
C6
350
62
  3
C7
350
63
  3
C8
350
64
  3
C9
350
65
  3
D0
350
66
  3
D1
350
67
  3
D2
350
68
  0
LAYOUT
  5
1E
102
{ACAD_REACTORS
330
1A
102
}
330
1A
100
AcDbPlotSettings
  1

  2
none_device
  4

  6

 40
0.0
 41
0.0
 42
0.0
 43
0.0
 44
0.0
 45
0.0
 46
0.0
 47
0.0
 48
0.0
 49
0.0
140
0.0
141
0.0
142
1.0
143
1.0
 70
   688
 72
     1
 73
     0
 74
     5
  7

 75
    16
147
1.0
148
0.0
149
0.0
100
AcDbLayout
  1
Layout1
 70
     1
 71
     1
 10
0.0
 20
0.0
 11
420.0
 21
297.0
 12
0.0
 22
0.0
 32
0.0
 14
1.0000000000E+20
 24
1.0000000000E+20
 34
1.0000000000E+20
 15
-1.0000000000E+20
 25
-1.0000000000E+20
 35
-1.0000000000E+20
146
0.0
 13
0.0
 23
0.0
 33
0.0
 16
1.0
 26
0.0
 36
0.0
 17
0.0
 27
1.0
 37
0.0
 76
     0
330
1B
  0
LAYOUT
  5
26
102
{ACAD_REACTORS
330
1A
102
}
330
1A
100
AcDbPlotSettings
  1

  2
none_device
  4

  6

 40
0.0
 41
0.0
 42
0.0
 43
0.0
 44
0.0
 45
0.0
 46
0.0
 47
0.0
 48
0.0
 49
0.0
140
0.0
141
0.0
142
1.0
143
1.0
 70
   688
 72
     1
 73
     0
 74
     5
  7

 75
    16
147
1.0
148
0.0
149
0.0
100
AcDbLayout
  1
Layout2
 70
     1
 71
     2
 10
0.0
 20
0.0
 11
0.0
 21
0.0
 12
0.0
 22
0.0
 32
0.0
 14
0.0
 24
0.0
 34
0.0
 15
0.0
 25
0.0
 35
0.0
146
0.0
 13
0.0
 23
0.0
 33
0.0
 16
1.0
 26
0.0
 36
0.0
 17
0.0
 27
1.0
 37
0.0
 76
     0
330
23
  0
LAYOUT
  5
22
102
{ACAD_REACTORS
330
1A
102
}
330
1A
100
AcDbPlotSettings
  1

  2
none_device
  4
Letter_(8.50_x_11.00_Inches)
  6

 40
6.35
 41
6.35
 42
6.35000508
 43
6.35000508
 44
215.9
 45
279.4
 46
0.0
 47
0.0
 48
0.0
 49
0.0
140
0.0
141
0.0
142
1.0
143
1.0
 70
  1712
 72
     1
 73
     0
 74
     0
  7

 75
     0
147
1.0
148
0.0
149
0.0
100
AcDbLayout
  1
Model
 70
     1
 71
     0
 10
0.0
 20
0.0
 11
297.0
 21
210.0
 12
0.0
 22
0.0
 32
0.0
 14
0.0
 24
0.0
 34
0.0
 15
297.0
 25
210.0
 35
0.0
146
0.0
 13
0.0
 23
0.0
 33
0.0
 16
1.0
 26
0.0
 36
0.0
 17
0.0
 27
1.0
 37
0.0
 76
     0
330
1F
331
29
  0
MLINESTYLE
  5
18
102
{ACAD_REACTORS
330
17
102
}
330
17
100
AcDbMlineStyle
  2
Standard
 70
     0
  3

 62
   256
 51
90.0
 52
90.0
 71
     2
 49
0.5
 62
   256
  6
BYLAYER
 49
-0.5
 62
   256
  6
BYLAYER
  0
ACDBPLACEHOLDER
  5
F
102
{ACAD_REACTORS
330
E
102
}
330
E
  0
SCALE
  5
48
102
{ACAD_REACTORS
330
47
102
}
330
47
100
AcDbScale
 70
     0
300
1:1
140
1.0
141
1.0
290
     1
  0
SCALE
  5
49
102
{ACAD_REACTORS
330
47
102
}
330
47
100
AcDbScale
 70
     0
300
1:2
140
1.0
141
2.0
290
     0
  0
SCALE
  5
4A
102
{ACAD_REACTORS
330
47
102
}
330
47
100
AcDbScale
 70
     0
300
1:4
140
1.0
141
4.0
290
     0
  0
SCALE
  5
4B
102
{ACAD_REACTORS
330
47
102
}
330
47
100
AcDbScale
 70
     0
300
1:5
140
1.0
141
5.0
290
     0
  0
SCALE
  5
4C
102
{ACAD_REACTORS
330
47
102
}
330
47
100
AcDbScale
 70
     0
300
1:8
140
1.0
141
8.0
290
     0
  0
SCALE
  5
4D
102
{ACAD_REACTORS
330
47
102
}
330
47
100
AcDbScale
 70
     0
300
1:10
140
1.0
141
10.0
290
     0
  0
SCALE
  5
4E
102
{ACAD_REACTORS
330
47
102
}
330
47
100
AcDbScale
 70
     0
300
1:16
140
1.0
141
16.0
290
     0
  0
SCALE
  5
4F
102
{ACAD_REACTORS
330
47
102
}
330
47
100
AcDbScale
 70
     0
300
1:20
140
1.0
141
20.0
290
     0
  0
SCALE
  5
50
102
{ACAD_REACTORS
330
47
102
}
330
47
100
AcDbScale
 70
     0
300
1:30
140
1.0
141
30.0
290
     0
  0
SCALE
  5
51
102
{ACAD_REACTORS
330
47
102
}
330
47
100
AcDbScale
 70
     0
300
1:40
140
1.0
141
40.0
290
     0
  0
SCALE
  5
52
102
{ACAD_REACTORS
330
47
102
}
330
47
100
AcDbScale
 70
     0
300
1:50
140
1.0
141
50.0
290
     0
  0
SCALE
  5
53
102
{ACAD_REACTORS
330
47
102
}
330
47
100
AcDbScale
 70
     0
300
1:100
140
1.0
141
100.0
290
     0
  0
SCALE
  5
54
102
{ACAD_REACTORS
330
47
102
}
330
47
100
AcDbScale
 70
     0
300
2:1
140
2.0
141
1.0
290
     0
  0
SCALE
  5
55
102
{ACAD_REACTORS
330
47
102
}
330
47
100
AcDbScale
 70
     0
300
4:1
140
4.0
141
1.0
290
     0
  0
SCALE
  5
56
102
{ACAD_REACTORS
330
47
102
}
330
47
100
AcDbScale
 70
     0
300
8:1
140
8.0
141
1.0
290
     0
  0
SCALE
  5
57
102
{ACAD_REACTORS
330
47
102
}
330
47
100
AcDbScale
 70
     0
300
10:1
140
10.0
141
1.0
290
     0
  0
SCALE
  5
58
102
{ACAD_REACTORS
330
47
102
}
330
47
100
AcDbScale
 70
     0
300
100:1
140
100.0
141
1.0
290
     0
  0
SCALE
  5
59
102
{ACAD_REACTORS
330
47
102
}
330
47
100
AcDbScale
 70
     0
300
1/128" = 1'-0"
140
0.0078125
141
12.0
290
     0
  0
SCALE
  5
5A
102
{ACAD_REACTORS
330
47
102
}
330
47
100
AcDbScale
 70
     0
300
1/64" = 1'-0"
140
0.015625
141
12.0
290
     0
  0
SCALE
  5
5B
102
{ACAD_REACTORS
330
47
102
}
330
47
100
AcDbScale
 70
     0
300
1/32" = 1'-0"
140
0.03125
141
12.0
290
     0
  0
SCALE
  5
5C
102
{ACAD_REACTORS
330
47
102
}
330
47
100
AcDbScale
 70
     0
300
1/16" = 1'-0"
140
0.0625
141
12.0
290
     0
  0
SCALE
  5
5D
102
{ACAD_REACTORS
330
47
102
}
330
47
100
AcDbScale
 70
     0
300
3/32" = 1'-0"
140
0.09375
141
12.0
290
     0
  0
SCALE
  5
5E
102
{ACAD_REACTORS
330
47
102
}
330
47
100
AcDbScale
 70
     0
300
1/8" = 1'-0"
140
0.125
141
12.0
290
     0
  0
SCALE
  5
5F
102
{ACAD_REACTORS
330
47
102
}
330
47
100
AcDbScale
 70
     0
300
3/16" = 1'-0"
140
0.1875
141
12.0
290
     0
  0
SCALE
  5
60
102
{ACAD_REACTORS
330
47
102
}
330
47
100
AcDbScale
 70
     0
300
1/4" = 1'-0"
140
0.25
141
12.0
290
     0
  0
SCALE
  5
61
102
{ACAD_REACTORS
330
47
102
}
330
47
100
AcDbScale
 70
     0
300
3/8" = 1'-0"
140
0.375
141
12.0
290
     0
  0
SCALE
  5
62
102
{ACAD_REACTORS
330
47
102
}
330
47
100
AcDbScale
 70
     0
300
1/2" = 1'-0"
140
0.5
141
12.0
290
     0
  0
SCALE
  5
63
102
{ACAD_REACTORS
330
47
102
}
330
47
100
AcDbScale
 70
     0
300
3/4" = 1'-0"
140
0.75
141
12.0
290
     0
  0
SCALE
  5
64
102
{ACAD_REACTORS
330
47
102
}
330
47
100
AcDbScale
 70
     0
300
1" = 1'-0"
140
1.0
141
12.0
290
     0
  0
SCALE
  5
65
102
{ACAD_REACTORS
330
47
102
}
330
47
100
AcDbScale
 70
     0
300
1-1/2" = 1'-0"
140
1.5
141
12.0
290
     0
  0
SCALE
  5
66
102
{ACAD_REACTORS
330
47
102
}
330
47
100
AcDbScale
 70
     0
300
3" = 1'-0"
140
3.0
141
12.0
290
     0
  0
SCALE
  5
67
102
{ACAD_REACTORS
330
47
102
}
330
47
100
AcDbScale
 70
     0
300
6" = 1'-0"
140
6.0
141
12.0
290
     0
  0
SCALE
  5
68
102
{ACAD_REACTORS
330
47
102
}
330
47
100
AcDbScale
 70
     0
300
1'-0" = 1'-0"
140
12.0
141
12.0
290
     0
  0
ENDSEC
  0
EOF
