  0
SECTION
  2
HEADER
  9
$ACADVER
  1
AC1015
  9
$ACADMAINTVER
 70
     6
  9
$DWGCODEPAGE
  3
ANSI_950
  9
$INSBASE
 10
0.0
 20
0.0
 30
0.0
  9
$EXTMIN
 10
0.0
 20
0.0
 30
0.0
  9
$EXTMAX
 10
297.0
 20
210.0
 30
0.0
  9
$LIMMIN
 10
0.0
 20
0.0
  9
$LIMMAX
 10
297.0
 20
210.0
  9
$ORTHOMODE
 70
     0
  9
$REGENMODE
 70
     1
  9
$FILLMODE
 70
     1
  9
$QTEXTMODE
 70
     0
  9
$MIRRTEXT
 70
     1
  9
$LTSCALE
 40
1.0
  9
$ATTMODE
 70
     1
  9
$TEXTSIZE
 40
2.5
  9
$TRACEWID
 40
1.0
  9
$TEXTSTYLE
  7
Standard
  9
$CLAYER
  8
0
  9
$CELTYPE
  6
ByLayer
  9
$CECOLOR
 62
   256
  9
$CELTSCALE
 40
1.0
  9
$DISPSILH
 70
     0
  9
$DIMSCALE
 40
1.0
  9
$DIMASZ
 40
2.0
  9
$DIMEXO
 40
1.0
  9
$DIMDLI
 40
3.75
  9
$DIMRND
 40
0.0
  9
$DIMDLE
 40
0.0
  9
$DIMEXE
 40
1.0
  9
$DIMTP
 40
0.0
  9
$DIMTM
 40
0.0
  9
$DIMTXT
 40
2.5
  9
$DIMCEN
 40
2.5
  9
$DIMTSZ
 40
0.0
  9
$DIMTOL
 70
     0
  9
$DIMLIM
 70
     0
  9
$DIMTIH
 70
     1
  9
$DIMTOH
 70
     1
  9
$DIMSE1
 70
     0
  9
$DIMSE2
 70
     0
  9
$DIMTAD
 70
     1
  9
$DIMZIN
 70
     0
  9
$DIMBLK
  1

  9
$DIMASO
 70
     1
  9
$DIMSHO
 70
     1
  9
$DIMPOST
  1

  9
$DIMAPOST
  1

  9
$DIMALT
 70
     0
  9
$DIMALTD
 70
     3
  9
$DIMALTF
 40
0.0393700787
  9
$DIMLFAC
 40
1.0
  9
$DIMTOFL
 70
     1
  9
$DIMTVP
 40
0.0
  9
$DIMTIX
 70
     0
  9
$DIMSOXD
 70
     0
  9
$DIMSAH
 70
     0
  9
$DIMBLK1
  1

  9
$DIMBLK2
  1

  9
$DIMSTYLE
  2
ISO-25
  9
$DIMCLRD
 70
     0
  9
$DIMCLRE
 70
     0
  9
$DIMCLRT
 70
     0
  9
$DIMTFAC
 40
1.0
  9
$DIMGAP
 40
1.0
  9
$DIMJUST
 70
     0
  9
$DIMSD1
 70
     0
  9
$DIMSD2
 70
     0
  9
$DIMTOLJ
 70
     0
  9
$DIMTZIN
 70
     0
  9
$DIMALTZ
 70
     0
  9
$DIMALTTZ
 70
     0
  9
$DIMUPT
 70
     0
  9
$DIMDEC
 70
     2
  9
$DIMTDEC
 70
     2
  9
$DIMALTU
 70
     2
  9
$DIMALTTD
 70
     3
  9
$DIMTXSTY
  7
Standard
  9
$DIMAUNIT
 70
     0
  9
$DIMADEC
 70
     1
  9
$DIMALTRND
 40
0.0
  9
$DIMAZIN
 70
     0
  9
$DIMDSEP
 70
    44
  9
$DIMATFIT
 70
     3
  9
$DIMFRAC
 70
     0
  9
$DIMLDRBLK
  1

  9
$DIMLUNIT
 70
     2
  9
$DIMLWD
 70
    -2
  9
$DIMLWE
 70
    -2
  9
$DIMTMOVE
 70
     0
  9
$LUNITS
 70
     2
  9
$LUPREC
 70
     2
  9
$SKETCHINC
 40
1.0
  9
$FILLETRAD
 40
10.0
  9
$AUNITS
 70
     0
  9
$AUPREC
 70
     1
  9
$MENU
  1
.
  9
$ELEVATION
 40
0.0
  9
$PELEVATION
 40
0.0
  9
$THICKNESS
 40
0.0
  9
$LIMCHECK
 70
     0
  9
$CHAMFERA
 40
0.0
  9
$CHAMFERB
 40
0.0
  9
$CHAMFERC
 40
0.0
  9
$CHAMFERD
 40
0.0
  9
$SKPOLY
 70
     0
  9
$TDCREATE
 40
2457836.514237697
  9
$TDUCREATE
 40
2457836.180904363
  9
$TDUPDATE
 40
2457836.514241678
  9
$TDUUPDATE
 40
2457836.180908345
  9
$TDINDWG
 40
0.0000000116
  9
$TDUSRTIMER
 40
0.0000000116
  9
$USRTIMER
 70
     1
  9
$ANGBASE
 50
0.0
  9
$ANGDIR
 70
     0
  9
$PDMODE
 70
     0
  9
$PDSIZE
 40
-1.0
  9
$PLINEWID
 40
0.0
  9
$SPLFRAME
 70
     0
  9
$SPLINETYPE
 70
     6
  9
$SPLINESEGS
 70
     8
  9
$HANDSEED
  5
1D7
  9
$SURFTAB1
 70
     6
  9
$SURFTAB2
 70
     6
  9
$SURFTYPE
 70
     6
  9
$SURFU
 70
     6
  9
$SURFV
 70
     6
  9
$UCSBASE
  2

  9
$UCSNAME
  2

  9
$UCSORG
 10
0.0
 20
0.0
 30
0.0
  9
$UCSXDIR
 10
1.0
 20
0.0
 30
0.0
  9
$UCSYDIR
 10
0.0
 20
1.0
 30
0.0
  9
$UCSORTHOREF
  2

  9
$UCSORTHOVIEW
 70
     0
  9
$UCSORGTOP
 10
0.0
 20
0.0
 30
0.0
  9
$UCSORGBOTTOM
 10
0.0
 20
0.0
 30
0.0
  9
$UCSORGLEFT
 10
0.0
 20
0.0
 30
0.0
  9
$UCSORGRIGHT
 10
0.0
 20
0.0
 30
0.0
  9
$UCSORGFRONT
 10
0.0
 20
0.0
 30
0.0
  9
$UCSORGBACK
 10
0.0
 20
0.0
 30
0.0
  9
$PUCSBASE
  2

  9
$PUCSNAME
  2

  9
$PUCSORG
 10
0.0
 20
0.0
 30
0.0
  9
$PUCSXDIR
 10
1.0
 20
0.0
 30
0.0
  9
$PUCSYDIR
 10
0.0
 20
1.0
 30
0.0
  9
$PUCSORTHOREF
  2

  9
$PUCSORTHOVIEW
 70
     0
  9
$PUCSORGTOP
 10
0.0
 20
0.0
 30
0.0
  9
$PUCSORGBOTTOM
 10
0.0
 20
0.0
 30
0.0
  9
$PUCSORGLEFT
 10
0.0
 20
0.0
 30
0.0
  9
$PUCSORGRIGHT
 10
0.0
 20
0.0
 30
0.0
  9
$PUCSORGFRONT
 10
0.0
 20
0.0
 30
0.0
  9
$PUCSORGBACK
 10
0.0
 20
0.0
 30
0.0
  9
$USERI1
 70
     0
  9
$USERI2
 70
     0
  9
$USERI3
 70
     0
  9
$USERI4
 70
     0
  9
$USERI5
 70
     0
  9
$USERR1
 40
0.0
  9
$USERR2
 40
0.0
  9
$USERR3
 40
0.0
  9
$USERR4
 40
0.0
  9
$USERR5
 40
0.0
  9
$WORLDVIEW
 70
     1
  9
$SHADEDGE
 70
     3
  9
$SHADEDIF
 70
    70
  9
$TILEMODE
 70
     1
  9
$MAXACTVP
 70
    64
  9
$PINSBASE
 10
0.0
 20
0.0
 30
0.0
  9
$PLIMCHECK
 70
     0
  9
$PEXTMIN
 10
1.0000000000E+20
 20
1.0000000000E+20
 30
1.0000000000E+20
  9
$PEXTMAX
 10
-1.0000000000E+20
 20
-1.0000000000E+20
 30
-1.0000000000E+20
  9
$PLIMMIN
 10
0.0
 20
0.0
  9
$PLIMMAX
 10
420.0
 20
297.0
  9
$UNITMODE
 70
     0
  9
$VISRETAIN
 70
     1
  9
$PLINEGEN
 70
     0
  9
$PSLTSCALE
 70
     1
  9
$TREEDEPTH
 70
  3020
  9
$CMLSTYLE
  2
Standard
  9
$CMLJUST
 70
     0
  9
$CMLSCALE
 40
20.0
  9
$PROXYGRAPHICS
 70
     1
  9
$MEASUREMENT
 70
     1
  9
$CELWEIGHT
370
    -1
  9
$ENDCAPS
280
     0
  9
$JOINSTYLE
280
     0
  9
$LWDISPLAY
290
     1
  9
$INSUNITS
 70
     4
  9
$HYPERLINKBASE
  1

  9
$STYLESHEET
  1

  9
$XEDIT
290
     1
  9
$CEPSNTYPE
380
     0
  9
$PSTYLEMODE
290
     1
  9
$FINGERPRINTGUID
  2
{96636D0E-BB40-4798-AB9B-63E7F31949A6}
  9
$VERSIONGUID
  2
{FAEB1C32-E019-11D5-929B-00C0DF256EC4}
  9
$EXTNAMES
290
     1
  9
$PSVPSCALE
 40
0.0
  9
$OLESTARTUP
290
     0
  0
ENDSEC
  0
SECTION
  2
CLASSES
  0
CLASS
  1
ACDBDICTIONARYWDFLT
  2
AcDbDictionaryWithDefault
  3
ObjectDBX Classes
 90
        0
280
     0
281
     0
  0
CLASS
  1
VISUALSTYLE
  2
AcDbVisualStyle
  3
ObjectDBX Classes
 90
     4095
280
     0
281
     0
  0
CLASS
  1
MATERIAL
  2
AcDbMaterial
  3
ObjectDBX Classes
 90
     1153
280
     0
281
     0
  0
CLASS
  1
SCALE
  2
AcDbScale
  3
ObjectDBX Classes
 90
     1153
280
     0
281
     0
  0
CLASS
  1
TABLESTYLE
  2
AcDbTableStyle
  3
ObjectDBX Classes
 90
     4095
280
     0
281
     0
  0
CLASS
  1
MLEADERSTYLE
  2
AcDbMLeaderStyle
  3
ACDB_MLEADERSTYLE_CLASS
 90
     4095
280
     0
281
     0
  0
CLASS
  1
SUN
  2
AcDbSun
  3
SCENEOE
 90
     1153
280
     0
281
     0
  0
CLASS
  1
ACDBPLACEHOLDER
  2
AcDbPlaceHolder
  3
ObjectDBX Classes
 90
        0
280
     0
281
     0
  0
CLASS
  1
LAYOUT
  2
AcDbLayout
  3
ObjectDBX Classes
 90
        0
280
     0
281
     0
  0
ENDSEC
  0
SECTION
  2
TABLES
  0
TABLE
  2
VPORT
  5
8
330
0
100
AcDbSymbolTable
 70
     1
  0
VPORT
  5
29
330
8
100
AcDbSymbolTableRecord
100
AcDbViewportTableRecord
  2
*Active
 70
     0
 10
0.0
 20
0.0
 11
1.0
 21
1.0
 12
148.5
 22
105.0
 13
0.0
 23
0.0
 14
10.0
 24
10.0
 15
10.0
 25
10.0
 16
0.0
 26
0.0
 36
1.0
 17
0.0
 27
0.0
 37
0.0
 40
210.0
 41
1.4142857143
 42
50.0
 43
0.0
 44
0.0
 50
0.0
 51
0.0
 71
     0
 72
  2000
 73
     1
 74
     3
 75
     0
 76
     0
 77
     0
 78
     0
281
     0
 65
     1
110
0.0
120
0.0
130
0.0
111
1.0
121
0.0
131
0.0
112
0.0
122
1.0
132
0.0
 79
     0
146
0.0
  0
ENDTAB
  0
TABLE
  2
LTYPE
  5
5
330
0
100
AcDbSymbolTable
 70
     6
  0
LTYPE
  5
14
330
5
100
AcDbSymbolTableRecord
100
AcDbLinetypeTableRecord
  2
ByBlock
 70
     0
  3

 72
    65
 73
     0
 40
0.0
  0
LTYPE
  5
15
330
5
100
AcDbSymbolTableRecord
100
AcDbLinetypeTableRecord
  2
ByLayer
 70
     0
  3

 72
    65
 73
     0
 40
0.0
  0
LTYPE
  5
16
330
5
100
AcDbSymbolTableRecord
100
AcDbLinetypeTableRecord
  2
Continuous
 70
     0
  3
Solid line
 72
    65
 73
     0
 40
0.0
  0
LTYPE
  5
6E
330
5
100
AcDbSymbolTableRecord
100
AcDbLinetypeTableRecord
  2
HIDDEN
 70
     0
  3
Hidden __ __ __ __ __ __ __ __ __ __ __ __ __ __
 72
    65
 73
     2
 40
1.905
 49
1.27
 74
     0
 49
-0.635
 74
     0
  0
LTYPE
  5
6F
330
5
100
AcDbSymbolTableRecord
100
AcDbLinetypeTableRecord
  2
PHANTOM
 70
     0
  3
Phantom ______  __  __  ______  __  __  ______
 72
    65
 73
     6
 40
12.7
 49
6.35
 74
     0
 49
-1.27
 74
     0
 49
1.27
 74
     0
 49
-1.27
 74
     0
 49
1.27
 74
     0
 49
-1.27
 74
     0
  0
LTYPE
  5
70
330
5
100
AcDbSymbolTableRecord
100
AcDbLinetypeTableRecord
  2
CENTER
 70
     0
  3
Center ____ _ ____ _ ____ _ ____ _ ____ _ ____
 72
    65
 73
     4
 40
10.16
 49
6.35
 74
     0
 49
-1.27
 74
     0
 49
1.27
 74
     0
 49
-1.27
 74
     0
  0
LTYPE
  5
71
330
5
100
AcDbSymbolTableRecord
100
AcDbLinetypeTableRecord
  2
CENTERX2
 70
     0
  3
Center (2x) ________  __  ________  __  _____
 72
    65
 73
     4
 40
20.32
 49
12.7
 74
     0
 49
-2.54
 74
     0
 49
2.54
 74
     0
 49
-2.54
 74
     0
  0
LTYPE
  5
72
330
5
100
AcDbSymbolTableRecord
100
AcDbLinetypeTableRecord
  2
DOT2
 70
     0
  3
Dot (.5x) ........................................
 72
    65
 73
     2
 40
0.635
 49
0.0
 74
     0
 49
-0.635
 74
     0
  0
ENDTAB
  0
TABLE
  2
LAYER
  5
2
330
0
100
AcDbSymbolTable
 70
     3
  0
LAYER
  5
10
330
2
100
AcDbSymbolTableRecord
100
AcDbLayerTableRecord
  2
0
 70
     0
 62
     7
  6
Continuous
370
    -3
390
F
  0
LAYER
  5
73
330
2
100
AcDbSymbolTableRecord
100
AcDbLayerTableRecord
  2
SLD-0
 70
     0
 62
   179
  6
Continuous
370
    15
390
F
  0
LAYER
  5
74
330
2
100
AcDbSymbolTableRecord
100
AcDbLayerTableRecord
  2
DIM
 70
     0
 62
     7
  6
Continuous
370
    -3
390
F
  0
ENDTAB
  0
TABLE
  2
STYLE
  5
3
330
0
100
AcDbSymbolTable
 70
     3
  0
STYLE
  5
11
330
3
100
AcDbSymbolTableRecord
100
AcDbTextStyleTableRecord
  2
Standard
 70
     0
 40
0.0
 41
1.0
 50
0.0
 71
     0
 42
2.5
  3
txt
  4

  0
STYLE
  5
C5
330
3
100
AcDbSymbolTableRecord
100
AcDbTextStyleTableRecord
  2
SLDTEXTSTYLE0
 70
     0
 40
0.0
 41
0.605
 50
0.0
 71
     0
 42
2.5
  3
TXT
  4

  0
STYLE
  5
CE
330
3
100
AcDbSymbolTableRecord
100
AcDbTextStyleTableRecord
  2
SLDTEXTSTYLE1
 70
     0
 40
0.0
 41
0.7
 50
0.0
 71
     0
 42
2.5
  3
TXT
  4

  0
ENDTAB
  0
TABLE
  2
VIEW
  5
6
330
0
100
AcDbSymbolTable
 70
     0
  0
ENDTAB
  0
TABLE
  2
UCS
  5
7
330
0
100
AcDbSymbolTable
 70
     0
  0
ENDTAB
  0
TABLE
  2
APPID
  5
9
330
0
100
AcDbSymbolTable
 70
     1
  0
APPID
  5
12
330
9
100
AcDbSymbolTableRecord
100
AcDbRegAppTableRecord
  2
ACAD
 70
     0
  0
ENDTAB
  0
TABLE
  2
DIMSTYLE
  5
A
330
0
100
AcDbSymbolTable
 70
     5
100
AcDbDimStyleTable
  0
DIMSTYLE
105
27
330
A
100
AcDbSymbolTableRecord
100
AcDbDimStyleTableRecord
  2
ISO-25
 70
     0
 41
2.5
 42
0.625
 43
3.75
 44
1.25
 73
     0
 74
     0
 77
     1
 78
     8
140
2.5
141
2.5
143
0.0393700787
147
0.625
171
     3
172
     1
178
     0
271
     2
272
     2
274
     3
278
    44
283
     0
284
     8
340
11
  0
DIMSTYLE
105
135
102
{ACAD_REACTORS
330
134
330
13F
330
14A
330
155
330
1B7
102
}
330
A
100
AcDbSymbolTableRecord
100
AcDbDimStyleTableRecord
  2
SLDDIMSTYLE0
 70
     0
 41
2.0
 44
0.0
 45
0.000000001
 73
     0
 74
     0
 77
     1
 78
    12
 79
     3
140
2.5
147
0.625
173
     1
178
     0
271
     2
272
     2
276
     2
284
    12
340
C5
  0
DIMSTYLE
105
160
102
{ACAD_REACTORS
330
15F
102
}
330
A
100
AcDbSymbolTableRecord
100
AcDbDimStyleTableRecord
  2
SLDDIMSTYLE1
 70
     0
 41
2.0
 44
0.0
 73
     0
 74
     0
 77
     1
 78
    12
 79
     3
140
2.5
147
0.625
173
     1
178
     0
179
     1
272
     1
276
     2
284
    12
340
C5
  0
DIMSTYLE
105
18B
102
{ACAD_REACTORS
330
18A
330
1AE
102
}
330
A
100
AcDbSymbolTableRecord
100
AcDbDimStyleTableRecord
  2
SLDDIMSTYLE2
 70
     0
 41
2.0
 44
0.0
 45
0.000000001
 78
    12
 79
     3
140
2.5
141
0.0
147
0.625
173
     1
178
     0
271
     2
272
     2
276
     2
284
    12
340
C5
  0
DIMSTYLE
105
1C8
330
A
100
AcDbSymbolTableRecord
100
AcDbDimStyleTableRecord
  2
SLDDIMSTYLE3
 70
     0
 41
2.0
 44
0.0
 45
0.000000001
146
2.0
147
0.0
173
     1
178
     0
271
     0
272
     0
276
     2
340
11
  0
ENDTAB
  0
TABLE
  2
BLOCK_RECORD
  5
1
330
0
100
AcDbSymbolTable
 70
    14
  0
BLOCK_RECORD
  5
1F
330
1
100
AcDbSymbolTableRecord
100
AcDbBlockTableRecord
  2
*Model_Space
340
22
  0
BLOCK_RECORD
  5
1B
330
1
100
AcDbSymbolTableRecord
100
AcDbBlockTableRecord
  2
*Paper_Space
340
1E
  0
BLOCK_RECORD
  5
23
330
1
100
AcDbSymbolTableRecord
100
AcDbBlockTableRecord
  2
*Paper_Space0
340
26
  0
BLOCK_RECORD
  5
C7
330
1
100
AcDbSymbolTableRecord
100
AcDbBlockTableRecord
  2
SW_NOTE_0
340
0
102
{BLKREFS
331
CD
102
}
  0
BLOCK_RECORD
  5
FE
330
1
100
AcDbSymbolTableRecord
100
AcDbBlockTableRecord
  2
SW_NOTE_1
340
0
102
{BLKREFS
331
103
102
}
  0
BLOCK_RECORD
  5
136
330
1
100
AcDbSymbolTableRecord
100
AcDbBlockTableRecord
  2
_D
340
0
  0
BLOCK_RECORD
  5
140
330
1
100
AcDbSymbolTableRecord
100
AcDbBlockTableRecord
  2
_D_1
340
0
  0
BLOCK_RECORD
  5
14B
330
1
100
AcDbSymbolTableRecord
100
AcDbBlockTableRecord
  2
_D_2
340
0
  0
BLOCK_RECORD
  5
156
330
1
100
AcDbSymbolTableRecord
100
AcDbBlockTableRecord
  2
_D_3
340
0
  0
BLOCK_RECORD
  5
161
330
1
100
AcDbSymbolTableRecord
100
AcDbBlockTableRecord
  2
_D_4
340
0
  0
BLOCK_RECORD
  5
16B
330
1
100
AcDbSymbolTableRecord
100
AcDbBlockTableRecord
  2
SW_PROJECTIONARROW_0
340
0
102
{BLKREFS
331
175
102
}
  0
BLOCK_RECORD
  5
18C
330
1
100
AcDbSymbolTableRecord
100
AcDbBlockTableRecord
  2
_D_5
340
0
  0
BLOCK_RECORD
  5
1AF
330
1
100
AcDbSymbolTableRecord
100
AcDbBlockTableRecord
  2
_D_6
340
0
  0
BLOCK_RECORD
  5
1B8
330
1
100
AcDbSymbolTableRecord
100
AcDbBlockTableRecord
  2
_D_7
340
0
  0
BLOCK_RECORD
  5
1C1
330
1
100
AcDbSymbolTableRecord
100
AcDbBlockTableRecord
  2
SW_NOTE_2
340
0
102
{BLKREFS
331
1C7
102
}
  0
BLOCK_RECORD
  5
1CA
330
1
100
AcDbSymbolTableRecord
100
AcDbBlockTableRecord
  2
SW_CENTERMARKSYMBOL_0
340
0
102
{BLKREFS
331
1D5
102
}
  0
ENDTAB
  0
ENDSEC
  0
SECTION
  2
BLOCKS
  0
BLOCK
  5
20
330
1F
100
AcDbEntity
  8
0
100
AcDbBlockBegin
  2
*Model_Space
 70
     0
 10
0.0
 20
0.0
 30
0.0
  3
*Model_Space
  1

  0
ENDBLK
  5
21
330
1F
100
AcDbEntity
  8
0
100
AcDbBlockEnd
  0
BLOCK
  5
1C
330
1B
100
AcDbEntity
 67
     1
  8
0
100
AcDbBlockBegin
  2
*Paper_Space
 70
     0
 10
0.0
 20
0.0
 30
0.0
  3
*Paper_Space
  1

  0
ENDBLK
  5
1D
330
1B
100
AcDbEntity
 67
     1
  8
0
100
AcDbBlockEnd
  0
BLOCK
  5
24
330
23
100
AcDbEntity
  8
0
100
AcDbBlockBegin
  2
*Paper_Space0
 70
     0
 10
0.0
 20
0.0
 30
0.0
  3
*Paper_Space0
  1

  0
ENDBLK
  5
25
330
23
100
AcDbEntity
  8
0
100
AcDbBlockEnd
  0
BLOCK
  5
C8
330
C7
100
AcDbEntity
  8
0
100
AcDbBlockBegin
  2
SW_NOTE_0
 70
     0
 10
0.0
 20
0.0
 30
0.0
  3
SW_NOTE_0
  1

  0
MTEXT
  5
CA
330
C7
100
AcDbEntity
  8
0
  6
Continuous
 62
     0
370
     0
100
AcDbMText
 10
0.0
 20
3.4106583948
 30
0.0
 40
2.6458333333
 41
0.0
 71
     1
 72
     1
  1
PROPRIETARY AND CONFIDENTIAL
  7
SLDTEXTSTYLE0
 73
     1
 44
1.0
  0
MTEXT
  5
CB
330
C7
100
AcDbEntity
  8
0
  6
Continuous
 62
     0
370
     0
100
AcDbMText
 10
0.0
 20
-0.08198348
 30
0.0
 40
1.8520833333
 41
0.0
 71
     1
 72
     1
  1
THE INFORMATION CONTAINED IN THIS DRAWING IS THE SOLE PROPERTY OF UNICE E-O SERVICES INC. ANY REPRODUCTION IN PART OR AS A WHOLE WITHOUT THE WRITTEN PERMISSION OF UNICE E-O SERVICES INC IS
  7
SLDTEXTSTYLE0
 73
     1
 44
1.0
  0
MTEXT
  5
CC
330
C7
100
AcDbEntity
  8
0
  6
Continuous
 62
     0
370
     0
100
AcDbMText
 10
0.0
 20
-2.5514278946
 30
0.0
 40
1.8520833333
 41
0.0
 71
     1
 72
     1
  1
PROHIBITED.
  7
SLDTEXTSTYLE0
 73
     1
 44
1.0
  0
ENDBLK
  5
C9
330
C7
100
AcDbEntity
  8
0
100
AcDbBlockEnd
  0
BLOCK
  5
FF
330
FE
100
AcDbEntity
  8
0
100
AcDbBlockBegin
  2
SW_NOTE_1
 70
     0
 10
0.0
 20
0.0
 30
0.0
  3
SW_NOTE_1
  1

  0
MTEXT
  5
101
330
FE
100
AcDbEntity
  8
SLD-0
 62
     0
100
AcDbMText
 10
0.0
 20
2.3874608764
 30
0.0
 40
1.8520833333
 41
0.0
 71
     1
 72
     1
  1
No.5, Andong Rd., Chung Li District,
  7
SLDTEXTSTYLE1
 73
     1
 44
1.0
  0
MTEXT
  5
102
330
FE
100
AcDbEntity
  8
SLD-0
 62
     0
100
AcDbMText
 10
0.0
 20
-0.0819835382
 30
0.0
 40
1.8520833333
 41
0.0
 71
     1
 72
     1
  1
Taoyuan City 32063, Taiwan, R.O.C.
  7
SLDTEXTSTYLE1
 73
     1
 44
1.0
  0
ENDBLK
  5
100
330
FE
100
AcDbEntity
  8
0
100
AcDbBlockEnd
  0
BLOCK
  5
137
330
136
100
AcDbEntity
  8
0
100
AcDbBlockBegin
  2
_D
 70
     0
 10
0.0
 20
0.0
 30
0.0
  3
_D
  1

  0
SOLID
  5
139
330
136
100
AcDbEntity
  8
SLD-0
100
AcDbTrace
 10
111.6385526126
 20
115.5512559668
 30
0.0
 11
112.8759894796
 21
113.9602657091
 31
0.0
 12
113.2295428702
 22
114.3138190997
 32
0.0
 13
113.2295428702
 23
114.3138190997
 33
0.0
  0
SOLID
  5
13A
330
136
100
AcDbEntity
  8
SLD-0
100
AcDbTrace
 10
115.1740865185
 20
112.0157220608
 30
0.0
 11
113.9366496514
 21
113.6067123185
 31
0.0
 12
113.5830962608
 22
113.2531589279
 32
0.0
 13
113.5830962608
 23
113.2531589279
 33
0.0
  0
LINE
  5
13B
330
136
100
AcDbEntity
  8
SLD-0
100
AcDbLine
 10
107.4398250878
 20
111.352528442
 30
0.0
 11
112.3456593938
 21
116.258362748
 31
0.0
  0
LINE
  5
13C
330
136
100
AcDbEntity
  8
SLD-0
100
AcDbLine
 10
104.990791887
 20
101.8324274294
 30
0.0
 11
115.8811932997
 21
112.722828842
 31
0.0
  0
LINE
  5
13D
330
136
100
AcDbEntity
  8
SLD-0
100
AcDbLine
 10
111.6385526126
 20
115.5512559668
 30
0.0
 11
115.1740865185
 21
112.0157220608
 31
0.0
  0
MTEXT
  5
13E
330
136
100
AcDbEntity
  8
SLD-0
100
AcDbMText
 10
115.0099020249
 20
116.7374490085
 30
0.0
 40
2.5
 41
0.0
 71
     1
 72
     1
  1
5
  7
SLDTEXTSTYLE0
 11
0.707106781186553
 21
-0.707106781186542
 31
0.0
 73
     1
 44
1.0
  0
ENDBLK
  5
138
330
136
100
AcDbEntity
  8
0
100
AcDbBlockEnd
  0
BLOCK
  5
141
330
140
100
AcDbEntity
  8
0
100
AcDbBlockBegin
  2
_D_1
 70
     0
 10
0.0
 20
0.0
 30
0.0
  3
_D_1
  1

  0
SOLID
  5
143
330
140
100
AcDbEntity
  8
SLD-0
 62
     7
100
AcDbTrace
 10
82.5327183067
 20
65.5502725677
 30
0.0
 11
84.5327183067
 21
65.3002725677
 31
0.0
 12
84.5327183067
 22
65.8002725677
 32
0.0
 13
84.5327183067
 23
65.8002725677
 33
0.0
  0
SOLID
  5
144
330
140
100
AcDbEntity
  8
SLD-0
 62
     7
100
AcDbTrace
 10
107.9327183067
 20
65.5502725677
 30
0.0
 11
105.9327183067
 21
65.8002725677
 31
0.0
 12
105.9327183067
 22
65.3002725677
 32
0.0
 13
105.9327183067
 23
65.3002725677
 33
0.0
  0
LINE
  5
145
330
140
100
AcDbEntity
  8
SLD-0
 62
     7
100
AcDbLine
 10
82.5327183067
 20
74.6454216609
 30
0.0
 11
82.5327183067
 21
64.5502725677
 31
0.0
  0
LINE
  5
146
330
140
100
AcDbEntity
  8
SLD-0
 62
     7
100
AcDbLine
 10
107.9327183067
 20
74.6454216609
 30
0.0
 11
107.9327183067
 21
64.5502725677
 31
0.0
  0
LINE
  5
147
330
140
100
AcDbEntity
  8
SLD-0
 62
     7
100
AcDbLine
 10
82.5327183067
 20
65.5502725677
 30
0.0
 11
107.9327183067
 21
65.5502725677
 31
0.0
  0
MTEXT
  5
148
330
140
100
AcDbEntity
  8
SLD-0
 62
     7
100
AcDbMText
 10
90.068221706
 20
68.7729416843
 30
0.0
 40
2.5
 41
0.0
 71
     1
 72
     1
  1
%%c
  7
SLDTEXTSTYLE0
 73
     1
 44
1.0
  0
MTEXT
  5
149
330
140
100
AcDbEntity
  8
SLD-0
 62
     7
100
AcDbMText
 10
93.7131870623
 20
68.7798861493
 30
0.0
 40
2.5
 41
0.0
 71
     1
 72
     1
  1
25.4
  7
SLDTEXTSTYLE0
 73
     1
 44
1.0
  0
ENDBLK
  5
142
330
140
100
AcDbEntity
  8
0
100
AcDbBlockEnd
  0
BLOCK
  5
14C
330
14B
100
AcDbEntity
  8
0
100
AcDbBlockBegin
  2
_D_2
 70
     0
 10
0.0
 20
0.0
 30
0.0
  3
_D_2
  1

  0
SOLID
  5
14E
330
14B
100
AcDbEntity
  8
SLD-0
 62
     7
100
AcDbTrace
 10
80.2327183067
 20
58.3335183498
 30
0.0
 11
82.2327183067
 21
58.0835183498
 31
0.0
 12
82.2327183067
 22
58.5835183498
 32
0.0
 13
82.2327183067
 23
58.5835183498
 33
0.0
  0
SOLID
  5
14F
330
14B
100
AcDbEntity
  8
SLD-0
 62
     7
100
AcDbTrace
 10
110.2327183067
 20
58.3335183498
 30
0.0
 11
108.2327183067
 21
58.5835183498
 31
0.0
 12
108.2327183067
 22
58.0835183498
 32
0.0
 13
108.2327183067
 23
58.0835183498
 33
0.0
  0
LINE
  5
150
330
14B
100
AcDbEntity
  8
SLD-0
 62
     7
100
AcDbLine
 10
80.2327183067
 20
81.1454216609
 30
0.0
 11
80.2327183067
 21
57.3335183498
 31
0.0
  0
LINE
  5
151
330
14B
100
AcDbEntity
  8
SLD-0
 62
     7
100
AcDbLine
 10
110.2327183067
 20
81.1454216609
 30
0.0
 11
110.2327183067
 21
57.3335183498
 31
0.0
  0
LINE
  5
152
330
14B
100
AcDbEntity
  8
SLD-0
 62
     7
100
AcDbLine
 10
80.2327183067
 20
58.3335183498
 30
0.0
 11
110.2327183067
 21
58.3335183498
 31
0.0
  0
MTEXT
  5
153
330
14B
100
AcDbEntity
  8
SLD-0
 62
     7
100
AcDbMText
 10
91.5005134037
 20
61.5561874664
 30
0.0
 40
2.5
 41
0.0
 71
     1
 72
     1
  1
%%c
  7
SLDTEXTSTYLE0
 73
     1
 44
1.0
  0
MTEXT
  5
154
330
14B
100
AcDbEntity
  8
SLD-0
 62
     7
100
AcDbMText
 10
95.14547876
 20
61.5631319314
 30
0.0
 40
2.5
 41
0.0
 71
     1
 72
     1
  1
30
  7
SLDTEXTSTYLE0
 73
     1
 44
1.0
  0
ENDBLK
  5
14D
330
14B
100
AcDbEntity
  8
0
100
AcDbBlockEnd
  0
BLOCK
  5
157
330
156
100
AcDbEntity
  8
0
100
AcDbBlockBegin
  2
_D_3
 70
     0
 10
0.0
 20
0.0
 30
0.0
  3
_D_3
  1

  0
SOLID
  5
159
330
156
100
AcDbEntity
  8
SLD-0
 62
     7
100
AcDbTrace
 10
119.3715336279
 20
75.6454216609
 30
0.0
 11
119.6215336279
 21
77.6454216609
 31
0.0
 12
119.1215336279
 22
77.6454216609
 32
0.0
 13
119.1215336279
 23
77.6454216609
 33
0.0
  0
SOLID
  5
15A
330
156
100
AcDbEntity
  8
SLD-0
 62
     7
100
AcDbTrace
 10
119.3715336279
 20
107.1454216609
 30
0.0
 11
119.1215336279
 21
105.1454216609
 31
0.0
 12
119.6215336279
 22
105.1454216609
 32
0.0
 13
119.6215336279
 23
105.1454216609
 33
0.0
  0
LINE
  5
15B
330
156
100
AcDbEntity
  8
SLD-0
 62
     7
100
AcDbLine
 10
108.9327183067
 20
75.6454216609
 30
0.0
 11
120.3715336279
 21
75.6454216609
 31
0.0
  0
LINE
  5
15C
330
156
100
AcDbEntity
  8
SLD-0
 62
     7
100
AcDbLine
 10
111.2327183067
 20
107.1454216609
 30
0.0
 11
120.3715336279
 21
107.1454216609
 31
0.0
  0
LINE
  5
15D
330
156
100
AcDbEntity
  8
SLD-0
 62
     7
100
AcDbLine
 10
119.3715336279
 20
75.6454216609
 30
0.0
 11
119.3715336279
 21
107.1454216609
 31
0.0
  0
MTEXT
  5
15E
330
156
100
AcDbEntity
  8
SLD-0
 62
     7
100
AcDbMText
 10
116.1488644531
 20
88.0534078548
 30
0.0
 40
2.5
 41
0.0
 71
     1
 72
     1
  1
31.5
  7
SLDTEXTSTYLE0
 11
6.123233995736766E-17
 21
1.0
 31
0.0
 73
     1
 44
1.0
  0
ENDBLK
  5
158
330
156
100
AcDbEntity
  8
0
100
AcDbBlockEnd
  0
BLOCK
  5
162
330
161
100
AcDbEntity
  8
0
100
AcDbBlockBegin
  2
_D_4
 70
     0
 10
0.0
 20
0.0
 30
0.0
  3
_D_4
  1

  0
ARC
  5
164
330
161
100
AcDbEntity
  8
SLD-0
 62
     7
100
AcDbCircle
 10
78.2327183067
 20
82.1454216609
 30
0.0
 40
57.45355141043697
100
AcDbArc
 50
0.0
 51
45.0
  0
SOLID
  5
165
330
161
100
AcDbEntity
  8
SLD-0
 62
     7
100
AcDbTrace
 10
135.6862697171
 20
82.1454216609
 30
0.0
 11
135.9014369577
 21
84.1494683316
 31
0.0
 12
135.4015126314
 22
84.140769601
 32
0.0
 13
135.4015126314
 23
84.140769601
 33
0.0
  0
SOLID
  5
166
330
161
100
AcDbEntity
  8
SLD-0
 62
     7
100
AcDbTrace
 10
118.8585141122
 20
122.7712174664
 30
0.0
 11
120.0680845052
 21
121.1589397408
 31
0.0
 12
120.4277353179
 22
121.5062886907
 32
0.0
 13
120.4277353179
 23
121.5062886907
 33
0.0
  0
LINE
  5
167
330
161
100
AcDbEntity
  8
SLD-0
 62
     7
100
AcDbLine
 10
111.2327183067
 20
82.1454216609
 30
0.0
 11
136.6862697171
 21
82.1454216609
 31
0.0
  0
LINE
  5
168
330
161
100
AcDbEntity
  8
SLD-0
 62
     7
100
AcDbLine
 10
107.4398250878
 20
111.352528442
 30
0.0
 11
119.5656208934
 21
123.4783242476
 31
0.0
  0
MTEXT
  5
169
330
161
100
AcDbEntity
  8
SLD-0
 62
     7
100
AcDbMText
 10
133.2963227459
 20
107.7647263612
 30
0.0
 40
2.5
 41
0.0
 71
     1
 72
     1
  1
45°
  7
SLDTEXTSTYLE0
 11
0.3826834323650838
 21
-0.9238795325112892
 31
0.0
 73
     1
 44
1.0
  0
ENDBLK
  5
163
330
161
100
AcDbEntity
  8
0
100
AcDbBlockEnd
  0
BLOCK
  5
16C
330
16B
100
AcDbEntity
  8
0
100
AcDbBlockBegin
  2
SW_PROJECTIONARROW_0
 70
     0
 10
0.0
 20
0.0
 30
0.0
  3
SW_PROJECTIONARROW_0
  1

  0
LINE
  5
16E
330
16B
100
AcDbEntity
  8
0
  6
HIDDEN
 62
     0
370
     0
100
AcDbLine
 10
89.7024379784
 20
95.3270478278
 30
0.0
 11
93.2379718843
 21
91.7915139219
 31
0.0
  0
LINE
  5
16F
330
16B
100
AcDbEntity
  8
0
  6
HIDDEN
 62
     0
370
     0
100
AcDbLine
 10
89.7024379784
 20
95.3270478278
 30
0.0
 11
93.2379718843
 21
91.7915139219
 31
0.0
  0
LINE
  5
170
330
16B
100
AcDbEntity
  8
0
  6
PHANTOM
 62
     0
370
    30
100
AcDbLine
 10
89.7024379784
 20
95.3270478278
 30
0.0
 11
93.2379718843
 21
91.7915139219
 31
0.0
  0
SOLID
  5
171
330
16B
100
AcDbEntity
  8
0
  6
Continuous
 62
     0
370
    30
100
AcDbTrace
 10
93.2379718843
 20
91.7915139219
 30
0.0
 11
91.5409156095
 21
94.3370983341
 31
0.0
 12
90.692387472
 22
93.4885701967
 32
0.0
 13
90.692387472
 23
93.4885701967
 33
0.0
  0
SOLID
  5
172
330
16B
100
AcDbEntity
  8
0
  6
Continuous
 62
     0
370
    30
100
AcDbTrace
 10
93.2379718843
 20
91.7915139219
 30
0.0
 11
91.5409156095
 21
94.3370983341
 31
0.0
 12
90.692387472
 22
93.4885701967
 32
0.0
 13
90.692387472
 23
93.4885701967
 33
0.0
  0
MTEXT
  5
173
330
16B
100
AcDbEntity
  8
0
  6
Continuous
 62
     0
370
    30
100
AcDbMText
 10
93.6396547618
 20
95.7287307053
 30
0.0
 40
2.5
 41
0.0
 71
     1
 72
     1
  1
C
  7
SLDTEXTSTYLE0
 73
     1
 44
1.0
  0
MTEXT
  5
174
330
16B
100
AcDbEntity
  8
0
  6
Continuous
 62
     0
370
    30
100
AcDbMText
 10
93.6396547618
 20
95.7287307053
 30
0.0
 40
2.5
 41
0.0
 71
     1
 72
     1
  1
C
  7
SLDTEXTSTYLE0
 73
     1
 44
1.0
  0
ENDBLK
  5
16D
330
16B
100
AcDbEntity
  8
0
100
AcDbBlockEnd
  0
BLOCK
  5
18D
330
18C
100
AcDbEntity
  8
0
100
AcDbBlockBegin
  2
_D_5
 70
     0
 10
0.0
 20
0.0
 30
0.0
  3
_D_5
  1

  0
SOLID
  5
18F
330
18C
100
AcDbEntity
  8
SLD-0
 62
     7
100
AcDbTrace
 10
66.7707029999
 20
138.6383027541
 30
0.0
 11
68.3616932576
 21
139.8757396212
 31
0.0
 12
68.008139867
 22
140.2292930118
 32
0.0
 13
68.008139867
 23
140.2292930118
 33
0.0
  0
LINE
  5
190
330
18C
100
AcDbEntity
  8
SLD-0
 62
     7
100
AcDbLine
 10
66.7707029999
 20
138.6383027541
 30
0.0
 11
77.511467664
 21
149.3790674182
 31
0.0
  0
LINE
  5
191
330
18C
100
AcDbEntity
  8
SLD-0
 62
     7
100
AcDbLine
 10
77.511467664
 20
149.3790674182
 30
0.0
 11
99.2744899825
 21
149.3790674182
 31
0.0
  0
MTEXT
  5
192
330
18C
100
AcDbEntity
  8
SLD-0
 62
     7
100
AcDbMText
 10
80.9068679348
 20
156.445486932
 30
0.0
 40
2.5
 41
0.0
 71
     1
 72
     1
  1
ACCEPTS
  7
SLDTEXTSTYLE0
 73
     1
 44
1.0
  0
MTEXT
  5
193
330
18C
100
AcDbEntity
  8
SLD-0
 62
     7
100
AcDbMText
 10
78.761467664
 20
152.6017370004
 30
0.0
 40
2.5
 41
0.0
 71
     1
 72
     1
  1
%%c
  7
SLDTEXTSTYLE0
 73
     1
 44
1.0
  0
MTEXT
  5
194
330
18C
100
AcDbEntity
  8
SLD-0
 62
     7
100
AcDbMText
 10
82.4064330202
 20
152.6086814654
 30
0.0
 40
2.5
 41
0.0
 71
     1
 72
     1
  1
1" OPTICS
  7
SLDTEXTSTYLE0
 73
     1
 44
1.0
  0
ENDBLK
  5
18E
330
18C
100
AcDbEntity
  8
0
100
AcDbBlockEnd
  0
BLOCK
  5
1B0
330
1AF
100
AcDbEntity
  8
0
100
AcDbBlockBegin
  2
_D_6
 70
     0
 10
0.0
 20
0.0
 30
0.0
  3
_D_6
  1

  0
SOLID
  5
1B2
330
1AF
100
AcDbEntity
  8
SLD-0
100
AcDbTrace
 10
172.7050998854
 20
97.5521764319
 30
0.0
 11
174.3338796026
 21
98.7394323574
 31
0.0
 12
173.9915156912
 22
99.1038317978
 32
0.0
 13
173.9915156912
 23
99.1038317978
 33
0.0
  0
LINE
  5
1B3
330
1AF
100
AcDbEntity
  8
SLD-0
100
AcDbLine
 10
172.7050998854
 20
97.5521764319
 30
0.0
 11
185.8519486057
 21
109.9040245746
 31
0.0
  0
LINE
  5
1B4
330
1AF
100
AcDbEntity
  8
SLD-0
100
AcDbLine
 10
185.8519486057
 20
109.9040245746
 30
0.0
 11
194.5663584115
 21
109.9040245746
 31
0.0
  0
MTEXT
  5
1B5
330
1AF
100
AcDbEntity
  8
SLD-0
100
AcDbMText
 10
187.1019486057
 20
113.1266936912
 30
0.0
 40
2.5
 41
0.0
 71
     1
 72
     1
  1
%%c
  7
SLDTEXTSTYLE0
 73
     1
 44
1.0
  0
MTEXT
  5
1B6
330
1AF
100
AcDbEntity
  8
SLD-0
100
AcDbMText
 10
190.7469139619
 20
113.1336381562
 30
0.0
 40
2.5
 41
0.0
 71
     1
 72
     1
  1
16
  7
SLDTEXTSTYLE0
 73
     1
 44
1.0
  0
ENDBLK
  5
1B1
330
1AF
100
AcDbEntity
  8
0
100
AcDbBlockEnd
  0
BLOCK
  5
1B9
330
1B8
100
AcDbEntity
  8
0
100
AcDbBlockBegin
  2
_D_7
 70
     0
 10
0.0
 20
0.0
 30
0.0
  3
_D_7
  1

  0
SOLID
  5
1BB
330
1B8
100
AcDbEntity
  8
SLD-0
100
AcDbTrace
 10
191.4789255754
 20
82.1454216609
 30
0.0
 11
191.2289255754
 21
80.1454216609
 31
0.0
 12
191.7289255754
 22
80.1454216609
 32
0.0
 13
191.7289255754
 23
80.1454216609
 33
0.0
  0
SOLID
  5
1BC
330
1B8
100
AcDbEntity
  8
SLD-0
100
AcDbTrace
 10
191.4789255754
 20
75.6454216609
 30
0.0
 11
191.7289255754
 21
77.6454216609
 31
0.0
 12
191.2289255754
 22
77.6454216609
 32
0.0
 13
191.2289255754
 23
77.6454216609
 33
0.0
  0
LINE
  5
1BD
330
1B8
100
AcDbEntity
  8
SLD-0
100
AcDbLine
 10
182.8747088393
 20
82.1454216609
 30
0.0
 11
192.4789255754
 21
82.1454216609
 31
0.0
  0
LINE
  5
1BE
330
1B8
100
AcDbEntity
  8
SLD-0
100
AcDbLine
 10
180.5747088393
 20
75.6454216609
 30
0.0
 11
192.4789255754
 21
75.6454216609
 31
0.0
  0
LINE
  5
1BF
330
1B8
100
AcDbEntity
  8
SLD-0
100
AcDbLine
 10
191.4789255754
 20
82.1454216609
 30
0.0
 11
191.4789255754
 21
75.6454216609
 31
0.0
  0
MTEXT
  5
1C0
330
1B8
100
AcDbEntity
  8
SLD-0
100
AcDbMText
 10
188.2562564006
 20
76.508268909
 30
0.0
 40
2.5
 41
0.0
 71
     1
 72
     1
  1
6.5
  7
SLDTEXTSTYLE0
 11
-7.044195017643634E-15
 21
1.0
 31
0.0
 73
     1
 44
1.0
  0
ENDBLK
  5
1BA
330
1B8
100
AcDbEntity
  8
0
100
AcDbBlockEnd
  0
BLOCK
  5
1C2
330
1C1
100
AcDbEntity
  8
0
100
AcDbBlockBegin
  2
SW_NOTE_2
 70
     0
 10
0.0
 20
0.0
 30
0.0
  3
SW_NOTE_2
  1

  0
LINE
  5
1C4
330
1C1
100
AcDbEntity
  8
SLD-0
 62
     0
100
AcDbLine
 10
-13.2869613627
 20
0.0
 30
0.0
 11
0.0
 21
0.0
 31
0.0
  0
MTEXT
  5
1C5
330
1C1
100
AcDbEntity
  8
SLD-0
 62
     0
100
AcDbMText
 10
-13.6747475929
 20
6.6571013687
 30
0.0
 40
2.5
 41
0.0
 71
     1
 72
     1
  1
1 HOLE,
  7
SLDTEXTSTYLE0
 73
     1
 44
1.0
  0
MTEXT
  5
1C6
330
1C1
100
AcDbEntity
  8
SLD-0
 62
     0
100
AcDbMText
 10
-12.7372475929
 20
3.1571012607
 30
0.0
 40
2.5
 41
0.0
 71
     1
 72
     1
  1
8-32
  7
SLDTEXTSTYLE0
 73
     1
 44
1.0
  0
ENDBLK
  5
1C3
330
1C1
100
AcDbEntity
  8
0
100
AcDbBlockEnd
  0
BLOCK
  5
1CB
330
1CA
100
AcDbEntity
  8
0
100
AcDbBlockBegin
  2
SW_CENTERMARKSYMBOL_0
 70
     0
 10
0.0
 20
0.0
 30
0.0
  3
SW_CENTERMARKSYMBOL_0
  1

  0
LINE
  5
1CD
330
1CA
100
AcDbEntity
  8
SLD-0
 62
     0
100
AcDbLine
 10
0.0
 20
0.0
 30
0.0
 11
0.0
 21
1.0
 31
0.0
  0
LINE
  5
1CE
330
1CA
100
AcDbEntity
  8
SLD-0
 62
     0
100
AcDbLine
 10
0.0
 20
0.0
 30
0.0
 11
-1.0
 21
0.0
 31
0.0
  0
LINE
  5
1CF
330
1CA
100
AcDbEntity
  8
SLD-0
 62
     0
100
AcDbLine
 10
0.0
 20
0.0
 30
0.0
 11
0.0
 21
-1.0
 31
0.0
  0
LINE
  5
1D0
330
1CA
100
AcDbEntity
  8
SLD-0
 62
     0
100
AcDbLine
 10
0.0
 20
0.0
 30
0.0
 11
1.0
 21
0.0
 31
0.0
  0
LINE
  5
1D1
330
1CA
100
AcDbEntity
  8
SLD-0
 62
     0
100
AcDbLine
 10
0.0
 20
2.0
 30
0.0
 11
0.0
 21
9.0
 31
0.0
  0
LINE
  5
1D2
330
1CA
100
AcDbEntity
  8
SLD-0
 62
     0
100
AcDbLine
 10
-2.0
 20
0.0
 30
0.0
 11
-9.0
 21
0.0
 31
0.0
  0
LINE
  5
1D3
330
1CA
100
AcDbEntity
  8
SLD-0
 62
     0
100
AcDbLine
 10
0.0
 20
-2.0
 30
0.0
 11
0.0
 21
-17.2405889294
 31
0.0
  0
LINE
  5
1D4
330
1CA
100
AcDbEntity
  8
SLD-0
 62
     0
100
AcDbLine
 10
2.0
 20
0.0
 30
0.0
 11
9.0
 21
0.0
 31
0.0
  0
ENDBLK
  5
1CC
330
1CA
100
AcDbEntity
  8
0
100
AcDbBlockEnd
  0
ENDSEC
  0
SECTION
  2
ENTITIES
  0
HATCH
  5
75
330
1F
100
AcDbEntity
  8
DIM
 62
     7
100
AcDbHatch
 10
0.0
 20
0.0
 30
0.0
210
0.0
220
0.0
230
1.0
  2
SOLID
 70
     1
 71
     0
 91
        1
 92
        0
 93
       10
 72
     2
 10
192.1950854383542
 20
35.8258171842087
 40
3.045751395731247
 50
249.2112209143416
 51
308.9221353953371
 73
     1
 72
     1
 10
194.1086203995888
 20
33.45622111805483
 11
195.0734400608059
 21
32.60893433441247
 72
     1
 10
195.0734400608059
 20
32.60893433441247
 11
191.8633000876501
 21
29.49189462165007
 72
     1
 10
191.8633000876501
 20
29.49189462165007
 11
190.9224996321561
 21
30.30189169176007
 72
     1
 10
190.9224996321561
 20
30.30189169176007
 11
191.5535515525713
 21
30.91779208223109
 72
     1
 10
191.5535515525713
 20
30.91779208223109
 11
187.5443492423757
 21
34.40239592250578
 72
     2
 10
188.5592906719164
 20
35.5499562982663
 40
1.531992467805808
 50
131.4906380929588
 51
229.7089352075133
 73
     0
 72
     1
 10
187.5685958244008
 20
36.71851294666634
 11
188.8752240792825
 21
37.98010002317385
 72
     1
 10
188.8752240792825
 20
37.98010002317385
 11
189.890417926685
 21
37.08456812235607
 72
     2
 10
191.8636882300577
 20
35.43717543496128
 40
2.570544369711283
 50
140.1430462780655
 51
253.045252507401
 73
     1
 97
        0
 75
     0
 76
     1
 98
        1
 10
0.0
 20
0.0
  0
HATCH
  5
76
330
1F
100
AcDbEntity
  8
DIM
 62
     1
100
AcDbHatch
 10
0.0
 20
0.0
 30
0.0
210
0.0
220
0.0
230
1.0
  2
SOLID
 70
     1
 71
     0
 91
        1
 92
        0
 93
       10
 72
     2
 10
192.3282508773181
 20
35.07161754550665
 40
3.18163670452787
 50
234.1674444878508
 51
314.4407074583991
 73
     0
 72
     2
 10
192.6459071680426
 20
35.61243935098484
 40
2.57756748834625
 50
317.8184992995783
 51
398.0564711573082
 73
     0
 72
     1
 10
194.67549301109
 20
34.02352920164319
 11
195.6609419040728
 21
33.16483226175369
 72
     1
 10
195.6609419040728
 20
33.16483226175369
 11
196.9026232188666
 21
34.36926520416092
 72
     2
 10
196.0092308932045
 20
35.59721193598185
 40
1.518552937418266
 50
306.0377529468126
 51
403.4396461533865
 73
     1
 72
     1
 10
197.1118507578768
 20
36.64135390801998
 11
192.9850948995335
 21
40.23053017665394
 72
     1
 10
192.9850948995335
 20
40.23053017665394
 11
193.6093462014608
 21
40.83958860749127
 72
     1
 10
193.6093462014608
 20
40.83958860749127
 11
192.6788396912767
 21
41.6697808273358
 72
     1
 10
192.6788396912767
 20
41.6697808273358
 11
189.4432542428669
 21
38.54286058072169
 72
     1
 10
189.4432542428669
 20
38.54286058072169
 11
190.4656621202154
 21
37.65107005360088
 97
        0
 75
     0
 76
     1
 98
        1
 10
0.0
 20
0.0
  0
LINE
  5
77
330
1F
100
AcDbEntity
  8
0
  6
Continuous
 62
     7
370
     0
100
AcDbLine
 10
167.8593775185
 20
17.7745192513
 30
0.0
 11
168.8593775185
 21
17.7745192513
 31
0.0
  0
LINE
  5
78
330
1F
100
AcDbEntity
  8
0
  6
Continuous
 62
     7
370
     0
100
AcDbLine
 10
164.8593775185
 20
17.7745192513
 30
0.0
 11
167.3593775185
 21
17.7745192513
 31
0.0
  0
LINE
  5
79
330
1F
100
AcDbEntity
  8
0
  6
Continuous
 62
     7
370
     0
100
AcDbLine
 10
181.3593775185
 20
15.2745192513
 30
0.0
 11
181.3593775185
 21
20.2745192513
 31
0.0
  0
LINE
  5
7A
330
1F
100
AcDbEntity
  8
0
  6
Continuous
 62
     7
370
     0
100
AcDbLine
 10
174.3593775185
 20
16.2745192513
 30
0.0
 11
181.3593775185
 21
15.2745192513
 31
0.0
  0
LINE
  5
7B
330
1F
100
AcDbEntity
  8
0
  6
Continuous
 62
     7
370
     0
100
AcDbLine
 10
168.3593775185
 20
16.7745192513
 30
0.0
 11
168.3593775185
 21
14.2745192513
 31
0.0
  0
LINE
  5
7C
330
1F
100
AcDbEntity
  8
0
  6
Continuous
 62
     7
370
     0
100
AcDbLine
 10
181.3593775185
 20
20.2745192513
 30
0.0
 11
174.3593775185
 21
19.2745192513
 31
0.0
  0
LINE
  5
7D
330
1F
100
AcDbEntity
  8
0
  6
Continuous
 62
     7
370
     0
100
AcDbLine
 10
173.3593775185
 20
17.7745192513
 30
0.0
 11
182.3593775185
 21
17.7745192513
 31
0.0
  0
LINE
  5
7E
330
1F
100
AcDbEntity
  8
0
  6
Continuous
 62
     7
370
     0
100
AcDbLine
 10
168.3593775185
 20
18.2745192513
 30
0.0
 11
168.3593775185
 21
17.2745192513
 31
0.0
  0
LINE
  5
7F
330
1F
100
AcDbEntity
  8
0
  6
Continuous
 62
     7
370
     0
100
AcDbLine
 10
169.3593775185
 20
17.7745192513
 30
0.0
 11
171.8593775185
 21
17.7745192513
 31
0.0
  0
LINE
  5
80
330
1F
100
AcDbEntity
  8
0
  6
Continuous
 62
     7
370
     0
100
AcDbLine
 10
168.3593775185
 20
21.2745192513
 30
0.0
 11
168.3593775185
 21
18.7745192513
 31
0.0
  0
LINE
  5
81
330
1F
100
AcDbEntity
  8
0
  6
Continuous
 62
     7
370
     0
100
AcDbLine
 10
174.3593775185
 20
19.2745192513
 30
0.0
 11
174.3593775185
 21
16.2745192513
 31
0.0
  0
LINE
  5
82
330
1F
100
AcDbEntity
  8
0
370
     0
100
AcDbLine
 10
195.0734400608
 20
32.6089343344
 30
0.0
 11
191.8633000877
 21
29.4918946217
 31
0.0
  0
LINE
  5
83
330
1F
100
AcDbEntity
  8
0
370
     0
100
AcDbLine
 10
191.8633000877
 20
29.4918946217
 30
0.0
 11
190.9224996322
 21
30.3018916918
 31
0.0
  0
LINE
  5
84
330
1F
100
AcDbEntity
  8
0
370
     0
100
AcDbLine
 10
190.9224996322
 20
30.3018916918
 30
0.0
 11
191.5535515526
 21
30.9177920822
 31
0.0
  0
LINE
  5
85
330
1F
100
AcDbEntity
  8
0
370
     0
100
AcDbLine
 10
187.5443492424
 20
34.4023959225
 30
0.0
 11
191.5535515526
 21
30.9177920822
 31
0.0
  0
LINE
  5
86
330
1F
100
AcDbEntity
  8
0
370
     0
100
AcDbLine
 10
188.8752240793
 20
37.9801000232
 30
0.0
 11
187.5685958244
 21
36.7185129467
 31
0.0
  0
LINE
  5
87
330
1F
100
AcDbEntity
  8
0
370
     0
100
AcDbLine
 10
188.8752240793
 20
37.9801000232
 30
0.0
 11
189.8904179267
 21
37.0845681224
 31
0.0
  0
LINE
  5
88
330
1F
100
AcDbEntity
  8
0
370
     0
100
AcDbLine
 10
194.1086203996
 20
33.4562211181
 30
0.0
 11
195.0734400608
 21
32.6089343344
 31
0.0
  0
LINE
  5
89
330
1F
100
AcDbEntity
  8
0
 62
     1
370
     0
100
AcDbLine
 10
190.4656621202
 20
37.6510700536
 30
0.0
 11
189.4432542429
 21
38.5428605807
 31
0.0
  0
LINE
  5
8A
330
1F
100
AcDbEntity
  8
0
 62
     1
370
     0
100
AcDbLine
 10
189.4432542429
 20
38.5428605807
 30
0.0
 11
192.6788396913
 21
41.6697808273
 31
0.0
  0
LINE
  5
8B
330
1F
100
AcDbEntity
  8
0
 62
     1
370
     0
100
AcDbLine
 10
192.6788396913
 20
41.6697808273
 30
0.0
 11
193.6093462015
 21
40.8395886075
 31
0.0
  0
LINE
  5
8C
330
1F
100
AcDbEntity
  8
0
 62
     1
370
     0
100
AcDbLine
 10
193.6093462015
 20
40.8395886075
 30
0.0
 11
192.9850948995
 21
40.2305301767
 31
0.0
  0
LINE
  5
8D
330
1F
100
AcDbEntity
  8
0
 62
     1
370
     0
100
AcDbLine
 10
192.9850948995
 20
40.2305301767
 30
0.0
 11
197.1118507579
 21
36.641353908
 31
0.0
  0
LINE
  5
8E
330
1F
100
AcDbEntity
  8
0
 62
     1
370
     0
100
AcDbLine
 10
194.6754930111
 20
34.0235292016
 30
0.0
 11
195.6609419041
 21
33.1648322618
 31
0.0
  0
LINE
  5
8F
330
1F
100
AcDbEntity
  8
0
 62
     1
370
     0
100
AcDbLine
 10
195.6609419041
 20
33.1648322618
 30
0.0
 11
196.9026232189
 21
34.3692652042
 31
0.0
  0
LINE
  5
90
330
1F
100
AcDbEntity
  8
0
  6
Continuous
 62
     7
370
     0
100
AcDbLine
 10
185.6907965209
 20
13.1152464079
 30
0.0
 11
285.6907965209
 21
13.1152464079
 31
0.0
  0
LINE
  5
91
330
1F
100
AcDbEntity
  8
0
  6
Continuous
 62
     7
370
     0
100
AcDbLine
 10
185.6907965209
 20
18.1152464079
 30
0.0
 11
235.6907965209
 21
18.1152464079
 31
0.0
  0
LINE
  5
92
330
1F
100
AcDbEntity
  8
0
  6
Continuous
 62
     7
370
     0
100
AcDbLine
 10
185.6907965209
 20
23.1152464079
 30
0.0
 11
235.6907965209
 21
23.1152464079
 31
0.0
  0
LINE
  5
93
330
1F
100
AcDbEntity
  8
0
  6
Continuous
 62
     7
370
     0
100
AcDbLine
 10
185.6907965209
 20
28.1152464079
 30
0.0
 11
285.6907965209
 21
28.1152464079
 31
0.0
  0
LINE
  5
94
330
1F
100
AcDbEntity
  8
0
  6
Continuous
 62
     7
370
     0
100
AcDbLine
 10
235.6907965209
 20
33.1152464079
 30
0.0
 11
285.6907965209
 21
33.1152464079
 31
0.0
  0
LINE
  5
95
330
1F
100
AcDbEntity
  8
0
  6
Continuous
 62
     7
370
    15
100
AcDbLine
 10
235.6907965209
 20
18.1152464079
 30
0.0
 11
285.6907965209
 21
18.1152464079
 31
0.0
  0
LINE
  5
96
330
1F
100
AcDbEntity
  8
0
  6
Continuous
 62
     7
370
     0
100
AcDbLine
 10
185.6907965209
 20
43.1152464079
 30
0.0
 11
285.6907965209
 21
43.1152464079
 31
0.0
  0
LINE
  5
97
330
1F
100
AcDbEntity
  8
0
  6
Continuous
 62
     7
370
     0
100
AcDbLine
 10
251.237217675
 20
8.1152464079
 30
0.0
 11
251.237217675
 21
18.1152464079
 31
0.0
  0
LINE
  5
98
330
1F
100
AcDbEntity
  8
0
  6
Continuous
 62
     7
370
     0
100
AcDbLine
 10
235.6907965209
 20
8.1152464079
 30
0.0
 11
235.6907965209
 21
43.1152464079
 31
0.0
  0
LINE
  5
99
330
1F
100
AcDbEntity
  8
0
  6
Continuous
 62
     7
370
     0
100
AcDbLine
 10
251.237217675
 20
28.1152464079
 30
0.0
 11
251.237217675
 21
33.1152464079
 31
0.0
  0
LINE
  5
9A
330
1F
100
AcDbEntity
  8
0
  6
Continuous
 62
     7
370
     0
100
AcDbLine
 10
214.4164086353
 20
8.1152464079
 30
0.0
 11
214.4164086353
 21
28.1152464079
 31
0.0
  0
LINE
  5
9B
330
1F
100
AcDbEntity
  8
0
  6
Continuous
 62
     7
370
     0
100
AcDbLine
 10
199.7785887506
 20
8.1152464079
 30
0.0
 11
199.7785887506
 21
28.1152464079
 31
0.0
  0
LINE
  5
9C
330
1F
100
AcDbEntity
  8
0
  6
Continuous
 62
     7
370
     0
100
AcDbLine
 10
185.6907965209
 20
8.1152464079
 30
0.0
 11
185.6907965209
 21
43.1152464079
 31
0.0
  0
LINE
  5
9D
330
1F
100
AcDbEntity
  8
0
  6
Continuous
 62
     7
370
    15
100
AcDbLine
 10
8.6907965209
 20
104.7436369915
 30
0.0
 11
14.6907965209
 21
104.7436369915
 31
0.0
  0
LINE
  5
9E
330
1F
100
AcDbEntity
  8
0
  6
Continuous
 62
     7
370
    15
100
AcDbLine
 10
285.6907965209
 20
104.7436369915
 30
0.0
 11
279.6907965209
 21
104.7436369915
 31
0.0
  0
LINE
  5
9F
330
1F
100
AcDbEntity
  8
0
  6
Continuous
 62
     7
370
    15
100
AcDbLine
 10
147.1907965209
 20
8.1152464079
 30
0.0
 11
147.1907965209
 21
14.1152464079
 31
0.0
  0
LINE
  5
A0
330
1F
100
AcDbEntity
  8
0
  6
Continuous
 62
     7
370
    15
100
AcDbLine
 10
147.1907965209
 20
201.3720275751
 30
0.0
 11
147.1907965209
 21
195.3720275751
 31
0.0
  0
LINE
  5
A1
330
1F
100
AcDbEntity
  8
0
  6
Continuous
 62
     7
370
    15
100
AcDbLine
 10
43.3207965209
 20
201.3720275751
 30
0.0
 11
43.3207965209
 21
202.8720275751
 31
0.0
  0
LINE
  5
A2
330
1F
100
AcDbEntity
  8
0
  6
Continuous
 62
     7
370
    15
100
AcDbLine
 10
77.9507965209
 20
201.3720275751
 30
0.0
 11
77.9507965209
 21
202.8720275751
 31
0.0
  0
LINE
  5
A3
330
1F
100
AcDbEntity
  8
0
  6
Continuous
 62
     7
370
    15
100
AcDbLine
 10
112.5807965209
 20
201.3720275751
 30
0.0
 11
112.5807965209
 21
202.8720275751
 31
0.0
  0
LINE
  5
A4
330
1F
100
AcDbEntity
  8
0
  6
Continuous
 62
     7
370
    15
100
AcDbLine
 10
147.2107965209
 20
201.3720275751
 30
0.0
 11
147.2107965209
 21
202.8720275751
 31
0.0
  0
LINE
  5
A5
330
1F
100
AcDbEntity
  8
0
  6
Continuous
 62
     7
370
    15
100
AcDbLine
 10
181.8407965209
 20
201.3720275751
 30
0.0
 11
181.8407965209
 21
202.8720275751
 31
0.0
  0
LINE
  5
A6
330
1F
100
AcDbEntity
  8
0
  6
Continuous
 62
     7
370
    15
100
AcDbLine
 10
216.4707965209
 20
201.3720275751
 30
0.0
 11
216.4707965209
 21
202.8720275751
 31
0.0
  0
LINE
  5
A7
330
1F
100
AcDbEntity
  8
0
  6
Continuous
 62
     7
370
    15
100
AcDbLine
 10
251.1007965209
 20
201.3720275751
 30
0.0
 11
251.1007965209
 21
202.8720275751
 31
0.0
  0
LINE
  5
A8
330
1F
100
AcDbEntity
  8
0
  6
Continuous
 62
     7
370
    15
100
AcDbLine
 10
43.3157965209
 20
8.1152464079
 30
0.0
 11
43.3157965209
 21
6.6152464079
 31
0.0
  0
LINE
  5
A9
330
1F
100
AcDbEntity
  8
0
  6
Continuous
 62
     7
370
    15
100
AcDbLine
 10
77.9407965209
 20
8.1152464079
 30
0.0
 11
77.9407965209
 21
6.6152464079
 31
0.0
  0
LINE
  5
AA
330
1F
100
AcDbEntity
  8
0
  6
Continuous
 62
     7
370
    15
100
AcDbLine
 10
112.5657965209
 20
8.1152464079
 30
0.0
 11
112.5657965209
 21
6.6152464079
 31
0.0
  0
LINE
  5
AB
330
1F
100
AcDbEntity
  8
0
  6
Continuous
 62
     7
370
    15
100
AcDbLine
 10
147.1907965209
 20
8.1152464079
 30
0.0
 11
147.1907965209
 21
6.6152464079
 31
0.0
  0
LINE
  5
AC
330
1F
100
AcDbEntity
  8
0
  6
Continuous
 62
     7
370
    15
100
AcDbLine
 10
181.8157965209
 20
8.1152464079
 30
0.0
 11
181.8157965209
 21
6.6152464079
 31
0.0
  0
LINE
  5
AD
330
1F
100
AcDbEntity
  8
0
  6
Continuous
 62
     7
370
    15
100
AcDbLine
 10
216.4407965209
 20
8.1152464079
 30
0.0
 11
216.4407965209
 21
6.6152464079
 31
0.0
  0
LINE
  5
AE
330
1F
100
AcDbEntity
  8
0
  6
Continuous
 62
     7
370
     0
100
AcDbLine
 10
285.6907965209
 20
201.3720275751
 30
0.0
 11
8.6907965209
 21
201.3720275751
 31
0.0
  0
LINE
  5
AF
330
1F
100
AcDbEntity
  8
0
  6
Continuous
 62
     7
370
     0
100
AcDbLine
 10
285.6907965209
 20
8.1152464079
 30
0.0
 11
285.6907965209
 21
201.3720275751
 31
0.0
  0
LINE
  5
B0
330
1F
100
AcDbEntity
  8
0
  6
Continuous
 62
     7
370
     0
100
AcDbLine
 10
8.6907965209
 20
201.3720275751
 30
0.0
 11
8.6907965209
 21
8.1152464079
 31
0.0
  0
LINE
  5
B1
330
1F
100
AcDbEntity
  8
0
  6
Continuous
 62
     7
370
     0
100
AcDbLine
 10
8.6907965209
 20
8.1152464079
 30
0.0
 11
285.6907965209
 21
8.1152464079
 31
0.0
  0
LINE
  5
B2
330
1F
100
AcDbEntity
  8
0
  6
Continuous
 62
     7
370
    15
100
AcDbLine
 10
251.0657965209
 20
8.1152464079
 30
0.0
 11
251.0657965209
 21
6.6152464079
 31
0.0
  0
LINE
  5
B3
330
1F
100
AcDbEntity
  8
0
  6
Continuous
 62
     7
370
    15
100
AcDbLine
 10
8.6907965209
 20
40.3252464079
 30
0.0
 11
7.1907965209
 21
40.3252464079
 31
0.0
  0
LINE
  5
B4
330
1F
100
AcDbEntity
  8
0
  6
Continuous
 62
     7
370
    15
100
AcDbLine
 10
8.6907965209
 20
72.5352464079
 30
0.0
 11
7.1907965209
 21
72.5352464079
 31
0.0
  0
LINE
  5
B5
330
1F
100
AcDbEntity
  8
0
  6
Continuous
 62
     7
370
    15
100
AcDbLine
 10
8.6907965209
 20
104.7452464079
 30
0.0
 11
7.1907965209
 21
104.7452464079
 31
0.0
  0
LINE
  5
B6
330
1F
100
AcDbEntity
  8
0
  6
Continuous
 62
     7
370
    15
100
AcDbLine
 10
8.6907965209
 20
136.9552464079
 30
0.0
 11
7.1907965209
 21
136.9552464079
 31
0.0
  0
LINE
  5
B7
330
1F
100
AcDbEntity
  8
0
  6
Continuous
 62
     7
370
    15
100
AcDbLine
 10
8.6907965209
 20
169.1652464079
 30
0.0
 11
7.1907965209
 21
169.1652464079
 31
0.0
  0
LINE
  5
B8
330
1F
100
AcDbEntity
  8
0
  6
Continuous
 62
     7
370
    15
100
AcDbLine
 10
285.6907965209
 20
40.3252464079
 30
0.0
 11
287.1907965209
 21
40.3252464079
 31
0.0
  0
LINE
  5
B9
330
1F
100
AcDbEntity
  8
0
  6
Continuous
 62
     7
370
    15
100
AcDbLine
 10
285.6907965209
 20
72.5352464079
 30
0.0
 11
287.1907965209
 21
72.5352464079
 31
0.0
  0
LINE
  5
BA
330
1F
100
AcDbEntity
  8
0
  6
Continuous
 62
     7
370
    15
100
AcDbLine
 10
285.6907965209
 20
104.7452464079
 30
0.0
 11
287.1907965209
 21
104.7452464079
 31
0.0
  0
LINE
  5
BB
330
1F
100
AcDbEntity
  8
0
  6
Continuous
 62
     7
370
    15
100
AcDbLine
 10
285.6907965209
 20
136.9552464079
 30
0.0
 11
287.1907965209
 21
136.9552464079
 31
0.0
  0
LINE
  5
BC
330
1F
100
AcDbEntity
  8
0
  6
Continuous
 62
     7
370
    15
100
AcDbLine
 10
285.6907965209
 20
169.1652464079
 30
0.0
 11
287.1907965209
 21
169.1652464079
 31
0.0
  0
CIRCLE
  5
BD
330
1F
100
AcDbEntity
  8
0
  6
Continuous
 62
     7
370
     0
100
AcDbCircle
 10
168.3593775185
 20
17.7745192513
 30
0.0
 40
1.5
  0
CIRCLE
  5
BE
330
1F
100
AcDbEntity
  8
0
  6
Continuous
 62
     7
370
     0
100
AcDbCircle
 10
168.3593775185
 20
17.7745192513
 30
0.0
 40
2.5
  0
ARC
  5
BF
330
1F
100
AcDbEntity
  8
0
370
     0
100
AcDbCircle
 10
188.5592906719
 20
35.5499562983
 30
0.0
 40
1.531992467805816
100
AcDbArc
 50
130.2910647925
 51
228.509361907
  0
ARC
  5
C0
330
1F
100
AcDbEntity
  8
0
370
     0
100
AcDbCircle
 10
191.8636882301
 20
35.437175435
 30
0.0
 40
2.570544369711281
100
AcDbArc
 50
140.1430462781
 51
253.0452525074
  0
ARC
  5
C1
330
1F
100
AcDbEntity
  8
0
370
     0
100
AcDbCircle
 10
192.1950854384
 20
35.8258171842
 30
0.0
 40
3.045751395731261
100
AcDbArc
 50
249.2112209143
 51
308.9221353953
  0
ARC
  5
C2
330
1F
100
AcDbEntity
  8
0
 62
     1
370
     0
100
AcDbCircle
 10
196.0092308932
 20
35.597211936
 30
0.0
 40
1.518552937418265
100
AcDbArc
 50
306.0377529468
 51
43.4396461534
  0
ARC
  5
C3
330
1F
100
AcDbEntity
  8
0
 62
     1
370
     0
100
AcDbCircle
 10
192.3282508773
 20
35.0716175455
 30
0.0
 40
3.181636704527866
100
AcDbArc
 50
45.5592925416
 51
125.8325555121
  0
ARC
  5
C4
330
1F
100
AcDbEntity
  8
0
 62
     1
370
     0
100
AcDbCircle
 10
192.645907168
 20
35.612439351
 30
0.0
 40
2.577567488346255
100
AcDbArc
 50
321.9435288427
 51
42.1815007004
  0
MTEXT
  5
C6
330
1F
100
AcDbEntity
  8
0
  6
Continuous
 62
     7
370
     0
100
AcDbMText
 10
165.5426850804
 20
13.2208440369
 30
0.0
 40
2.6458333333
 41
0.0
 71
     1
 72
     1
  1
UNIT:m/m
  7
SLDTEXTSTYLE0
 73
     1
 44
1.0
  0
INSERT
  5
CD
330
1F
100
AcDbEntity
  8
0
  6
Continuous
 62
     7
370
     0
100
AcDbBlockReference
  2
SW_NOTE_0
 10
12.2315076053
 20
193.8904304251
 30
0.0
  0
MTEXT
  5
CF
330
1F
100
AcDbEntity
  8
0
  6
Continuous
 62
     7
370
     0
100
AcDbMText
 10
198.7251893935
 20
40.4406774139
 30
0.0
 40
2.38125
 41
0.0
 71
     1
 72
     1
  1
Unice E-O Services Inc.
  7
SLDTEXTSTYLE1
 73
     1
 44
1.0
  0
MTEXT
  5
D0
330
1F
100
AcDbEntity
  8
0
  6
Continuous
 62
     7
370
     0
100
AcDbMText
 10
217.5590538149
 20
21.5867148511
 30
0.0
 40
1.8520833333
 41
0.0
 71
     1
 72
     1
  1
2010/12/30
  7
SLDTEXTSTYLE0
 73
     1
 44
1.0
  0
MTEXT
  5
D1
330
1F
100
AcDbEntity
  8
0
  6
Continuous
 62
     7
370
     0
100
AcDbMText
 10
252.6088982507
 20
16.87117774
 30
0.0
 40
2.5
 41
0.0
 71
     1
 72
     1
  1
1:1
  7
SLDTEXTSTYLE0
 73
     1
 44
1.0
  0
MTEXT
  5
D2
330
1F
100
AcDbEntity
  8
0
  6
Continuous
 62
     7
370
     0
100
AcDbMText
 10
252.3075599985
 20
32.1519195438
 30
0.0
 40
2.5
 41
0.0
 71
     1
 72
     1
  1
04MAD-1
  7
SLDTEXTSTYLE0
 73
     1
 44
1.0
  0
MTEXT
  5
D3
330
1F
100
AcDbEntity
  8
0
  6
Continuous
 62
     7
370
     0
100
AcDbMText
 10
252.3075599985
 20
38.1082117879
 30
0.0
 40
2.5
 41
0.0
 71
     1
 72
     1
  1
04MAD-1
  7
SLDTEXTSTYLE0
 73
     1
 44
1.0
  0
MTEXT
  5
D4
330
1F
100
AcDbEntity
  8
0
  6
Continuous
 62
     7
370
     0
100
AcDbMText
 10
236.3921866786
 20
16.5064795728
 30
0.0
 40
2.1166666667
 41
0.0
 71
     1
 72
     1
  1
SCALE:
  7
SLDTEXTSTYLE0
 73
     1
 44
1.0
  0
MTEXT
  5
D5
330
1F
100
AcDbEntity
  8
0
  6
Continuous
 62
     7
370
     0
100
AcDbMText
 10
186.3336086789
 20
21.5867148511
 30
0.0
 40
1.8520833333
 41
0.0
 71
     1
 72
     1
  1
DRAWN
  7
SLDTEXTSTYLE0
 73
     1
 44
1.0
  0
MTEXT
  5
D6
330
1F
100
AcDbEntity
  8
0
  6
Continuous
 62
     7
370
     0
100
AcDbMText
 10
203.2228367937
 20
26.683208308
 30
0.0
 40
1.8520833333
 41
0.0
 71
     1
 72
     1
  1
NAME
  7
SLDTEXTSTYLE0
 73
     1
 44
1.0
  0
MTEXT
  5
D7
330
1F
100
AcDbEntity
  8
0
  6
Continuous
 62
     7
370
     0
100
AcDbMText
 10
220.8710155758
 20
26.683208308
 30
0.0
 40
1.8520833333
 41
0.0
 71
     1
 72
     1
  1
DATE
  7
SLDTEXTSTYLE0
 73
     1
 44
1.0
  0
MTEXT
  5
D8
330
1F
100
AcDbEntity
  8
0
  6
Continuous
 62
     7
370
     0
100
AcDbMText
 10
236.2756316645
 20
31.7872213766
 30
0.0
 40
2.1166666667
 41
0.0
 71
     1
 72
     1
  1
DWG. NO.
  7
SLDTEXTSTYLE0
 73
     1
 44
1.0
  0
MTEXT
  5
D9
330
1F
100
AcDbEntity
  8
0
  6
Continuous
 62
     7
370
     0
100
AcDbMText
 10
236.3629907088
 20
41.8840658243
 30
0.0
 40
2.1166666667
 41
0.0
 71
     1
 72
     1
  1
TITLE:
  7
SLDTEXTSTYLE0
 73
     1
 44
1.0
  0
MTEXT
  5
DA
330
1F
100
AcDbEntity
  8
0
  6
Continuous
 62
     7
370
     0
100
AcDbMText
 10
203.0314209802
 20
16.2403789724
 30
0.0
 40
1.8520833333
 41
0.0
 71
     1
 72
     1
  1
Johnny
  7
SLDTEXTSTYLE0
 73
     1
 44
1.0
  0
MTEXT
  5
DB
330
1F
100
AcDbEntity
  8
0
  6
Continuous
 62
     7
370
     0
100
AcDbMText
 10
217.5590538149
 20
16.2403789724
 30
0.0
 40
1.8520833333
 41
0.0
 71
     1
 72
     1
  1
2010/12/30
  7
SLDTEXTSTYLE0
 73
     1
 44
1.0
  0
MTEXT
  5
DC
330
1F
100
AcDbEntity
  8
0
  6
Continuous
 62
     7
370
     0
100
AcDbMText
 10
186.3336086789
 20
16.2403789724
 30
0.0
 40
1.8520833333
 41
0.0
 71
     1
 72
     1
  1
ENG APPR.
  7
SLDTEXTSTYLE0
 73
     1
 44
1.0
  0
MTEXT
  5
DD
330
1F
100
AcDbEntity
  8
0
  6
Continuous
 62
     7
370
     0
100
AcDbMText
 10
236.3921866786
 20
11.6853389288
 30
0.0
 40
2.1166666667
 41
0.0
 71
     1
 72
     1
  1
REV
  7
SLDTEXTSTYLE0
 73
     1
 44
1.0
  0
MTEXT
  5
DE
330
1F
100
AcDbEntity
  8
0
  6
Continuous
 62
     7
370
     0
100
AcDbMText
 10
236.3629907088
 20
26.9493089085
 30
0.0
 40
2.1166666667
 41
0.0
 71
     1
 72
     1
  1
MATERIAL:
  7
SLDTEXTSTYLE0
 73
     1
 44
1.0
  0
MTEXT
  5
DF
330
1F
100
AcDbEntity
  8
0
  6
Continuous
 62
     7
370
     0
100
AcDbMText
 10
252.6088982507
 20
22.2175136187
 30
0.0
 40
2.5
 41
0.0
 71
     1
 72
     1
  1
N/A
  7
SLDTEXTSTYLE0
 73
     1
 44
1.0
  0
MTEXT
  5
E0
330
1F
100
AcDbEntity
  8
0
  6
Continuous
 62
     7
370
     0
100
AcDbMText
 10
26.6029931533
 20
204.453351657
 30
0.0
 40
2.1166666667
 41
0.0
 71
     1
 72
     1
  1
1
  7
SLDTEXTSTYLE0
 73
     1
 44
1.0
  0
MTEXT
  5
E1
330
1F
100
AcDbEntity
  8
0
  6
Continuous
 62
     7
370
     0
100
AcDbMText
 10
60.7170995724
 20
204.453351657
 30
0.0
 40
2.1166666667
 41
0.0
 71
     1
 72
     1
  1
2
  7
SLDTEXTSTYLE0
 73
     1
 44
1.0
  0
MTEXT
  5
E2
330
1F
100
AcDbEntity
  8
0
  6
Continuous
 62
     7
370
     0
100
AcDbMText
 10
94.9009943906
 20
204.453351657
 30
0.0
 40
2.1166666667
 41
0.0
 71
     1
 72
     1
  1
3
  7
SLDTEXTSTYLE0
 73
     1
 44
1.0
  0
MTEXT
  5
E3
330
1F
100
AcDbEntity
  8
0
  6
Continuous
 62
     7
370
     0
100
AcDbMText
 10
129.2533362851
 20
204.2992584364
 30
0.0
 40
2.1166666667
 41
0.0
 71
     1
 72
     1
  1
4
  7
SLDTEXTSTYLE0
 73
     1
 44
1.0
  0
MTEXT
  5
E4
330
1F
100
AcDbEntity
  8
0
  6
Continuous
 62
     7
370
     0
100
AcDbMText
 10
163.702323464
 20
204.453351657
 30
0.0
 40
2.1166666667
 41
0.0
 71
     1
 72
     1
  1
5
  7
SLDTEXTSTYLE0
 73
     1
 44
1.0
  0
MTEXT
  5
E5
330
1F
100
AcDbEntity
  8
0
  6
Continuous
 62
     7
370
     0
100
AcDbMText
 10
198.6382170415
 20
204.453351657
 30
0.0
 40
2.1166666667
 41
0.0
 71
     1
 72
     1
  1
6
  7
SLDTEXTSTYLE0
 73
     1
 44
1.0
  0
MTEXT
  5
E6
330
1F
100
AcDbEntity
  8
0
  6
Continuous
 62
     7
370
     0
100
AcDbMText
 10
234.3630657407
 20
204.453351657
 30
0.0
 40
2.1166666667
 41
0.0
 71
     1
 72
     1
  1
7
  7
SLDTEXTSTYLE0
 73
     1
 44
1.0
  0
MTEXT
  5
E7
330
1F
100
AcDbEntity
  8
0
  6
Continuous
 62
     7
370
     0
100
AcDbMText
 10
266.2787820494
 20
204.453351657
 30
0.0
 40
2.1166666667
 41
0.0
 71
     1
 72
     1
  1
8
  7
SLDTEXTSTYLE0
 73
     1
 44
1.0
  0
MTEXT
  5
E8
330
1F
100
AcDbEntity
  8
0
  6
Continuous
 62
     7
370
     0
100
AcDbMText
 10
5.3568236555
 20
185.8113022879
 30
0.0
 40
2.1166666667
 41
0.0
 71
     1
 72
     1
  1
A
  7
SLDTEXTSTYLE0
 73
     1
 44
1.0
  0
MTEXT
  5
E9
330
1F
100
AcDbEntity
  8
0
  6
Continuous
 62
     7
370
     0
100
AcDbMText
 10
5.5910431831
 20
154.2993048238
 30
0.0
 40
2.1166666667
 41
0.0
 71
     1
 72
     1
  1
B
  7
SLDTEXTSTYLE0
 73
     1
 44
1.0
  0
MTEXT
  5
EA
330
1F
100
AcDbEntity
  8
0
  6
Continuous
 62
     7
370
     0
100
AcDbMText
 10
5.5910431831
 20
121.274351423
 30
0.0
 40
2.1166666667
 41
0.0
 71
     1
 72
     1
  1
C
  7
SLDTEXTSTYLE0
 73
     1
 44
1.0
  0
MTEXT
  5
EB
330
1F
100
AcDbEntity
  8
0
  6
Continuous
 62
     7
370
     0
100
AcDbMText
 10
5.5910431831
 20
88.7453220221
 30
0.0
 40
2.1166666667
 41
0.0
 71
     1
 72
     1
  1
D
  7
SLDTEXTSTYLE0
 73
     1
 44
1.0
  0
MTEXT
  5
EC
330
1F
100
AcDbEntity
  8
0
  6
Continuous
 62
     7
370
     0
100
AcDbMText
 10
5.5910431831
 20
57.5558849197
 30
0.0
 40
2.1166666667
 41
0.0
 71
     1
 72
     1
  1
E
  7
SLDTEXTSTYLE0
 73
     1
 44
1.0
  0
MTEXT
  5
ED
330
1F
100
AcDbEntity
  8
0
  6
Continuous
 62
     7
370
     0
100
AcDbMText
 10
5.5910431831
 20
25.5694212252
 30
0.0
 40
2.1166666667
 41
0.0
 71
     1
 72
     1
  1
F
  7
SLDTEXTSTYLE0
 73
     1
 44
1.0
  0
MTEXT
  5
EE
330
1F
100
AcDbEntity
  8
0
  6
Continuous
 62
     7
370
     0
100
AcDbMText
 10
266.1858616964
 20
6.6236223963
 30
0.0
 40
2.1166666667
 41
0.0
 71
     1
 72
     1
  1
8
  7
SLDTEXTSTYLE0
 73
     1
 44
1.0
  0
MTEXT
  5
EF
330
1F
100
AcDbEntity
  8
0
  6
Continuous
 62
     7
370
     0
100
AcDbMText
 10
234.2701453876
 20
6.6236223963
 30
0.0
 40
2.1166666667
 41
0.0
 71
     1
 72
     1
  1
7
  7
SLDTEXTSTYLE0
 73
     1
 44
1.0
  0
MTEXT
  5
F0
330
1F
100
AcDbEntity
  8
0
  6
Continuous
 62
     7
370
     0
100
AcDbMText
 10
198.5452966885
 20
6.6236223963
 30
0.0
 40
2.1166666667
 41
0.0
 71
     1
 72
     1
  1
6
  7
SLDTEXTSTYLE0
 73
     1
 44
1.0
  0
MTEXT
  5
F1
330
1F
100
AcDbEntity
  8
0
  6
Continuous
 62
     7
370
     0
100
AcDbMText
 10
163.6094031109
 20
6.6236223963
 30
0.0
 40
2.1166666667
 41
0.0
 71
     1
 72
     1
  1
5
  7
SLDTEXTSTYLE0
 73
     1
 44
1.0
  0
MTEXT
  5
F2
330
1F
100
AcDbEntity
  8
0
  6
Continuous
 62
     7
370
     0
100
AcDbMText
 10
129.1604159321
 20
6.4695291758
 30
0.0
 40
2.1166666667
 41
0.0
 71
     1
 72
     1
  1
4
  7
SLDTEXTSTYLE0
 73
     1
 44
1.0
  0
MTEXT
  5
F3
330
1F
100
AcDbEntity
  8
0
  6
Continuous
 62
     7
370
     0
100
AcDbMText
 10
94.8080740376
 20
6.6236223963
 30
0.0
 40
2.1166666667
 41
0.0
 71
     1
 72
     1
  1
3
  7
SLDTEXTSTYLE0
 73
     1
 44
1.0
  0
MTEXT
  5
F4
330
1F
100
AcDbEntity
  8
0
  6
Continuous
 62
     7
370
     0
100
AcDbMText
 10
60.6241792194
 20
6.6236223963
 30
0.0
 40
2.1166666667
 41
0.0
 71
     1
 72
     1
  1
2
  7
SLDTEXTSTYLE0
 73
     1
 44
1.0
  0
MTEXT
  5
F5
330
1F
100
AcDbEntity
  8
0
  6
Continuous
 62
     7
370
     0
100
AcDbMText
 10
26.5100728003
 20
6.6236223963
 30
0.0
 40
2.1166666667
 41
0.0
 71
     1
 72
     1
  1
1
  7
SLDTEXTSTYLE0
 73
     1
 44
1.0
  0
MTEXT
  5
F6
330
1F
100
AcDbEntity
  8
0
  6
Continuous
 62
     7
370
     0
100
AcDbMText
 10
287.1023846145
 20
186.6424909092
 30
0.0
 40
2.1166666667
 41
0.0
 71
     1
 72
     1
  1
A
  7
SLDTEXTSTYLE0
 73
     1
 44
1.0
  0
MTEXT
  5
F7
330
1F
100
AcDbEntity
  8
0
  6
Continuous
 62
     7
370
     0
100
AcDbMText
 10
287.3366041421
 20
155.1304934451
 30
0.0
 40
2.1166666667
 41
0.0
 71
     1
 72
     1
  1
B
  7
SLDTEXTSTYLE0
 73
     1
 44
1.0
  0
MTEXT
  5
F8
330
1F
100
AcDbEntity
  8
0
  6
Continuous
 62
     7
370
     0
100
AcDbMText
 10
287.3366041421
 20
122.1055400442
 30
0.0
 40
2.1166666667
 41
0.0
 71
     1
 72
     1
  1
C
  7
SLDTEXTSTYLE0
 73
     1
 44
1.0
  0
MTEXT
  5
F9
330
1F
100
AcDbEntity
  8
0
  6
Continuous
 62
     7
370
     0
100
AcDbMText
 10
287.3366041421
 20
89.5765106433
 30
0.0
 40
2.1166666667
 41
0.0
 71
     1
 72
     1
  1
D
  7
SLDTEXTSTYLE0
 73
     1
 44
1.0
  0
MTEXT
  5
FA
330
1F
100
AcDbEntity
  8
0
  6
Continuous
 62
     7
370
     0
100
AcDbMText
 10
287.3366041421
 20
58.3870735409
 30
0.0
 40
2.1166666667
 41
0.0
 71
     1
 72
     1
  1
E
  7
SLDTEXTSTYLE0
 73
     1
 44
1.0
  0
MTEXT
  5
FB
330
1F
100
AcDbEntity
  8
0
  6
Continuous
 62
     7
370
     0
100
AcDbMText
 10
287.3366041421
 20
26.4006098464
 30
0.0
 40
2.1166666667
 41
0.0
 71
     1
 72
     1
  1
F
  7
SLDTEXTSTYLE0
 73
     1
 44
1.0
  0
MTEXT
  5
FC
330
1F
100
AcDbEntity
  8
0
  6
Continuous
 62
     7
370
     0
100
AcDbMText
 10
203.1553128802
 20
21.5867148511
 30
0.0
 40
1.8520833333
 41
0.0
 71
     1
 72
     1
  1
Jimmy
  7
SLDTEXTSTYLE0
 73
     1
 44
1.0
  0
MTEXT
  5
FD
330
1F
100
AcDbEntity
  8
0
  6
Continuous
 62
     7
370
     0
100
AcDbMText
 10
252.8482239645
 20
12.0500370959
 30
0.0
 40
2.5
 41
0.0
 71
     1
 72
     1
  1
0
  7
SLDTEXTSTYLE0
 73
     1
 44
1.0
  0
INSERT
  5
103
330
1F
100
AcDbEntity
  8
SLD-0
 62
     7
100
AcDbBlockReference
  2
SW_NOTE_1
 10
198.7251893935
 20
32.9781087458
 30
0.0
  0
LINE
  5
104
330
1F
100
AcDbEntity
  8
0
  6
Continuous
 62
     7
370
    30
100
AcDbLine
 10
238.1669448502
 20
135.4725831616
 30
0.0
 11
238.1669448502
 21
158.0145001417
 31
0.0
  0
LINE
  5
105
330
1F
100
AcDbEntity
  8
0
  6
Continuous
 62
     7
370
    30
100
AcDbLine
 10
208.1669448502
 20
140.6930537857
 30
0.0
 11
208.1669448502
 21
135.4725831616
 31
0.0
  0
LINE
  5
106
330
1F
100
AcDbEntity
  8
0
  6
Continuous
 62
     7
370
    30
100
AcDbLine
 10
235.8669448502
 20
130.1650678843
 30
0.0
 11
235.8669448502
 21
130.8647566846
 31
0.0
  0
LINE
  5
107
330
1F
100
AcDbEntity
  8
0
  6
Continuous
 62
     7
370
    30
100
AcDbLine
 10
210.4669448502
 20
130.8647566846
 30
0.0
 11
210.4669448502
 21
130.1650678843
 31
0.0
  0
ELLIPSE
  5
108
330
1F
100
AcDbEntity
  8
0
  6
Continuous
 62
     7
370
    30
100
AcDbEllipse
 10
223.1669448502
 20
143.5799615117
 30
0.0
 11
10.60703267681296
 21
18.37092420939317
 31
0.0
210
0.0
220
0.0
230
1.0
 40
0.5773346305
 41
4.325740986259941
 42
5.099118238571558
  0
ELLIPSE
  5
109
330
1F
100
AcDbEntity
  8
0
  6
Continuous
 62
     7
370
    30
100
AcDbEllipse
 10
223.1669448502
 20
152.8180662349
 30
0.0
 11
15.00000002548174
 21
-8.660723249901991
 31
0.0
210
0.0
220
0.0
230
1.0
 40
0.0000703729
 41
0.3987501701963459
 42
0.6435417420360278
  0
ELLIPSE
  5
10A
330
1F
100
AcDbEntity
  8
0
  6
Continuous
 62
     7
370
    30
100
AcDbEllipse
 10
223.1669448502
 20
149.3537769637
 30
0.0
 11
10.60703267681294
 21
18.37092420939328
 31
0.0
210
0.0
220
0.0
230
1.0
 40
0.5773346305
 41
4.854326667019912
 42
5.586062805568441
  0
ELLIPSE
  5
10B
330
1F
100
AcDbEntity
  8
0
  6
Continuous
 62
     7
370
    30
100
AcDbEllipse
 10
223.1669448502
 20
149.3537769637
 30
0.0
 11
10.60703267681294
 21
18.37092420939328
 31
0.0
210
0.0
220
0.0
230
1.0
 40
0.5773346305
 41
0.6972037656732669
 42
1.42893990422179
  0
ELLIPSE
  5
10C
330
1F
100
AcDbEntity
  8
0
  6
Continuous
 62
     7
370
    30
100
AcDbEllipse
 10
223.1669448502
 20
152.8180662349
 30
0.0
 11
15.00000002548174
 21
-8.660723249901991
 31
0.0
210
0.0
220
0.0
230
1.0
 40
0.0000703729
 41
4.068928504924399
 42
4.313720076120391
  0
ELLIPSE
  5
10D
330
1F
100
AcDbEntity
  8
0
  6
Continuous
 62
     7
370
    30
100
AcDbEllipse
 10
223.1669448502
 20
143.5799615117
 30
0.0
 11
10.60703267681296
 21
18.37092420939317
 31
0.0
210
0.0
220
0.0
230
1.0
 40
0.5773346305
 41
1.184148332670151
 42
1.957525584981771
  0
ELLIPSE
  5
10E
330
1F
100
AcDbEntity
  8
0
  6
Continuous
 62
     7
370
    30
100
AcDbEllipse
 10
223.1669448502
 20
149.3537769637
 30
0.0
 11
10.60703267681294
 21
18.37092420939328
 31
0.0
210
0.0
220
0.0
230
1.0
 40
0.5773346305
 41
2.230468685110203
 42
4.052797886131508
  0
ELLIPSE
  5
10F
330
1F
100
AcDbEntity
  8
0
  6
Continuous
 62
     7
370
    30
100
AcDbEllipse
 10
223.1669448502
 20
134.3418567885
 30
0.0
 11
15.00000002569507
 21
-8.660723250025171
 31
0.0
210
0.0
220
0.0
230
1.0
 40
0.0000703729
 41
1.172127422492023
 42
1.445070522025082
  0
LWPOLYLINE
  5
110
330
1F
100
AcDbEntity
  8
0
  6
Continuous
 62
     7
370
    30
100
AcDbPolyline
 90
       59
 70
   128
 43
0.0
 10
238.1669448502
 20
135.4725831616
 10
238.154131226
 20
135.1147371641
 10
238.0972259256
 20
134.6386657325
 10
237.9949778523
 20
134.1651268808
 10
237.8476975301
 20
133.6955587309
 10
237.6558322445
 20
133.2313873457
 10
237.4199646841
 20
132.7740223986
 10
237.1408111709
 20
132.3248528918
 10
236.819219485
 20
131.8852429384
 10
236.4561662897
 20
131.4565276194
 10
236.0527541657
 20
131.040008929
 10
235.6102082623
 20
130.6369518209
 10
235.1298725769
 20
130.2485803662
 10
234.6132058732
 20
129.8760740364
 10
234.0617772509
 20
129.5205641208
 10
233.4772613807
 20
129.1831302914
 10
232.8614334181
 20
128.8647973237
 10
232.2161636123
 20
128.5665319844
 10
231.5434116265
 20
128.2892400955
 10
230.8452205865
 20
128.0337637835
 10
230.1237108754
 20
127.8008789214
 10
229.3810736945
 20
127.5912927729
 10
228.6195644086
 20
127.4056418443
 10
227.8414956963
 20
127.2444899514
 10
227.0492305267
 20
127.1083265071
 10
226.2451749831
 20
126.9975650353
 10
225.4317709557
 20
126.9125419151
 10
224.611488726
 20
126.8535153588
 10
223.7868194639
 20
126.8206646281
 10
222.960267663
 20
126.8140894897
 10
222.1343435339
 20
126.8338099119
 10
221.3115553811
 20
126.8797660046
 10
220.4944019851
 20
126.9518182006
 10
219.685365014
 20
127.0497476797
 10
218.8869014864
 20
127.1732570334
 10
218.1014363099
 20
127.3219711677
 10
217.3313549162
 20
127.4954384428
 10
216.5789960174
 20
127.6931320442
 10
215.8466445027
 20
127.9144515829
 10
215.1365244996
 20
128.1587249189
 10
214.4507926191
 20
128.425210202
 10
213.7915314065
 20
128.7130981251
 10
213.1607430164
 20
129.0215143821
 10
212.5603431324
 20
129.3495223229
 10
211.9921551491
 20
129.6961257983
 10
211.457904635
 20
130.0602721849
 10
210.9592140911
 20
130.440855582
 10
210.4975980243
 20
130.8367201703
 10
210.0744583474
 20
131.2466637223
 10
209.6910801218
 20
131.6694412526
 10
209.3486276544
 20
132.1037688
 10
209.0481409621
 20
132.5483273258
 10
208.7905326133
 20
133.0017667205
 10
208.5765849559
 20
133.4627099036
 10
208.4069477419
 20
133.9297570056
 10
208.2821361541
 20
134.40148962
 10
208.2025292411
 20
134.8764751103
 10
208.1683687664
 20
135.3532709611
 10
208.1669448502
 20
135.4725831616
  0
SPLINE
  5
111
330
1F
100
AcDbEntity
  8
0
  6
Continuous
 62
     7
370
    30
100
AcDbSpline
210
0.0
220
0.0
230
1.0
 70
     8
 71
     3
 72
    24
 73
    20
 74
     0
 42
0.000000001
 43
0.00000001
 40
0.0
 40
0.0
 40
0.0
 40
0.0
 40
0.0138559229645706
 40
0.0728347049748048
 40
0.1329805476692962
 40
0.1931222052266363
 40
0.254751638657636
 40
0.3315213851788598
 40
0.396192366934156
 40
0.4615384350338373
 40
0.5432022383055208
 40
0.6078640040921802
 40
0.6730319006015253
 40
0.7330741066928145
 40
0.7931167508662028
 40
0.8541882470787865
 40
0.9158069005412727
 40
0.9787581497616687
 40
0.9999999999999999
 40
0.9999999999999999
 40
0.9999999999999999
 40
0.9999999999999999
 10
226.8926815206828
 20
153.8914507692878
 30
0.0
 10
226.8739179496226
 20
153.8547189775481
 30
0.0
 10
226.7752858219801
 20
153.6616355415766
 30
0.0
 10
226.652484714282
 20
153.2808782840229
 30
0.0
 10
226.5293100246556
 20
152.7557673442531
 30
0.0
 10
226.4744565063581
 20
152.2038825048637
 30
0.0
 10
226.4877736078093
 20
151.5905863885821
 30
0.0
 10
226.5877327891842
 20
150.9565308557686
 30
0.0
 10
226.7744400951475
 20
150.3131008739211
 30
0.0
 10
227.039633360078
 20
149.6613094822981
 30
0.0
 10
227.3806619623835
 20
149.0213444630586
 30
0.0
 10
227.7858362555659
 20
148.3975190819241
 30
0.0
 10
228.1944841273503
 20
147.8507865878299
 30
0.0
 10
228.6294330233609
 20
147.3308382687951
 30
0.0
 10
229.0839203686802
 20
146.8357428861716
 30
0.0
 10
229.567117535339
 20
146.3502540109334
 30
0.0
 10
230.0792621092029
 20
145.8742652953735
 30
0.0
 10
230.4923371531776
 20
145.5098492512118
 30
0.0
 10
230.7365491775462
 20
145.3115564022888
 30
0.0
 10
230.7981636718621
 20
145.2615272784386
 30
0.0
  0
LINE
  5
112
330
1F
100
AcDbEntity
  8
0
  6
Continuous
 62
     7
370
    30
100
AcDbLine
 10
236.9903862024
 20
144.8372127386
 30
0.0
 11
234.2323535432
 21
146.4293911022
 31
0.0
  0
ARC
  5
113
330
1F
100
AcDbEntity
  8
0
  6
Continuous
 62
     7
370
    30
100
AcDbCircle
 10
222.279703458
 20
140.9876124032
 30
0.0
 40
10.18141345685773
100
AcDbArc
 50
181.4468710367
 51
228.8294620111
  0
LINE
  5
114
330
1F
100
AcDbEntity
  8
0
  6
Continuous
 62
     7
370
    30
100
AcDbLine
 10
220.1015361571
 20
154.586938341
 30
0.0
 11
217.343503498
 21
156.1791167046
 31
0.0
  0
ARC
  5
115
330
1F
100
AcDbEntity
  8
0
  6
Continuous
 62
     7
370
    30
100
AcDbCircle
 10
224.9719801906
 20
145.6049727115
 30
0.0
 40
10.21748166886003
100
AcDbArc
 50
71.2479043493
 51
118.4686308377
  0
ELLIPSE
  5
116
330
1F
100
AcDbEntity
  8
0
  6
Continuous
 62
     7
370
    30
100
AcDbEllipse
 10
223.1669448502
 20
143.5799615117
 30
0.0
 11
5.657084094300445
 21
9.797826245010045
 31
0.0
210
0.0
220
0.0
230
1.0
 40
0.5773346305
 41
0.0
 42
6.283185307179586
  0
LINE
  5
117
330
1F
100
AcDbEntity
  8
0
  6
Continuous
 62
     7
370
    30
100
AcDbLine
 10
238.1085920697
 20
159.5070602481
 30
0.0
 11
224.4887535979
 21
167.3696256385
 31
0.0
  0
LINE
  5
118
330
1F
100
AcDbEntity
  8
0
  6
Continuous
 62
     7
370
    30
100
AcDbLine
 10
235.1669448502
 20
145.8903321905
 30
0.0
 11
231.7323535432
 21
147.873079548
 31
0.0
  0
ARC
  5
119
330
1F
100
AcDbEntity
  8
0
  6
Continuous
 62
     7
370
    30
100
AcDbCircle
 10
222.321046397
 20
147.8881975516
 30
0.0
 40
9.411319288714585
100
AcDbArc
 50
359.9079620884
 51
120.0974144443
  0
LINE
  5
11A
330
1F
100
AcDbEntity
  8
0
  6
Continuous
 62
     7
370
    30
100
AcDbLine
 10
217.6015361571
 20
156.0306267868
 30
0.0
 11
214.1669448502
 21
158.0133741443
 31
0.0
  0
LINE
  5
11B
330
1F
100
AcDbEntity
  8
0
  6
Continuous
 62
     7
370
    30
100
AcDbLine
 10
209.6015361571
 20
142.1742203669
 30
0.0
 11
208.285417543
 21
142.9339994704
 31
0.0
  0
ARC
  5
11C
330
1F
100
AcDbEntity
  8
0
  6
Continuous
 62
     7
370
    30
100
AcDbCircle
 10
219.0128433033
 20
142.1591023633
 30
0.0
 40
9.411319288714495
100
AcDbArc
 50
179.9079620884
 51
300.0974144443
  0
LINE
  5
11D
330
1F
100
AcDbEntity
  8
0
  6
Continuous
 62
     7
370
    30
100
AcDbLine
 10
225.0484721573
 20
133.2568940246
 30
0.0
 11
223.7323535432
 21
134.0166731281
 31
0.0
  0
LINE
  5
11E
330
1F
100
AcDbEntity
  8
0
  6
Continuous
 62
     7
370
    30
100
AcDbLine
 10
231.7323535432
 20
147.873079548
 30
0.0
 11
234.2323535432
 21
146.4293911022
 31
0.0
  0
LINE
  5
11F
330
1F
100
AcDbEntity
  8
0
  6
Continuous
 62
     7
370
    30
100
AcDbLine
 10
209.6015361571
 20
142.1742203669
 30
0.0
 11
212.1015361571
 21
140.7305319211
 31
0.0
  0
LINE
  5
120
330
1F
100
AcDbEntity
  8
0
  6
Continuous
 62
     7
370
    30
100
AcDbLine
 10
220.1015361571
 20
154.586938341
 30
0.0
 11
217.6015361571
 21
156.0306267868
 31
0.0
  0
SPLINE
  5
121
330
1F
100
AcDbEntity
  8
0
  6
Continuous
 62
     7
370
    30
100
AcDbSpline
210
0.0
220
0.0
230
1.0
 70
     8
 71
     3
 72
    28
 73
    24
 74
     0
 42
0.000000001
 43
0.00000001
 40
0.0
 40
0.0
 40
0.0
 40
0.0
 40
0.037332737562553
 40
0.0749263970230832
 40
0.1133417271237274
 40
0.1520402292889879
 40
0.1893726207465725
 40
0.2652954514006667
 40
0.3039735093216681
 40
0.3414974095023851
 40
0.4178105644643571
 40
0.4566905871988708
 40
0.4943383136363717
 40
0.5709243685102564
 40
0.6099579021175198
 40
0.6473935414693127
 40
0.7235515297119487
 40
0.7623670623845265
 40
0.7995853094807306
 40
0.8752813249992857
 40
0.9138470519073681
 40
0.9511815544815794
 40
1.0
 40
1.0
 40
1.0
 40
1.0
 10
227.4919448501578
 20
155.8633480575681
 30
0.0
 10
227.4603463767071
 20
155.8814282184673
 30
0.0
 10
227.396928585201
 20
155.9177149041544
 30
0.0
 10
227.3079487919978
 20
155.966460656923
 30
0.0
 10
227.2239727342944
 20
156.0107588548476
 30
0.0
 10
227.147440045769
 20
156.0491843164995
 30
0.0
 10
227.0559829281699
 20
156.0925459692237
 30
0.0
 10
226.980609769757
 20
156.1242742938855
 30
0.0
 10
226.923593258948
 20
156.1440389177385
 30
0.0
 10
226.8790941402867
 20
156.1560106399142
 30
0.0
 10
226.854149504306
 20
156.1564130373814
 30
0.0
 10
226.8500617068035
 20
156.1457279167848
 30
0.0
 10
226.859923835711
 20
156.127961728709
 30
0.0
 10
226.8909002569941
 20
156.0999896009827
 30
0.0
 10
226.9427016575038
 20
156.0629339923647
 30
0.0
 10
227.0077899792432
 20
156.0203343378303
 30
0.0
 10
227.0923909217699
 20
155.96984758414
 30
0.0
 10
227.1945664397111
 20
155.9127712159175
 30
0.0
 10
227.3073963232349
 20
155.8517997572055
 30
0.0
 10
227.4352829372355
 20
155.7853375632316
 30
0.0
 10
227.5756230395259
 20
155.7143409730909
 30
0.0
 10
227.6961114410441
 20
155.6540887567811
 30
0.0
 10
227.7856687331558
 20
155.6099169516546
 30
0.0
 10
227.8364162453713
 20
155.5848870610965
 30
0.0
  0
LWPOLYLINE
  5
122
330
1F
100
AcDbEntity
  8
0
  6
Continuous
 62
     7
370
    30
100
AcDbPolyline
 90
       54
 70
   128
 43
0.0
 10
235.8669448502
 20
130.1650678843
 10
235.8495399415
 20
129.781363998
 10
235.7870899158
 20
129.344194288
 10
235.6794630461
 20
128.9099630925
 10
235.5270446087
 20
128.4802248465
 10
235.3303802221
 20
128.0565179012
 10
235.0901738936
 20
127.6403590176
 10
234.8072854997
 20
127.2332379365
 10
234.4827277074
 20
126.8366120457
 10
234.1176623492
 20
126.4519011629
 10
233.7133962645
 20
126.0804824533
 10
233.271376621
 20
125.7236854995
 10
232.7931857341
 20
125.3827875419
 10
232.2805354032
 20
125.0590089068
 10
231.7352607835
 20
124.7535086376
 10
231.1593138165
 20
124.467380346
 10
230.5547562429
 20
124.201648297
 10
229.9237522219
 20
123.9572637424
 10
229.2685605842
 20
123.7351015156
 10
228.5915267457
 20
123.5359568995
 10
227.8950743119
 20
123.3605427803
 10
227.1816964017
 20
123.2094870949
 10
226.453946723
 20
123.0833305835
 10
225.7144304306
 20
122.9825248537
 10
224.965794801
 20
122.9074307638
 10
224.2107197555
 20
122.8583171312
 10
223.4519082667
 20
122.83535977
 10
222.6920766828
 20
122.8386408614
 10
221.9339450038
 20
122.8681486602
 10
221.1802271441
 20
122.9237775359
 10
220.4336212183
 20
123.0053283517
 10
219.6967998816
 20
123.1125091769
 10
218.9724007633
 20
123.2449363318
 10
218.2630170242
 20
123.4021357617
 10
217.571188074
 20
123.5835447334
 10
216.8993904807
 20
123.7885138497
 10
216.2500291055
 20
124.0163093746
 10
215.6254284934
 20
124.2661158592
 10
215.0278245525
 20
124.537039061
 10
214.45935655
 20
124.8281091453
 10
213.9220594536
 20
125.1382841568
 10
213.4178566476
 20
125.4664537493
 10
212.9485530471
 20
125.8114431611
 10
212.5158286373
 20
126.1720174194
 10
212.1212324591
 20
126.5468857621
 10
211.7661770645
 20
126.9347062577
 10
211.4519334597
 20
127.3340906095
 10
211.1796265552
 20
127.7436091252
 10
210.9502311391
 20
128.1617958349
 10
210.7645683874
 20
128.5871537385
 10
210.6233029246
 20
129.0181601653
 10
210.5269404444
 20
129.453272224
 10
210.4758258993
 20
129.8909323265
 10
210.4669448502
 20
130.1650678843
  0
LINE
  5
123
330
1F
100
AcDbEntity
  8
0
  6
Continuous
 62
     7
370
    30
100
AcDbLine
 10
110.2327183067
 20
100.074353849
 30
0.0
 11
110.2327183067
 21
107.1454216609
 31
0.0
  0
LINE
  5
124
330
1F
100
AcDbEntity
  8
0
  6
Continuous
 62
     7
370
    30
100
AcDbLine
 10
110.2327183067
 20
82.1454216609
 30
0.0
 11
110.2327183067
 21
84.0746425565
 31
0.0
  0
LINE
  5
125
330
1F
100
AcDbEntity
  8
0
  6
Continuous
 62
     7
370
    30
100
AcDbLine
 10
80.2327183067
 20
84.1454216609
 30
0.0
 11
80.2327183067
 21
82.1454216609
 31
0.0
  0
LINE
  5
126
330
1F
100
AcDbEntity
  8
0
  6
Continuous
 62
     7
370
    30
100
AcDbLine
 10
107.9327183067
 20
75.6454216609
 30
0.0
 11
107.9327183067
 21
82.1454216609
 31
0.0
  0
LINE
  5
127
330
1F
100
AcDbEntity
  8
0
  6
Continuous
 62
     7
370
    30
100
AcDbLine
 10
82.5327183067
 20
82.1454216609
 30
0.0
 11
82.5327183067
 21
75.6454216609
 31
0.0
  0
LINE
  5
128
330
1F
100
AcDbEntity
  8
0
  6
Continuous
 62
     7
370
    30
100
AcDbLine
 10
89.5758640572
 20
86.4174995995
 30
0.0
 11
100.8895725562
 21
97.7312080985
 31
0.0
  0
LINE
  5
129
330
1F
100
AcDbEntity
  8
0
  6
Continuous
 62
     7
370
    30
100
AcDbLine
 10
100.8895725562
 20
97.7312080985
 30
0.0
 11
97.3540386502
 21
101.2667420044
 31
0.0
  0
LINE
  5
12A
330
1F
100
AcDbEntity
  8
0
  6
Continuous
 62
     7
370
    30
100
AcDbLine
 10
97.3540386502
 20
101.2667420044
 30
0.0
 11
106.7327183067
 21
110.6454216609
 31
0.0
  0
LINE
  5
12B
330
1F
100
AcDbEntity
  8
0
  6
Continuous
 62
     7
370
    30
100
AcDbLine
 10
106.7327183067
 20
110.6454216609
 30
0.0
 11
110.2327183067
 21
107.1454216609
 31
0.0
  0
LINE
  5
12C
330
1F
100
AcDbEntity
  8
0
  6
Continuous
 62
     7
370
    30
100
AcDbLine
 10
80.2327183067
 20
84.1454216609
 30
0.0
 11
86.0403301512
 21
89.9530335054
 31
0.0
  0
LINE
  5
12D
330
1F
100
AcDbEntity
  8
0
  6
Continuous
 62
     7
370
    30
100
AcDbLine
 10
86.0403301512
 20
89.9530335054
 30
0.0
 11
89.5758640572
 21
86.4174995995
 31
0.0
  0
LINE
  5
12E
330
1F
100
AcDbEntity
  8
0
  6
Continuous
 62
     7
370
    30
100
AcDbLine
 10
110.2327183067
 20
82.1454216609
 30
0.0
 11
80.2327183067
 21
82.1454216609
 31
0.0
  0
SPLINE
  5
12F
330
1F
100
AcDbEntity
  8
0
  6
Continuous
 62
     7
370
    30
100
AcDbSpline
210
0.0
220
0.0
230
1.0
 70
     8
 71
     3
 72
    43
 73
    39
 74
     0
 42
0.000000001
 43
0.00000001
 40
0.0
 40
0.0
 40
0.0
 40
0.0
 40
0.0002742082032408
 40
0.0264186870026523
 40
0.0625974607851284
 40
0.0904942384111054
 40
0.1201343033031539
 40
0.1558536382805614
 40
0.1858951437214173
 40
0.216203015156951
 40
0.242529425791837
 40
0.2690191669852219
 40
0.2956862325763465
 40
0.3227142512463623
 40
0.3505266796840711
 40
0.3787233526913619
 40
0.4073794035531985
 40
0.4364038477137573
 40
0.4616465901070482
 40
0.48711336968533
 40
0.5128599206157118
 40
0.5388542626932495
 40
0.5722658713974278
 40
0.6003906590347643
 40
0.6287839322372024
 40
0.6644076971142977
 40
0.6943513264063312
 40
0.7245436218447597
 40
0.7515056650402626
 40
0.7787721759444102
 40
0.8063823590916742
 40
0.8342603073347964
 40
0.8617150512994858
 40
0.889562716375827
 40
0.9178735376149435
 40
0.9465506172640888
 40
0.9731510114963755
 40
1.0
 40
1.0
 40
1.0
 40
1.0
 10
110.2325645134181
 20
84.07464255650285
 30
0.0
 10
110.2326157139127
 20
84.07454644013771
 30
0.0
 10
110.237548643806
 20
84.0652860747054
 30
0.0
 10
110.2172591986095
 20
84.10332744353083
 30
0.0
 10
110.162851583576
 20
84.20574114861127
 30
0.0
 10
110.0610091937644
 20
84.40045112144392
 30
0.0
 10
109.9280949971774
 20
84.65970633227543
 30
0.0
 10
109.7588346817444
 20
84.99994342715279
 30
0.0
 10
109.5625840242122
 20
85.41175964678519
 30
0.0
 10
109.369608767049
 20
85.83701879558427
 30
0.0
 10
109.1756895069797
 20
86.28969089608957
 30
0.0
 10
108.9866923945748
 20
86.760239239261
 30
0.0
 10
108.7970466803746
 20
87.27093300601237
 30
0.0
 10
108.61031037953
 20
87.82475103635598
 30
0.0
 10
108.4318322071916
 20
88.4226075348912
 30
0.0
 10
108.2681691238322
 20
89.06422769603924
 30
0.0
 10
108.1273833023458
 20
89.74420069740374
 30
0.0
 10
108.022196619407
 20
90.42457729343998
 30
0.0
 10
107.9536652285215
 20
91.09449717751893
 30
0.0
 10
107.9198778448167
 20
91.7458522685182
 30
0.0
 10
107.9198660073186
 20
92.40677001972148
 30
0.0
 10
107.9578315391111
 20
93.13213401876322
 30
0.0
 10
108.0397403587453
 20
93.86593564202025
 30
0.0
 10
108.1639302819842
 20
94.5969079523319
 30
0.0
 10
108.3229107198476
 20
95.31849806142367
 30
0.0
 10
108.5141095965201
 20
96.01726536032284
 30
0.0
 10
108.7288084670943
 20
96.68447115957032
 30
0.0
 10
108.9336259768041
 20
97.25090217570559
 30
0.0
 10
109.134572790561
 20
97.75969352690406
 30
0.0
 10
109.3266809121026
 20
98.213651936519
 30
0.0
 10
109.5132484493426
 20
98.62985968744869
 30
0.0
 10
109.6875954006131
 20
99.0006928040286
 30
0.0
 10
109.8451371586325
 20
99.32312302279541
 30
0.0
 10
109.9817332033452
 20
99.59420557428439
 30
0.0
 10
110.0940215157847
 20
99.81171188105255
 30
0.0
 10
110.1739727632452
 20
99.9638731751936
 30
0.0
 10
110.2235970156076
 20
100.0572744101358
 30
0.0
 10
110.229668463498
 20
100.0686430773987
 30
0.0
 10
110.232718306663
 20
100.0743538489926
 30
0.0
  0
LINE
  5
130
330
1F
100
AcDbEntity
  8
0
  6
Continuous
 62
     7
370
    30
100
AcDbLine
 10
107.9327183067
 20
75.6454216609
 30
0.0
 11
82.5327183067
 21
75.6454216609
 31
0.0
  0
LINE
  5
131
330
1F
100
AcDbEntity
  8
SLD-0
  6
CENTERX2
100
AcDbLine
 10
104.2836851059
 20
101.1253206482
 30
0.0
 11
100.7481511999
 21
104.6608545541
 31
0.0
  0
LINE
  5
132
330
1F
100
AcDbEntity
  8
SLD-0
  6
CENTERX2
100
AcDbLine
 10
86.1817515075
 20
83.0233870498
 30
0.0
 11
104.2836851059
 21
101.1253206482
 31
0.0
  0
LINE
  5
133
330
1F
100
AcDbEntity
  8
SLD-0
  6
CENTERX2
100
AcDbLine
 10
82.6462176015
 20
86.5589209557
 30
0.0
 11
86.1817515075
 21
83.0233870498
 31
0.0
  0
DIMENSION
  5
134
330
1F
100
AcDbEntity
  8
SLD-0
100
AcDbDimension
  2
_D
 10
115.1740865185
 20
112.0157220608
 30
0.0
 11
113.4063195655
 21
113.7834890138
 31
0.0
 70
   160
  1
<>
 71
     2
 42
-1.0
  3
SLDDIMSTYLE0
100
AcDbAlignedDimension
 13
106.7327183067
 23
110.6454216609
 33
0.0
 14
104.2836851059
 24
101.1253206482
 34
0.0
 50
-45.0
100
AcDbRotatedDimension
  0
DIMENSION
  5
13F
330
1F
100
AcDbEntity
  8
SLD-0
 62
     7
100
AcDbDimension
  2
_D_1
 10
107.9327183067
 20
65.5502725677
 30
0.0
 11
95.2327183067
 21
65.5502725677
 31
0.0
 70
   160
  1
%%c<>
 71
     2
 42
-1.0
  3
SLDDIMSTYLE0
100
AcDbAlignedDimension
 13
82.5327183067
 23
75.6454216609
 33
0.0
 14
107.9327183067
 24
75.6454216609
 34
0.0
100
AcDbRotatedDimension
  0
DIMENSION
  5
14A
330
1F
100
AcDbEntity
  8
SLD-0
 62
     7
100
AcDbDimension
  2
_D_2
 10
110.2327183067
 20
58.3335183498
 30
0.0
 11
95.2327183067
 21
58.3335183498
 31
0.0
 70
   160
  1
%%c<>
 71
     2
 42
-1.0
  3
SLDDIMSTYLE0
100
AcDbAlignedDimension
 13
80.2327183067
 23
82.1454216609
 33
0.0
 14
110.2327183067
 24
82.1454216609
 34
0.0
100
AcDbRotatedDimension
  0
DIMENSION
  5
155
330
1F
100
AcDbEntity
  8
SLD-0
 62
     7
100
AcDbDimension
  2
_D_3
 10
119.3715336279
 20
107.1454216609
 30
0.0
 11
119.3715336279
 21
91.3954216609
 31
0.0
 70
   160
  1
<>
 71
     2
 42
-1.0
  3
SLDDIMSTYLE0
100
AcDbAlignedDimension
 13
107.9327183067
 23
75.6454216609
 33
0.0
 14
110.2327183067
 24
107.1454216609
 34
0.0
 50
90.0
100
AcDbRotatedDimension
  0
DIMENSION
  5
15F
330
1F
100
AcDbEntity
  8
SLD-0
 62
     7
100
AcDbDimension
  2
_D_4
 10
106.7327183067
 20
110.6454216609
 30
0.0
 11
131.3128785249
 21
104.1319439162
 31
0.0
 70
   162
  1
<>
 71
     1
 42
-1.0
  3
SLDDIMSTYLE1
100
AcDb2LineAngularDimension
 13
110.2327183067
 23
82.1454216609
 33
0.0
 14
80.2327183067
 24
82.1454216609
 34
0.0
 15
97.3540386502
 25
101.2667420044
 35
0.0
 16
131.3128785249
 26
104.1319439162
 36
0.0
  0
LINE
  5
16A
330
1F
100
AcDbEntity
  8
SLD-0
  6
CENTERX2
 62
     7
370
     0
100
AcDbLine
 10
90.2829708384
 20
97.0241013173
 30
0.0
 11
96.646931869
 21
90.6601402866
 31
0.0
  0
INSERT
  5
175
330
1F
100
AcDbEntity
  8
0
  6
Continuous
 62
     7
370
    30
100
AcDbBlockReference
  2
SW_PROJECTIONARROW_0
 10
0.0
 20
0.0
 30
0.0
  0
LINE
  5
176
330
1F
100
AcDbEntity
  8
0
  6
Continuous
 62
     7
370
    30
100
AcDbLine
 10
63.3618718245
 20
114.0162681431
 30
0.0
 11
68.3263379185
 21
118.9807342371
 31
0.0
  0
LINE
  5
177
330
1F
100
AcDbEntity
  8
0
  6
Continuous
 62
     7
370
    30
100
AcDbLine
 10
47.1131344829
 20
140.1939376727
 30
0.0
 11
42.1486683889
 21
135.2294715787
 31
0.0
  0
ELLIPSE
  5
178
330
1F
100
AcDbEntity
  8
0
  6
Continuous
 62
     7
370
    30
100
AcDbEllipse
 10
57.7197362007
 20
129.5873359549
 30
0.0
 11
-15.00000000000004
 21
-14.99999999999964
 31
0.0
210
0.0
220
0.0
230
1.0
 40
0.7071067812
 41
1.18410770063908
 42
1.957484952950697
  0
ELLIPSE
  5
179
330
1F
100
AcDbEntity
  8
0
  6
Continuous
 62
     7
370
    30
100
AcDbEllipse
 10
61.2552701067
 20
133.1228698609
 30
0.0
 11
-15.00000000000013
 21
-14.99999999999972
 31
-1.154631945610163E-13
210
-3.848773152033945E-15
220
-3.848773152033847E-15
230
1.0
 40
0.7071067812
 41
1.712693381399057
 42
2.444429519947577
  0
ELLIPSE
  5
17A
330
1F
100
AcDbEntity
  8
0
  6
Continuous
 62
     7
370
    30
100
AcDbEllipse
 10
61.2552701067
 20
133.1228698609
 30
0.0
 11
-15.00000000000013
 21
-14.99999999999972
 31
-1.154631945610163E-13
210
-3.848773152033945E-15
220
-3.848773152033847E-15
230
1.0
 40
0.7071067812
 41
3.838755787232023
 42
4.570491925780539
  0
ELLIPSE
  5
17B
330
1F
100
AcDbEntity
  8
0
  6
Continuous
 62
     7
370
    30
100
AcDbEllipse
 10
57.7197362007
 20
129.5873359549
 30
0.0
 11
-15.00000000000004
 21
-14.99999999999964
 31
0.0
210
0.0
220
0.0
230
1.0
 40
0.7071067812
 41
4.325700354228898
 42
5.099077606540519
  0
LINE
  5
17C
330
1F
100
AcDbEntity
  8
0
  6
Continuous
 62
     7
370
    30
100
AcDbLine
 10
42.239440599
 20
133.7539230576
 30
0.0
 11
43.6813546441
 21
132.3120090126
 31
0.0
  0
ELLIPSE
  5
17D
330
1F
100
AcDbEntity
  8
0
  6
Continuous
 62
     7
370
    30
100
AcDbEllipse
 10
61.2552701067
 20
133.1228698609
 30
0.0
 11
-15.00000000000012
 21
-14.99999999999972
 31
-1.154631945610163E-13
210
-3.848773152033944E-15
220
-3.848773152033847E-15
230
1.0
 40
0.7071067812
 41
5.372020706668954
 42
7.194349907690235
  0
LINE
  5
17E
330
1F
100
AcDbEntity
  8
0
  6
Continuous
 62
     7
370
    30
100
AcDbLine
 10
60.4444092584
 20
115.5489543983
 30
0.0
 11
61.8863233034
 21
114.1070403532
 31
0.0
  0
LWPOLYLINE
  5
17F
330
1F
100
AcDbEntity
  8
0
  6
Continuous
 62
     7
370
    30
100
AcDbPolyline
 90
       59
 70
   128
 43
0.0
 10
63.3618718245
 20
114.0162681431
 10
63.1511870045
 20
113.8136378275
 10
62.7062998111
 20
113.4331499744
 10
62.2311916675
 20
113.0866449328
 10
61.7273054615
 20
112.7751750272
 10
61.1961714791
 20
112.4996861814
 10
60.6394027566
 20
112.2610150459
 10
60.0586901823
 20
112.0598864573
 10
59.4557973614
 20
111.8969112363
 10
58.8325552594
 20
111.7725843335
 10
58.1908566421
 20
111.6872833254
 10
57.5326503272
 20
111.6412672685
 10
56.8599352655
 20
111.634675912
 10
56.1747544707
 20
111.6675292737
 10
55.4791888142
 20
111.7397275789
 10
54.7753507062
 20
111.8510515638
 10
54.0653776798
 20
112.0011631411
 10
53.3514258997
 20
112.1896064269
 10
52.6356636141
 20
112.4158091251
 10
51.9202645694
 20
112.6790842655
 10
51.2074014092
 20
112.9786322902
 10
50.4992390753
 20
113.3135434818
 10
49.7979282335
 20
113.6828007258
 10
49.1055987417
 20
114.0852826003
 10
48.424353182
 20
114.5197667809
 10
47.7562604746
 20
114.9849337535
 10
47.1033495952
 20
115.4793708213
 10
46.4676034125
 20
116.0015763952
 10
45.850952667
 20
116.549964554
 10
45.2552701067
 20
117.1228698609
 10
44.6823647998
 20
117.7185524212
 10
44.133976641
 20
118.3352031667
 10
43.6117710671
 20
118.9709493493
 10
43.1173339993
 20
119.6238602288
 10
42.6521670267
 20
120.2919529362
 10
42.2176828461
 20
120.9731984959
 10
41.8152009716
 20
121.6655279877
 10
41.4459437276
 20
122.3668388295
 10
41.111032536
 20
123.0750011634
 10
40.8114845113
 20
123.7878643236
 10
40.5482093709
 20
124.5032633683
 10
40.3220066727
 20
125.2190256539
 10
40.1335633869
 20
125.932977434
 10
39.9834518096
 20
126.6429504604
 10
39.8721278247
 20
127.3467885684
 10
39.7999295195
 20
128.0423542249
 10
39.7670761578
 20
128.7275350197
 10
39.7736675143
 20
129.4002500814
 10
39.8196835712
 20
130.0584563963
 10
39.9049845793
 20
130.7001550136
 10
40.0293114822
 20
131.3233971156
 10
40.1922867031
 20
131.9262899365
 10
40.3934152917
 20
132.5070025108
 10
40.6320864272
 20
133.0637712332
 10
40.907575273
 20
133.5949052157
 10
41.2190451786
 20
134.0987914217
 10
41.5655502202
 20
134.5738995653
 10
41.9460380733
 20
135.0187867587
 10
42.1486683889
 20
135.2294715787
  0
SPLINE
  5
180
330
1F
100
AcDbEntity
  8
0
  6
Continuous
 62
     7
370
    30
100
AcDbSpline
210
0.0
220
0.0
230
1.0
 70
     8
 71
     3
 72
    30
 73
    26
 74
     0
 42
0.000000001
 43
0.00000001
 40
0.0
 40
0.0
 40
0.0
 40
0.0
 40
0.0215196937718152
 40
0.0642057924022567
 40
0.1068922021106518
 40
0.1500010888055714
 40
0.1937028439043003
 40
0.2383497149733619
 40
0.2836130699527088
 40
0.3296027640111805
 40
0.3761669223428853
 40
0.4170899724690288
 40
0.4585665069242293
 40
0.5000419925791916
 40
0.5421060192973516
 40
0.6003142902937729
 40
0.6451976023082422
 40
0.6928857008590991
 40
0.750354777690663
 40
0.7986887566241561
 40
0.8474512935871626
 40
0.8898080316516453
 40
0.9325702693051109
 40
0.9753322556552659
 40
1.0
 40
1.0
 40
1.0
 40
1.0
 10
57.53192971093552
 20
138.742342566123
 30
0.0
 10
57.54384436236889
 20
138.6684841404763
 30
0.0
 10
57.57939271378073
 20
138.4481213976553
 30
0.0
 10
57.69577309117773
 20
138.0698481787346
 30
0.0
 10
57.87115053500464
 20
137.6076021109091
 30
0.0
 10
58.09568841421292
 20
137.1313885515933
 30
0.0
 10
58.36606071719849
 20
136.638681913279
 30
0.0
 10
58.68311550945644
 20
136.1289870308324
 30
0.0
 10
59.0460113841424
 20
135.6029316621511
 30
0.0
 10
59.45225759371266
 20
135.0639034301296
 30
0.0
 10
59.87941126739629
 20
134.5394854602742
 30
0.0
 10
60.31871845641445
 20
134.0344111491924
 30
0.0
 10
60.76128835474918
 20
133.554040504268
 30
0.0
 10
61.22477515214634
 20
133.0779836805732
 30
0.0
 10
61.76483307000482
 20
132.5529678112864
 30
0.0
 10
62.33034166888808
 20
132.0388842192638
 30
0.0
 10
62.9222473618325
 20
131.5390529021431
 30
0.0
 10
63.51096456444701
 20
131.076889168579
 30
0.0
 10
64.10812541864512
 20
130.6506488005992
 30
0.0
 10
64.69959265522124
 20
130.2747262880433
 30
0.0
 10
65.22330707478993
 20
129.983419946115
 30
0.0
 10
65.71606636936578
 20
129.7492693019296
 30
0.0
 10
66.1767961388434
 20
129.5716853067725
 30
0.0
 10
66.56692743559923
 20
129.4509264628341
 30
0.0
 10
66.79876707945235
 20
129.411442387952
 30
0.0
 10
66.8835807218117
 20
129.39699797219
 30
0.0
  0
ELLIPSE
  5
181
330
1F
100
AcDbEntity
  8
0
  6
Continuous
 62
     7
370
    30
100
AcDbEllipse
 10
57.7197362007
 20
129.5873359549
 30
0.0
 11
-8.000000000000298
 21
-8.000000000000099
 31
0.0
210
0.0
220
0.0
230
1.0
 40
0.7071067812
 41
0.0
 42
6.283185307179586
  0
LINE
  5
182
330
1F
100
AcDbEntity
  8
0
  6
Continuous
 62
     7
370
    30
100
AcDbLine
 10
79.5651893426
 20
137.8129506249
 30
0.0
 11
65.9453508707
 21
151.4327890968
 31
0.0
  0
LINE
  5
183
330
1F
100
AcDbEntity
  8
0
  6
Continuous
 62
     7
370
    30
100
AcDbLine
 10
73.8765904502
 20
124.7441902044
 30
0.0
 11
70.4419991433
 21
128.1787815114
 31
0.0
  0
ARC
  5
184
330
1F
100
AcDbEntity
  8
0
  6
Continuous
 62
     7
370
    30
100
AcDbCircle
 10
57.7197362007
 20
129.5873359549
 30
0.0
 40
12.8
100
AcDbArc
 50
353.6821874535
 51
96.3178125465
  0
LINE
  5
185
330
1F
100
AcDbEntity
  8
0
  6
Continuous
 62
     7
370
    30
100
AcDbLine
 10
56.3111817572
 20
142.3095988975
 30
0.0
 11
52.8765904502
 21
145.7441902044
 31
0.0
  0
LINE
  5
186
330
1F
100
AcDbEntity
  8
0
  6
Continuous
 62
     7
370
    30
100
AcDbLine
 10
44.9974732582
 20
130.9958903985
 30
0.0
 11
43.6813546441
 21
132.3120090126
 31
0.0
  0
ARC
  5
187
330
1F
100
AcDbEntity
  8
0
  6
Continuous
 62
     7
370
    30
100
AcDbCircle
 10
57.7197362007
 20
129.5873359549
 30
0.0
 40
12.8
100
AcDbArc
 50
173.6821874535
 51
276.3178125465
  0
LINE
  5
188
330
1F
100
AcDbEntity
  8
0
  6
Continuous
 62
     7
370
    30
100
AcDbLine
 10
60.4444092584
 20
115.5489543983
 30
0.0
 11
59.1282906443
 21
116.8650730124
 31
0.0
  0
LWPOLYLINE
  5
189
330
1F
100
AcDbEntity
  8
0
  6
Continuous
 62
     7
370
    30
100
AcDbPolyline
 90
       50
 70
   128
 43
0.0
 10
57.5839564969
 20
111.6434142398
 10
57.3239645636
 20
111.4736879289
 10
56.847364527
 20
111.2047595793
 10
56.3444816979
 20
110.9722304254
 10
55.8171162663
 20
110.7769328615
 10
55.2671560636
 20
110.6195660019
 10
54.6965698046
 20
110.5006931793
 10
54.10740004
 20
110.4207399275
 10
53.5017558447
 20
110.3799924584
 10
52.8818052676
 20
110.3785966374
 10
52.249767571
 20
110.4165574611
 10
51.6079052858
 20
110.4937390396
 10
50.9585161123
 20
110.609865083
 10
50.3039246953
 20
110.7645198901
 10
49.6464743022
 20
110.9571498368
 10
48.9885184346
 20
111.187065358
 10
48.332412404
 20
111.4534434157
 10
47.6805048995
 20
111.7553304456
 10
47.0351295809
 20
112.0916457706
 10
46.3985967243
 20
112.461185469
 10
45.7731849521
 20
112.8626266846
 10
45.1611330761
 20
113.2945323621
 10
44.5646320833
 20
113.7553563912
 10
43.9858172923
 20
114.2434491415
 10
43.4267607098
 20
114.7570633677
 10
42.8894636135
 20
115.294360464
 10
42.3758493873
 20
115.8534170465
 10
41.887756637
 20
116.4322318375
 10
41.4269326079
 20
117.0287328303
 10
40.9950269304
 20
117.6407847063
 10
40.5935857148
 20
118.2661964785
 10
40.2240460164
 20
118.9027293351
 10
39.8877306914
 20
119.5481046537
 10
39.5858436615
 20
120.2000121582
 10
39.3194656038
 20
120.8561181888
 10
39.0895500826
 20
121.5140740564
 10
38.8969201359
 20
122.1715244495
 10
38.7422653288
 20
122.8261158665
 10
38.6261392854
 20
123.47550504
 10
38.5489577069
 20
124.1173673252
 10
38.5109968832
 20
124.7494050218
 10
38.5123927042
 20
125.3693555988
 10
38.5531401733
 20
125.9749997942
 10
38.6330934251
 20
126.5641695588
 10
38.7519662477
 20
127.1347558178
 10
38.9093331073
 20
127.6847160205
 10
39.1046306712
 20
128.2120814521
 10
39.3371598251
 20
128.7149642812
 10
39.6060881747
 20
129.1915643178
 10
39.7758144856
 20
129.4515562511
  0
DIMENSION
  5
18A
330
1F
100
AcDbEntity
  8
SLD-0
 62
     7
100
AcDbDimension
  2
_D_5
 10
48.6687694015
 20
120.5363691557
 30
0.0
 11
89.0179788232
 21
153.2193453209
 31
0.0
 70
   163
  1
ACCEPTS\P%%c1" OPTICS
 71
     1
 42
-1.0
  3
SLDDIMSTYLE2
100
AcDbDiametricDimension
 15
66.7707029999
 25
138.6383027541
 35
0.0
 40
0.0
  0
MTEXT
  5
195
330
1F
100
AcDbEntity
  8
SLD-0
100
AcDbMText
 10
77.7596909705
 20
114.811402736
 30
0.0
 40
2.5
 41
0.0
 71
     2
 72
     1
  1
View C
  7
SLDTEXTSTYLE0
 73
     1
 44
1.0
  0
LINE
  5
196
330
1F
100
AcDbEntity
  8
0
  6
Continuous
 62
     7
370
    30
100
AcDbLine
 10
181.8747088393
 20
82.1454216609
 30
0.0
 11
181.8747088393
 21
92.074353849
 31
0.0
  0
LINE
  5
197
330
1F
100
AcDbEntity
  8
0
  6
Continuous
 62
     7
370
    30
100
AcDbLine
 10
151.8747088393
 20
92.074353849
 30
0.0
 11
151.8747088393
 21
82.1454216609
 31
0.0
  0
LINE
  5
198
330
1F
100
AcDbEntity
  8
0
  6
Continuous
 62
     7
370
    30
100
AcDbLine
 10
179.5747088393
 20
75.6454216609
 30
0.0
 11
179.5747088393
 21
82.1454216609
 31
0.0
  0
LINE
  5
199
330
1F
100
AcDbEntity
  8
0
  6
Continuous
 62
     7
370
    30
100
AcDbLine
 10
154.1747088393
 20
82.1454216609
 30
0.0
 11
154.1747088393
 21
75.6454216609
 31
0.0
  0
ARC
  5
19A
330
1F
100
AcDbEntity
  8
0
  6
Continuous
 62
     7
370
    30
100
AcDbCircle
 10
166.8747088393
 20
92.074353849
 30
0.0
 40
15.0
100
AcDbArc
 50
157.8443737356
 51
180.0
  0
ARC
  5
19B
330
1F
100
AcDbEntity
  8
0
  6
Continuous
 62
     7
370
    30
100
AcDbCircle
 10
166.8747088393
 20
103.388062348
 30
0.0
 40
15.00000000000006
100
AcDbArc
 50
188.1301023542
 51
202.1556262644
  0
ARC
  5
19C
330
1F
100
AcDbEntity
  8
0
  6
Continuous
 62
     7
370
    30
100
AcDbCircle
 10
166.8747088393
 20
99.1454216609
 30
0.0
 40
15.00000000000005
100
AcDbArc
 50
129.9445051898
 51
171.8698976458
  0
ARC
  5
19D
330
1F
100
AcDbEntity
  8
0
  6
Continuous
 62
     7
370
    30
100
AcDbCircle
 10
166.8747088393
 20
122.1454216609
 30
0.0
 40
15.00000000000013
100
AcDbArc
 50
230.0554948102
 51
309.9445051898
  0
ARC
  5
19E
330
1F
100
AcDbEntity
  8
0
  6
Continuous
 62
     7
370
    30
100
AcDbCircle
 10
166.8747088393
 20
99.1454216609
 30
0.0
 40
14.99999999999994
100
AcDbArc
 50
8.1301023542
 51
50.0554948102
  0
ARC
  5
19F
330
1F
100
AcDbEntity
  8
0
  6
Continuous
 62
     7
370
    30
100
AcDbCircle
 10
166.8747088393
 20
103.388062348
 30
0.0
 40
14.99999999999998
100
AcDbArc
 50
337.8443737356
 51
351.8698976458
  0
ARC
  5
1A0
330
1F
100
AcDbEntity
  8
0
  6
Continuous
 62
     7
370
    30
100
AcDbCircle
 10
166.8747088393
 20
92.074353849
 30
0.0
 40
15.00000000000003
100
AcDbArc
 50
0.0
 51
22.1556262644
  0
LINE
  5
1A1
330
1F
100
AcDbEntity
  8
0
  6
Continuous
 62
     7
370
    30
100
AcDbLine
 10
166.8747088393
 20
82.1454216609
 30
0.0
 11
151.8747088393
 21
82.1454216609
 31
0.0
  0
LINE
  5
1A2
330
1F
100
AcDbEntity
  8
0
  6
Continuous
 62
     7
370
    30
100
AcDbLine
 10
181.8747088393
 20
82.1454216609
 30
0.0
 11
166.8747088393
 21
82.1454216609
 31
0.0
  0
SPLINE
  5
1A3
330
1F
100
AcDbEntity
  8
0
  6
Continuous
 62
     7
370
    30
100
AcDbSpline
210
0.0
220
0.0
230
1.0
 70
    11
 71
     3
 72
    94
 73
    90
 74
     0
 42
0.000000001
 43
0.00000001
 40
0.0
 40
0.0
 40
0.0
 40
0.0
 40
0.03125
 40
0.03125
 40
0.0625
 40
0.0625
 40
0.09375
 40
0.09375
 40
0.1093749999999999
 40
0.1093749999999999
 40
0.1249999999999999
 40
0.1249999999999999
 40
0.1406249999999999
 40
0.1406249999999999
 40
0.1562499999999999
 40
0.1562499999999999
 40
0.1874999999999999
 40
0.1874999999999999
 40
0.203125
 40
0.203125
 40
0.2187500000000001
 40
0.2187500000000001
 40
0.2500000000000002
 40
0.2500000000000002
 40
0.2656250000000002
 40
0.2656250000000002
 40
0.2812500000000002
 40
0.2812500000000002
 40
0.2968750000000002
 40
0.2968750000000002
 40
0.3125000000000002
 40
0.3125000000000002
 40
0.3437500000000002
 40
0.3437500000000002
 40
0.3593750000000003
 40
0.3593750000000003
 40
0.3750000000000003
 40
0.3750000000000003
 40
0.4062500000000003
 40
0.4062500000000003
 40
0.4375000000000003
 40
0.4375000000000003
 40
0.4531250000000003
 40
0.4531250000000003
 40
0.4687500000000003
 40
0.4687500000000003
 40
0.5000000000000003
 40
0.5000000000000003
 40
0.5156250000000003
 40
0.5156250000000003
 40
0.5312500000000003
 40
0.5312500000000003
 40
0.5625000000000003
 40
0.5625000000000003
 40
0.5937500000000003
 40
0.5937500000000003
 40
0.6250000000000002
 40
0.6250000000000002
 40
0.6562500000000002
 40
0.6562500000000002
 40
0.6718750000000002
 40
0.6718750000000002
 40
0.6875000000000002
 40
0.6875000000000002
 40
0.7187500000000002
 40
0.7187500000000002
 40
0.7500000000000002
 40
0.7500000000000002
 40
0.7656250000000002
 40
0.7656250000000002
 40
0.7812500000000002
 40
0.7812500000000002
 40
0.8125000000000002
 40
0.8125000000000002
 40
0.8437500000000002
 40
0.8437500000000002
 40
0.8750000000000001
 40
0.8750000000000001
 40
0.9062500000000001
 40
0.9062500000000001
 40
0.9218750000000001
 40
0.9218750000000001
 40
0.9375000000000001
 40
0.9375000000000001
 40
0.96875
 40
0.96875
 40
0.984375
 40
0.984375
 40
1.0
 40
1.0
 40
1.0
 40
1.0
 10
166.8747088393219
 20
100.0743538489926
 30
0.0
 10
167.414017122587
 20
100.0743538489926
 30
0.0
 10
167.9424535329641
 20
100.0203924813335
 30
0.0
 10
168.9790224808276
 20
99.81072720965896
 30
0.0
 10
169.4921883928176
 20
99.65213849175375
 30
0.0
 10
170.4573253140656
 20
99.24644409521302
 30
0.0
 10
170.9132352131612
 20
98.99968282348851
 30
0.0
 10
171.5595311310323
 20
98.56433915439904
 30
0.0
 10
171.7679267339766
 20
98.40858978564096
 30
0.0
 10
172.1646179276551
 20
98.08126554327158
 30
0.0
 10
172.3539413802405
 20
97.90902149354532
 30
0.0
 10
172.7152331827941
 20
97.54734308278067
 30
0.0
 10
172.8872009601344
 20
97.35790998903232
 30
0.0
 10
173.2138700189539
 20
96.96117925271126
 30
0.0
 10
173.3692169730068
 20
96.75280026405079
 30
0.0
 10
173.8009358043638
 20
96.11085816052336
 30
0.0
 10
174.0454416914695
 20
95.65897784659205
 30
0.0
 10
174.3475285827939
 20
94.94214041563845
 30
0.0
 10
174.4373531765736
 20
94.69664130362384
 30
0.0
 10
174.5940673600393
 20
94.1913056422816
 30
0.0
 10
174.6602997582028
 20
93.93293738358356
 30
0.0
 10
174.8187511685537
 20
93.1565859480456
 30
0.0
 10
174.8731062862761
 20
92.63129670359119
 30
0.0
 10
174.8754582734037
 20
91.83115586642559
 30
0.0
 10
174.8626730308163
 20
91.5604702094768
 30
0.0
 10
174.8104582837107
 20
91.02767860067492
 30
0.0
 10
174.7712557602177
 20
90.76500776942784
 30
0.0
 10
174.6676281896664
 20
90.2467191948547
 30
0.0
 10
174.6032011214843
 20
89.99110187567082
 30
0.0
 10
174.449242891708
 20
89.4866974519729
 30
0.0
 10
174.3591642950558
 20
89.23683636345568
 30
0.0
 10
174.056774536758
 20
88.51173569430937
 30
0.0
 10
173.812003294854
 20
88.05679546597361
 30
0.0
 10
173.38129707038
 20
87.41269995553489
 30
0.0
 10
173.2263623359881
 20
87.20375544829558
 30
0.0
 10
172.9001871404
 20
86.80559287834477
 30
0.0
 10
172.728518377641
 20
86.61557279634667
 30
0.0
 10
172.1877259559654
 20
86.07157483550145
 30
0.0
 10
171.792259410901
 20
85.74274512812622
 30
0.0
 10
170.9292957881008
 20
85.15829302703756
 30
0.0
 10
170.4744260138409
 20
84.91106079047881
 30
0.0
 10
169.7557762333038
 20
84.60661433385103
 30
0.0
 10
169.5101279364715
 20
84.51629030948459
 30
0.0
 10
169.0058774454136
 20
84.35892264540648
 30
0.0
 10
168.7455319647612
 20
84.29161832255544
 30
0.0
 10
167.962778353416
 20
84.13080863938565
 30
0.0
 10
167.4355557786368
 20
84.07628030203485
 30
0.0
 10
166.6365664067285
 20
84.07346510962292
 30
0.0
 10
166.367781249108
 20
84.08589863881927
 30
0.0
 10
165.8321943501632
 20
84.13800986913891
 30
0.0
 10
165.5684080340315
 20
84.17727455300103
 30
0.0
 10
164.7884707928812
 20
84.33298810269855
 30
0.0
 10
164.2817804176199
 20
84.4877672744099
 30
0.0
 10
163.3058504911708
 20
84.8950207501219
 30
0.0
 10
162.8486399219448
 20
85.14195001226753
 30
0.0
 10
161.9895899652544
 20
85.71801311952096
 30
0.0
 10
161.5859547111654
 20
86.05008419253633
 30
0.0
 10
160.8603682308049
 20
86.77431119194405
 30
0.0
 10
160.5343979550011
 20
87.1684249105501
 30
0.0
 10
160.1000752065202
 20
87.81157783376078
 30
0.0
 10
159.9645559511031
 20
88.03494625219771
 30
0.0
 10
159.7178425181014
 20
88.49018154122302
 30
0.0
 10
159.605811787919
 20
88.72320038382017
 30
0.0
 10
159.3034775560559
 20
89.4390488534727
 30
0.0
 10
159.1464374834892
 20
89.93861017651236
 30
0.0
 10
158.9305297959102
 20
90.989181738154
 30
0.0
 10
158.8764715944732
 20
91.51736593828542
 30
0.0
 10
158.873890454509
 20
92.31396564467545
 30
0.0
 10
158.8862135525832
 20
92.58022280750653
 30
0.0
 10
158.9380448665917
 20
93.11422178935834
 30
0.0
 10
158.9777003007643
 20
93.38119886667826
 30
0.0
 10
159.1338604152687
 20
94.16280224649651
 30
0.0
 10
159.2876969131902
 20
94.66557664271238
 30
0.0
 10
159.6927212205603
 20
95.63753211816652
 30
0.0
 10
159.9396203029385
 20
96.09553538804167
 30
0.0
 10
160.5126055251393
 20
96.95175022381507
 30
0.0
 10
160.8432639308981
 20
97.35502711474744
 30
0.0
 10
161.5681110104321
 20
98.08300239133811
 30
0.0
 10
161.9626365512127
 20
98.40994300559419
 30
0.0
 10
162.605949585394
 20
98.8452275343614
 30
0.0
 10
162.8304204929658
 20
98.98175764659153
 30
0.0
 10
163.2905299343414
 20
99.23131947896793
 30
0.0
 10
163.5256944836725
 20
99.34430068960017
 30
0.0
 10
164.2466473997362
 20
99.64834816825288
 30
0.0
 10
164.7477317675534
 20
99.80492192670803
 30
0.0
 10
165.5332485808735
 20
99.9656093221102
 30
0.0
 10
165.8006003727037
 20
100.0064743391017
 30
0.0
 10
166.3354269995618
 20
100.0606808874361
 30
0.0
 10
166.6050546976893
 20
100.0743538489926
 30
0.0
 10
166.8747088393219
 20
100.0743538489926
 30
0.0
  0
LINE
  5
1A4
330
1F
100
AcDbEntity
  8
0
  6
Continuous
 62
     7
370
    30
100
AcDbLine
 10
157.2440286972
 20
110.6454216609
 30
0.0
 11
176.5053889815
 21
110.6454216609
 31
0.0
  0
LWPOLYLINE
  5
1A5
330
1F
100
AcDbEntity
  8
0
  6
Continuous
 62
     7
370
    30
100
AcDbPolyline
 90
       38
 70
   128
 43
0.0
 10
166.8747088393
 20
110.0443808968
 10
166.5958574858
 20
110.0275986027
 10
166.325028178
 20
109.9777345165
 10
166.070012182
 20
109.896223137
 10
165.8381458438
 20
109.7854093984
 10
165.6360995357
 20
109.6484812101
 10
165.4696857621
 20
109.4893777467
 10
165.3436919443
 20
109.3126761252
 10
165.2617426951
 20
109.1234597297
 10
165.2261955451
 20
108.9271719712
 10
165.2380731211
 20
108.7294596911
 10
165.297033727
 20
108.5360107119
 10
165.4013811734
 20
108.3523902084
 10
165.5481135742
 20
108.1838806083
 10
165.7330097055
 20
108.0353296258
 10
165.9507504422
 20
107.9110108023
 10
166.1950717797
 20
107.814500564
 10
166.458945038
 20
107.7485753348
 10
166.7347790639
 20
107.7151316634
 10
167.0146386147
 20
107.7151316634
 10
167.2904726406
 20
107.7485753348
 10
167.5543458989
 20
107.814500564
 10
167.7986672364
 20
107.9110108023
 10
168.0164079731
 20
108.0353296258
 10
168.2013041044
 20
108.1838806083
 10
168.3480365053
 20
108.3523902084
 10
168.4523839516
 20
108.5360107119
 10
168.5113445575
 20
108.7294596911
 10
168.5232221336
 20
108.9271719712
 10
168.4876749836
 20
109.1234597297
 10
168.4057257344
 20
109.3126761252
 10
168.2797319166
 20
109.4893777467
 10
168.113318143
 20
109.6484812101
 10
167.9112718349
 20
109.7854093984
 10
167.6794054966
 20
109.896223137
 10
167.4243895006
 20
109.9777345165
 10
167.1535601929
 20
110.0275986027
 10
166.8747088393
 20
110.0443808968
  0
LINE
  5
1A6
330
1F
100
AcDbEntity
  8
0
  6
Continuous
 62
     7
370
    30
100
AcDbLine
 10
166.8747088393
 20
75.6454216609
 30
0.0
 11
154.1747088393
 21
75.6454216609
 31
0.0
  0
LINE
  5
1A7
330
1F
100
AcDbEntity
  8
0
  6
Continuous
 62
     7
370
    30
100
AcDbLine
 10
179.5747088393
 20
75.6454216609
 30
0.0
 11
166.8747088393
 21
75.6454216609
 31
0.0
  0
ARC
  5
1A8
330
1F
100
AcDbEntity
  8
0
  6
Continuous
 62
     7
370
    30
100
AcDbCircle
 10
166.874717162
 20
103.8175577355
 30
0.0
 40
17.26961180352967
100
AcDbArc
 50
246.5133172845
 51
293.4850280285
  0
LINE
  5
1A9
330
1F
100
AcDbEntity
  8
SLD-0
  6
CENTERX2
100
AcDbLine
 10
168.6019088393
 20
75.6454216609
 30
0.0
 11
168.6019088393
 21
82.8454216609
 31
0.0
  0
LINE
  5
1AA
330
1F
100
AcDbEntity
  8
SLD-0
  6
CENTERX2
100
AcDbLine
 10
165.1475088393
 20
82.8454216609
 30
0.0
 11
165.1475088393
 21
75.6454216609
 31
0.0
  0
LINE
  5
1AB
330
1F
100
AcDbEntity
  8
SLD-0
  6
CENTERX2
100
AcDbLine
 10
165.1475088393
 20
82.8454216609
 30
0.0
 11
168.6019088393
 21
82.8454216609
 31
0.0
  0
LINE
  5
1AC
330
1F
100
AcDbEntity
  8
SLD-0
  6
CENTERX2
100
AcDbLine
 10
168.6019088393
 20
82.8454216609
 30
0.0
 11
166.8747088393
 21
83.883228122
 31
0.0
  0
LINE
  5
1AD
330
1F
100
AcDbEntity
  8
SLD-0
  6
CENTERX2
100
AcDbLine
 10
166.8747088393
 20
83.883228122
 30
0.0
 11
165.1475088393
 21
82.8454216609
 31
0.0
  0
DIMENSION
  5
1AE
330
1F
100
AcDbEntity
  8
SLD-0
100
AcDbDimension
  2
_D_6
 10
161.0443177932
 20
86.5965312661
 30
0.0
 11
190.8341535086
 21
112.0186078471
 31
0.0
 70
   163
  1
<>
 71
     1
 42
-1.0
  3
SLDDIMSTYLE2
100
AcDbDiametricDimension
 15
172.7050998854
 25
97.5521764319
 35
0.0
 40
0.0
  0
DIMENSION
  5
1B7
330
1F
100
AcDbEntity
  8
SLD-0
100
AcDbDimension
  2
_D_7
 10
191.4789255754
 20
75.6454216609
 30
0.0
 11
191.4789255754
 21
78.8954216609
 31
0.0
 70
   160
  1
<>
 71
     2
 42
-1.0
  3
SLDDIMSTYLE0
100
AcDbAlignedDimension
 13
181.8747088393
 23
82.1454216609
 33
0.0
 14
179.5747088393
 24
75.6454216609
 34
0.0
 50
90.0
100
AcDbRotatedDimension
  0
INSERT
  5
1C7
330
1F
100
AcDbEntity
  8
SLD-0
100
AcDbBlockReference
  2
SW_NOTE_2
 10
159.1140641664
 20
61.2242988494
 30
0.0
  0
LEADER
  5
1C9
330
1F
100
AcDbEntity
  8
SLD-0
100
AcDbLeader
  3
SLDDIMSTYLE3
 76
     2
 10
165.1475088393
 20
76.9813866798
 30
0.0
 10
159.1140641664
 20
61.2242988494
 30
0.0
  0
INSERT
  5
1D5
330
1F
100
AcDbEntity
  8
SLD-0
100
AcDbBlockReference
  2
SW_CENTERMARKSYMBOL_0
 10
166.8747088393
 20
92.074353849
 30
0.0
  0
LWPOLYLINE
  5
1D6
330
1F
100
AcDbEntity
  8
0
  6
Continuous
 62
     7
370
     0
100
AcDbPolyline
 90
       38
 70
   128
 43
0.0
 10
164.8746728897
 20
108.8776547079
 10
164.9034770186
 20
109.11665796
 10
164.9889539484
 20
109.3487855238
 10
165.128680613
 20
109.5673595117
 10
165.3186373307
 20
109.7660919482
 10
165.5533593925
 20
109.9392656629
 10
165.8260942722
 20
110.0818987632
 10
166.1289958838
 20
110.1898879547
 10
166.4533502993
 20
110.2601265848
 10
166.7898264329
 20
110.2905940161
 10
167.1287444788
 20
110.280413756
 10
167.4603543819
 20
110.229878672
 10
167.775116329
 20
110.1404425667
 10
168.0639751919
 20
110.0146783538
 10
168.3186210272
 20
109.8562040407
 10
168.5317281378
 20
109.669578645
 10
168.6971658201
 20
109.4601710395
 10
168.8101747332
 20
109.2340054997
 10
168.8675038164
 20
108.9975883965
 10
168.8675038164
 20
108.7577210193
 10
168.8101747332
 20
108.5213039161
 10
168.6971658201
 20
108.2951383763
 10
168.5317281378
 20
108.0857307707
 10
168.3186210272
 20
107.8991053751
 10
168.0639751919
 20
107.740631062
 10
167.775116329
 20
107.6148668491
 10
167.4603543819
 20
107.5254307437
 10
167.1287444788
 20
107.4748956598
 10
166.7898264329
 20
107.4647153997
 10
166.4533502993
 20
107.495182831
 10
166.1289958838
 20
107.5654214611
 10
165.8260942722
 20
107.6734106526
 10
165.5533593925
 20
107.8160437529
 10
165.3186373307
 20
107.9892174676
 10
165.128680613
 20
108.187949904
 10
164.9889539484
 20
108.406523892
 10
164.9034770186
 20
108.6386514557
 10
164.8747088393
 20
108.8776547079
  0
ENDSEC
  0
SECTION
  2
OBJECTS
  0
DICTIONARY
  5
C
330
0
100
AcDbDictionary
281
     1
  3
ACAD_GROUP
350
D
  3
ACAD_LAYOUT
350
1A
  3
ACAD_MLINESTYLE
350
17
  3
ACAD_PLOTSETTINGS
350
19
  3
ACAD_PLOTSTYLENAME
350
E
  3
ACAD_SCALELIST
350
47
  0
DICTIONARY
  5
D
102
{ACAD_REACTORS
330
C
102
}
330
C
100
AcDbDictionary
281
     1
  0
DICTIONARY
  5
1A
102
{ACAD_REACTORS
330
C
102
}
330
C
100
AcDbDictionary
281
     1
  3
Layout1
350
1E
  3
Layout2
350
26
  3
Model
350
22
  0
DICTIONARY
  5
17
102
{ACAD_REACTORS
330
C
102
}
330
C
100
AcDbDictionary
281
     1
  3
Standard
350
18
  0
DICTIONARY
  5
19
102
{ACAD_REACTORS
330
C
102
}
330
C
100
AcDbDictionary
281
     1
  0
ACDBDICTIONARYWDFLT
  5
E
102
{ACAD_REACTORS
330
C
102
}
330
C
100
AcDbDictionary
281
     1
  3
Normal
350
F
100
AcDbDictionaryWithDefault
340
F
  0
DICTIONARY
  5
47
102
{ACAD_REACTORS
330
C
102
}
330
C
100
AcDbDictionary
281
     1
  3
A0
350
48
  3
A1
350
49
  3
A2
350
4A
  3
A3
350
4B
  3
A4
350
4C
  3
A5
350
4D
  3
A6
350
4E
  3
A7
350
4F
  3
A8
350
50
  3
A9
350
51
  3
B0
350
52
  3
B1
350
53
  3
B2
350
54
  3
B3
350
55
  3
B4
350
56
  3
B5
350
57
  3
B6
350
58
  3
B7
350
59
  3
B8
350
5A
  3
B9
350
5B
  3
C0
350
5C
  3
C1
350
5D
  3
C2
350
5E
  3
C3
350
5F
  3
C4
350
60
  3
C5
350
61
  3
C6
350
62
  3
C7
350
63
  3
C8
350
64
  3
C9
350
65
  3
D0
350
66
  3
D1
350
67
  3
D2
350
68
  0
LAYOUT
  5
1E
102
{ACAD_REACTORS
330
1A
102
}
330
1A
100
AcDbPlotSettings
  1

  2
none_device
  4

  6

 40
0.0
 41
0.0
 42
0.0
 43
0.0
 44
0.0
 45
0.0
 46
0.0
 47
0.0
 48
0.0
 49
0.0
140
0.0
141
0.0
142
1.0
143
1.0
 70
   688
 72
     1
 73
     0
 74
     5
  7

 75
    16
147
1.0
148
0.0
149
0.0
100
AcDbLayout
  1
Layout1
 70
     1
 71
     1
 10
0.0
 20
0.0
 11
420.0
 21
297.0
 12
0.0
 22
0.0
 32
0.0
 14
1.0000000000E+20
 24
1.0000000000E+20
 34
1.0000000000E+20
 15
-1.0000000000E+20
 25
-1.0000000000E+20
 35
-1.0000000000E+20
146
0.0
 13
0.0
 23
0.0
 33
0.0
 16
1.0
 26
0.0
 36
0.0
 17
0.0
 27
1.0
 37
0.0
 76
     0
330
1B
  0
LAYOUT
  5
26
102
{ACAD_REACTORS
330
1A
102
}
330
1A
100
AcDbPlotSettings
  1

  2
none_device
  4

  6

 40
0.0
 41
0.0
 42
0.0
 43
0.0
 44
0.0
 45
0.0
 46
0.0
 47
0.0
 48
0.0
 49
0.0
140
0.0
141
0.0
142
1.0
143
1.0
 70
   688
 72
     1
 73
     0
 74
     5
  7

 75
    16
147
1.0
148
0.0
149
0.0
100
AcDbLayout
  1
Layout2
 70
     1
 71
     2
 10
0.0
 20
0.0
 11
0.0
 21
0.0
 12
0.0
 22
0.0
 32
0.0
 14
0.0
 24
0.0
 34
0.0
 15
0.0
 25
0.0
 35
0.0
146
0.0
 13
0.0
 23
0.0
 33
0.0
 16
1.0
 26
0.0
 36
0.0
 17
0.0
 27
1.0
 37
0.0
 76
     0
330
23
  0
LAYOUT
  5
22
102
{ACAD_REACTORS
330
1A
102
}
330
1A
100
AcDbPlotSettings
  1

  2
none_device
  4
Letter_(8.50_x_11.00_Inches)
  6

 40
6.35
 41
6.35
 42
6.35000508
 43
6.35000508
 44
215.9
 45
279.4
 46
0.0
 47
0.0
 48
0.0
 49
0.0
140
0.0
141
0.0
142
1.0
143
1.0
 70
  1712
 72
     1
 73
     0
 74
     0
  7

 75
     0
147
1.0
148
0.0
149
0.0
100
AcDbLayout
  1
Model
 70
     1
 71
     0
 10
0.0
 20
0.0
 11
297.0
 21
210.0
 12
0.0
 22
0.0
 32
0.0
 14
0.0
 24
0.0
 34
0.0
 15
297.0
 25
210.0
 35
0.0
146
0.0
 13
0.0
 23
0.0
 33
0.0
 16
1.0
 26
0.0
 36
0.0
 17
0.0
 27
1.0
 37
0.0
 76
     0
330
1F
331
29
  0
MLINESTYLE
  5
18
102
{ACAD_REACTORS
330
17
102
}
330
17
100
AcDbMlineStyle
  2
Standard
 70
     0
  3

 62
   256
 51
90.0
 52
90.0
 71
     2
 49
0.5
 62
   256
  6
BYLAYER
 49
-0.5
 62
   256
  6
BYLAYER
  0
ACDBPLACEHOLDER
  5
F
102
{ACAD_REACTORS
330
E
102
}
330
E
  0
SCALE
  5
48
102
{ACAD_REACTORS
330
47
102
}
330
47
100
AcDbScale
 70
     0
300
1:1
140
1.0
141
1.0
290
     1
  0
SCALE
  5
49
102
{ACAD_REACTORS
330
47
102
}
330
47
100
AcDbScale
 70
     0
300
1:2
140
1.0
141
2.0
290
     0
  0
SCALE
  5
4A
102
{ACAD_REACTORS
330
47
102
}
330
47
100
AcDbScale
 70
     0
300
1:4
140
1.0
141
4.0
290
     0
  0
SCALE
  5
4B
102
{ACAD_REACTORS
330
47
102
}
330
47
100
AcDbScale
 70
     0
300
1:5
140
1.0
141
5.0
290
     0
  0
SCALE
  5
4C
102
{ACAD_REACTORS
330
47
102
}
330
47
100
AcDbScale
 70
     0
300
1:8
140
1.0
141
8.0
290
     0
  0
SCALE
  5
4D
102
{ACAD_REACTORS
330
47
102
}
330
47
100
AcDbScale
 70
     0
300
1:10
140
1.0
141
10.0
290
     0
  0
SCALE
  5
4E
102
{ACAD_REACTORS
330
47
102
}
330
47
100
AcDbScale
 70
     0
300
1:16
140
1.0
141
16.0
290
     0
  0
SCALE
  5
4F
102
{ACAD_REACTORS
330
47
102
}
330
47
100
AcDbScale
 70
     0
300
1:20
140
1.0
141
20.0
290
     0
  0
SCALE
  5
50
102
{ACAD_REACTORS
330
47
102
}
330
47
100
AcDbScale
 70
     0
300
1:30
140
1.0
141
30.0
290
     0
  0
SCALE
  5
51
102
{ACAD_REACTORS
330
47
102
}
330
47
100
AcDbScale
 70
     0
300
1:40
140
1.0
141
40.0
290
     0
  0
SCALE
  5
52
102
{ACAD_REACTORS
330
47
102
}
330
47
100
AcDbScale
 70
     0
300
1:50
140
1.0
141
50.0
290
     0
  0
SCALE
  5
53
102
{ACAD_REACTORS
330
47
102
}
330
47
100
AcDbScale
 70
     0
300
1:100
140
1.0
141
100.0
290
     0
  0
SCALE
  5
54
102
{ACAD_REACTORS
330
47
102
}
330
47
100
AcDbScale
 70
     0
300
2:1
140
2.0
141
1.0
290
     0
  0
SCALE
  5
55
102
{ACAD_REACTORS
330
47
102
}
330
47
100
AcDbScale
 70
     0
300
4:1
140
4.0
141
1.0
290
     0
  0
SCALE
  5
56
102
{ACAD_REACTORS
330
47
102
}
330
47
100
AcDbScale
 70
     0
300
8:1
140
8.0
141
1.0
290
     0
  0
SCALE
  5
57
102
{ACAD_REACTORS
330
47
102
}
330
47
100
AcDbScale
 70
     0
300
10:1
140
10.0
141
1.0
290
     0
  0
SCALE
  5
58
102
{ACAD_REACTORS
330
47
102
}
330
47
100
AcDbScale
 70
     0
300
100:1
140
100.0
141
1.0
290
     0
  0
SCALE
  5
59
102
{ACAD_REACTORS
330
47
102
}
330
47
100
AcDbScale
 70
     0
300
1/128" = 1'-0"
140
0.0078125
141
12.0
290
     0
  0
SCALE
  5
5A
102
{ACAD_REACTORS
330
47
102
}
330
47
100
AcDbScale
 70
     0
300
1/64" = 1'-0"
140
0.015625
141
12.0
290
     0
  0
SCALE
  5
5B
102
{ACAD_REACTORS
330
47
102
}
330
47
100
AcDbScale
 70
     0
300
1/32" = 1'-0"
140
0.03125
141
12.0
290
     0
  0
SCALE
  5
5C
102
{ACAD_REACTORS
330
47
102
}
330
47
100
AcDbScale
 70
     0
300
1/16" = 1'-0"
140
0.0625
141
12.0
290
     0
  0
SCALE
  5
5D
102
{ACAD_REACTORS
330
47
102
}
330
47
100
AcDbScale
 70
     0
300
3/32" = 1'-0"
140
0.09375
141
12.0
290
     0
  0
SCALE
  5
5E
102
{ACAD_REACTORS
330
47
102
}
330
47
100
AcDbScale
 70
     0
300
1/8" = 1'-0"
140
0.125
141
12.0
290
     0
  0
SCALE
  5
5F
102
{ACAD_REACTORS
330
47
102
}
330
47
100
AcDbScale
 70
     0
300
3/16" = 1'-0"
140
0.1875
141
12.0
290
     0
  0
SCALE
  5
60
102
{ACAD_REACTORS
330
47
102
}
330
47
100
AcDbScale
 70
     0
300
1/4" = 1'-0"
140
0.25
141
12.0
290
     0
  0
SCALE
  5
61
102
{ACAD_REACTORS
330
47
102
}
330
47
100
AcDbScale
 70
     0
300
3/8" = 1'-0"
140
0.375
141
12.0
290
     0
  0
SCALE
  5
62
102
{ACAD_REACTORS
330
47
102
}
330
47
100
AcDbScale
 70
     0
300
1/2" = 1'-0"
140
0.5
141
12.0
290
     0
  0
SCALE
  5
63
102
{ACAD_REACTORS
330
47
102
}
330
47
100
AcDbScale
 70
     0
300
3/4" = 1'-0"
140
0.75
141
12.0
290
     0
  0
SCALE
  5
64
102
{ACAD_REACTORS
330
47
102
}
330
47
100
AcDbScale
 70
     0
300
1" = 1'-0"
140
1.0
141
12.0
290
     0
  0
SCALE
  5
65
102
{ACAD_REACTORS
330
47
102
}
330
47
100
AcDbScale
 70
     0
300
1-1/2" = 1'-0"
140
1.5
141
12.0
290
     0
  0
SCALE
  5
66
102
{ACAD_REACTORS
330
47
102
}
330
47
100
AcDbScale
 70
     0
300
3" = 1'-0"
140
3.0
141
12.0
290
     0
  0
SCALE
  5
67
102
{ACAD_REACTORS
330
47
102
}
330
47
100
AcDbScale
 70
     0
300
6" = 1'-0"
140
6.0
141
12.0
290
     0
  0
SCALE
  5
68
102
{ACAD_REACTORS
330
47
102
}
330
47
100
AcDbScale
 70
     0
300
1'-0" = 1'-0"
140
12.0
141
12.0
290
     0
  0
ENDSEC
  0
EOF
