  0
SECTION
  2
HEADER
  9
$ACADVER
  1
AC1015
  9
$ACADMAINTVER
 70
     6
  9
$DWGCODEPAGE
  3
ANSI_950
  9
$INSBASE
 10
0.0
 20
0.0
 30
0.0
  9
$EXTMIN
 10
0.0
 20
0.0
 30
0.0
  9
$EXTMAX
 10
198.0
 20
140.0
 30
0.0
  9
$LIMMIN
 10
0.0
 20
0.0
  9
$LIMMAX
 10
198.0
 20
140.0
  9
$ORTHOMODE
 70
     0
  9
$REGENMODE
 70
     1
  9
$FILLMODE
 70
     1
  9
$QTEXTMODE
 70
     0
  9
$MIRRTEXT
 70
     1
  9
$LTSCALE
 40
0.6666666667
  9
$ATTMODE
 70
     1
  9
$TEXTSIZE
 40
2.1166666667
  9
$TRACEWID
 40
1.0
  9
$TEXTSTYLE
  7
Standard
  9
$CLAYER
  8
0
  9
$CELTYPE
  6
ByLayer
  9
$CECOLOR
 62
   256
  9
$CELTSCALE
 40
1.0
  9
$DISPSILH
 70
     0
  9
$DIMSCALE
 40
1.0
  9
$DIMASZ
 40
1.3333333333
  9
$DIMEXO
 40
0.6666666667
  9
$DIMDLI
 40
3.75
  9
$DIMRND
 40
0.0
  9
$DIMDLE
 40
0.0
  9
$DIMEXE
 40
0.6666666667
  9
$DIMTP
 40
0.0
  9
$DIMTM
 40
0.0
  9
$DIMTXT
 40
2.1166666667
  9
$DIMCEN
 40
2.5
  9
$DIMTSZ
 40
0.0
  9
$DIMTOL
 70
     0
  9
$DIMLIM
 70
     0
  9
$DIMTIH
 70
     1
  9
$DIMTOH
 70
     1
  9
$DIMSE1
 70
     0
  9
$DIMSE2
 70
     0
  9
$DIMTAD
 70
     1
  9
$DIMZIN
 70
     0
  9
$DIMBLK
  1

  9
$DIMASO
 70
     1
  9
$DIMSHO
 70
     1
  9
$DIMPOST
  1

  9
$DIMAPOST
  1

  9
$DIMALT
 70
     0
  9
$DIMALTD
 70
     3
  9
$DIMALTF
 40
0.0393700787
  9
$DIMLFAC
 40
1.0
  9
$DIMTOFL
 70
     1
  9
$DIMTVP
 40
0.0
  9
$DIMTIX
 70
     0
  9
$DIMSOXD
 70
     0
  9
$DIMSAH
 70
     0
  9
$DIMBLK1
  1

  9
$DIMBLK2
  1

  9
$DIMSTYLE
  2
ISO-25
  9
$DIMCLRD
 70
     0
  9
$DIMCLRE
 70
     0
  9
$DIMCLRT
 70
     0
  9
$DIMTFAC
 40
1.0
  9
$DIMGAP
 40
0.6666666667
  9
$DIMJUST
 70
     0
  9
$DIMSD1
 70
     0
  9
$DIMSD2
 70
     0
  9
$DIMTOLJ
 70
     0
  9
$DIMTZIN
 70
     0
  9
$DIMALTZ
 70
     0
  9
$DIMALTTZ
 70
     0
  9
$DIMUPT
 70
     0
  9
$DIMDEC
 70
     2
  9
$DIMTDEC
 70
     2
  9
$DIMALTU
 70
     2
  9
$DIMALTTD
 70
     3
  9
$DIMTXSTY
  7
Standard
  9
$DIMAUNIT
 70
     0
  9
$DIMADEC
 70
     2
  9
$DIMALTRND
 40
0.0
  9
$DIMAZIN
 70
     0
  9
$DIMDSEP
 70
    44
  9
$DIMATFIT
 70
     3
  9
$DIMFRAC
 70
     0
  9
$DIMLDRBLK
  1

  9
$DIMLUNIT
 70
     2
  9
$DIMLWD
 70
    -2
  9
$DIMLWE
 70
    -2
  9
$DIMTMOVE
 70
     0
  9
$LUNITS
 70
     2
  9
$LUPREC
 70
     2
  9
$SKETCHINC
 40
1.0
  9
$FILLETRAD
 40
10.0
  9
$AUNITS
 70
     0
  9
$AUPREC
 70
     2
  9
$MENU
  1
.
  9
$ELEVATION
 40
0.0
  9
$PELEVATION
 40
0.0
  9
$THICKNESS
 40
0.0
  9
$LIMCHECK
 70
     0
  9
$CHAMFERA
 40
0.0
  9
$CHAMFERB
 40
0.0
  9
$CHAMFERC
 40
0.0
  9
$CHAMFERD
 40
0.0
  9
$SKPOLY
 70
     0
  9
$TDCREATE
 40
2458431.627045451
  9
$TDUCREATE
 40
2458431.293712118
  9
$TDUPDATE
 40
2458431.627053761
  9
$TDUUPDATE
 40
2458431.293720428
  9
$TDINDWG
 40
0.0000000116
  9
$TDUSRTIMER
 40
0.0000000116
  9
$USRTIMER
 70
     1
  9
$ANGBASE
 50
0.0
  9
$ANGDIR
 70
     0
  9
$PDMODE
 70
     0
  9
$PDSIZE
 40
-1.0
  9
$PLINEWID
 40
0.0
  9
$SPLFRAME
 70
     0
  9
$SPLINETYPE
 70
     6
  9
$SPLINESEGS
 70
     8
  9
$HANDSEED
  5
215
  9
$SURFTAB1
 70
     6
  9
$SURFTAB2
 70
     6
  9
$SURFTYPE
 70
     6
  9
$SURFU
 70
     6
  9
$SURFV
 70
     6
  9
$UCSBASE
  2

  9
$UCSNAME
  2

  9
$UCSORG
 10
0.0
 20
0.0
 30
0.0
  9
$UCSXDIR
 10
1.0
 20
0.0
 30
0.0
  9
$UCSYDIR
 10
0.0
 20
1.0
 30
0.0
  9
$UCSORTHOREF
  2

  9
$UCSORTHOVIEW
 70
     0
  9
$UCSORGTOP
 10
0.0
 20
0.0
 30
0.0
  9
$UCSORGBOTTOM
 10
0.0
 20
0.0
 30
0.0
  9
$UCSORGLEFT
 10
0.0
 20
0.0
 30
0.0
  9
$UCSORGRIGHT
 10
0.0
 20
0.0
 30
0.0
  9
$UCSORGFRONT
 10
0.0
 20
0.0
 30
0.0
  9
$UCSORGBACK
 10
0.0
 20
0.0
 30
0.0
  9
$PUCSBASE
  2

  9
$PUCSNAME
  2

  9
$PUCSORG
 10
0.0
 20
0.0
 30
0.0
  9
$PUCSXDIR
 10
1.0
 20
0.0
 30
0.0
  9
$PUCSYDIR
 10
0.0
 20
1.0
 30
0.0
  9
$PUCSORTHOREF
  2

  9
$PUCSORTHOVIEW
 70
     0
  9
$PUCSORGTOP
 10
0.0
 20
0.0
 30
0.0
  9
$PUCSORGBOTTOM
 10
0.0
 20
0.0
 30
0.0
  9
$PUCSORGLEFT
 10
0.0
 20
0.0
 30
0.0
  9
$PUCSORGRIGHT
 10
0.0
 20
0.0
 30
0.0
  9
$PUCSORGFRONT
 10
0.0
 20
0.0
 30
0.0
  9
$PUCSORGBACK
 10
0.0
 20
0.0
 30
0.0
  9
$USERI1
 70
     0
  9
$USERI2
 70
     0
  9
$USERI3
 70
     0
  9
$USERI4
 70
     0
  9
$USERI5
 70
     0
  9
$USERR1
 40
0.0
  9
$USERR2
 40
0.0
  9
$USERR3
 40
0.0
  9
$USERR4
 40
0.0
  9
$USERR5
 40
0.0
  9
$WORLDVIEW
 70
     1
  9
$SHADEDGE
 70
     3
  9
$SHADEDIF
 70
    70
  9
$TILEMODE
 70
     1
  9
$MAXACTVP
 70
    64
  9
$PINSBASE
 10
0.0
 20
0.0
 30
0.0
  9
$PLIMCHECK
 70
     0
  9
$PEXTMIN
 10
1.0000000000E+20
 20
1.0000000000E+20
 30
1.0000000000E+20
  9
$PEXTMAX
 10
-1.0000000000E+20
 20
-1.0000000000E+20
 30
-1.0000000000E+20
  9
$PLIMMIN
 10
0.0
 20
0.0
  9
$PLIMMAX
 10
420.0
 20
297.0
  9
$UNITMODE
 70
     0
  9
$VISRETAIN
 70
     1
  9
$PLINEGEN
 70
     0
  9
$PSLTSCALE
 70
     1
  9
$TREEDEPTH
 70
  3020
  9
$CMLSTYLE
  2
Standard
  9
$CMLJUST
 70
     0
  9
$CMLSCALE
 40
20.0
  9
$PROXYGRAPHICS
 70
     1
  9
$MEASUREMENT
 70
     1
  9
$CELWEIGHT
370
    -1
  9
$ENDCAPS
280
     0
  9
$JOINSTYLE
280
     0
  9
$LWDISPLAY
290
     1
  9
$INSUNITS
 70
     4
  9
$HYPERLINKBASE
  1

  9
$STYLESHEET
  1

  9
$XEDIT
290
     1
  9
$CEPSNTYPE
380
     0
  9
$PSTYLEMODE
290
     1
  9
$FINGERPRINTGUID
  2
{C6BAD8D9-3686-410B-8D69-A7193AE6EFA6}
  9
$VERSIONGUID
  2
{FAEB1C32-E019-11D5-929B-00C0DF256EC4}
  9
$EXTNAMES
290
     1
  9
$PSVPSCALE
 40
0.0
  9
$OLESTARTUP
290
     0
  0
ENDSEC
  0
SECTION
  2
CLASSES
  0
CLASS
  1
ACDBDICTIONARYWDFLT
  2
AcDbDictionaryWithDefault
  3
ObjectDBX Classes
 90
        0
280
     0
281
     0
  0
CLASS
  1
VISUALSTYLE
  2
AcDbVisualStyle
  3
ObjectDBX Classes
 90
     4095
280
     0
281
     0
  0
CLASS
  1
MATERIAL
  2
AcDbMaterial
  3
ObjectDBX Classes
 90
     1153
280
     0
281
     0
  0
CLASS
  1
SCALE
  2
AcDbScale
  3
ObjectDBX Classes
 90
     1153
280
     0
281
     0
  0
CLASS
  1
TABLESTYLE
  2
AcDbTableStyle
  3
ObjectDBX Classes
 90
     4095
280
     0
281
     0
  0
CLASS
  1
MLEADERSTYLE
  2
AcDbMLeaderStyle
  3
ACDB_MLEADERSTYLE_CLASS
 90
     4095
280
     0
281
     0
  0
CLASS
  1
SUN
  2
AcDbSun
  3
SCENEOE
 90
     1153
280
     0
281
     0
  0
CLASS
  1
ACDBPLACEHOLDER
  2
AcDbPlaceHolder
  3
ObjectDBX Classes
 90
        0
280
     0
281
     0
  0
CLASS
  1
LAYOUT
  2
AcDbLayout
  3
ObjectDBX Classes
 90
        0
280
     0
281
     0
  0
ENDSEC
  0
SECTION
  2
TABLES
  0
TABLE
  2
VPORT
  5
8
330
0
100
AcDbSymbolTable
 70
     1
  0
VPORT
  5
29
330
8
100
AcDbSymbolTableRecord
100
AcDbViewportTableRecord
  2
*Active
 70
     0
 10
0.0
 20
0.0
 11
1.0
 21
1.0
 12
99.0
 22
70.0
 13
0.0
 23
0.0
 14
10.0
 24
10.0
 15
10.0
 25
10.0
 16
0.0
 26
0.0
 36
1.0
 17
0.0
 27
0.0
 37
0.0
 40
140.0
 41
1.4142857143
 42
50.0
 43
0.0
 44
0.0
 50
0.0
 51
0.0
 71
     0
 72
  2000
 73
     1
 74
     3
 75
     0
 76
     0
 77
     0
 78
     0
281
     0
 65
     1
110
0.0
120
0.0
130
0.0
111
1.0
121
0.0
131
0.0
112
0.0
122
1.0
132
0.0
 79
     0
146
0.0
  0
ENDTAB
  0
TABLE
  2
LTYPE
  5
5
330
0
100
AcDbSymbolTable
 70
     6
  0
LTYPE
  5
14
330
5
100
AcDbSymbolTableRecord
100
AcDbLinetypeTableRecord
  2
ByBlock
 70
     0
  3

 72
    65
 73
     0
 40
0.0
  0
LTYPE
  5
15
330
5
100
AcDbSymbolTableRecord
100
AcDbLinetypeTableRecord
  2
ByLayer
 70
     0
  3

 72
    65
 73
     0
 40
0.0
  0
LTYPE
  5
16
330
5
100
AcDbSymbolTableRecord
100
AcDbLinetypeTableRecord
  2
Continuous
 70
     0
  3
Solid line
 72
    65
 73
     0
 40
0.0
  0
LTYPE
  5
6E
330
5
100
AcDbSymbolTableRecord
100
AcDbLinetypeTableRecord
  2
HIDDEN
 70
     0
  3
Hidden __ __ __ __ __ __ __ __ __ __ __ __ __ __
 72
    65
 73
     2
 40
1.905
 49
1.27
 74
     0
 49
-0.635
 74
     0
  0
LTYPE
  5
6F
330
5
100
AcDbSymbolTableRecord
100
AcDbLinetypeTableRecord
  2
PHANTOM
 70
     0
  3
Phantom ______  __  __  ______  __  __  ______
 72
    65
 73
     6
 40
12.7
 49
6.35
 74
     0
 49
-1.27
 74
     0
 49
1.27
 74
     0
 49
-1.27
 74
     0
 49
1.27
 74
     0
 49
-1.27
 74
     0
  0
LTYPE
  5
70
330
5
100
AcDbSymbolTableRecord
100
AcDbLinetypeTableRecord
  2
CENTER
 70
     0
  3
Center ____ _ ____ _ ____ _ ____ _ ____ _ ____
 72
    65
 73
     4
 40
10.16
 49
6.35
 74
     0
 49
-1.27
 74
     0
 49
1.27
 74
     0
 49
-1.27
 74
     0
  0
LTYPE
  5
71
330
5
100
AcDbSymbolTableRecord
100
AcDbLinetypeTableRecord
  2
CENTERX2
 70
     0
  3
Center (2x) ________  __  ________  __  _____
 72
    65
 73
     4
 40
20.32
 49
12.7
 74
     0
 49
-2.54
 74
     0
 49
2.54
 74
     0
 49
-2.54
 74
     0
  0
LTYPE
  5
72
330
5
100
AcDbSymbolTableRecord
100
AcDbLinetypeTableRecord
  2
DOT2
 70
     0
  3
Dot (.5x) ........................................
 72
    65
 73
     2
 40
0.635
 49
0.0
 74
     0
 49
-0.635
 74
     0
  0
ENDTAB
  0
TABLE
  2
LAYER
  5
2
330
0
100
AcDbSymbolTable
 70
    10
  0
LAYER
  5
10
330
2
100
AcDbSymbolTableRecord
100
AcDbLayerTableRecord
  2
0
 70
     0
 62
     7
  6
Continuous
370
    -3
390
F
  0
LAYER
  5
73
330
2
100
AcDbSymbolTableRecord
100
AcDbLayerTableRecord
  2
SLD-0
 70
     0
 62
     7
  6
Continuous
370
    15
390
F
  0
LAYER
  5
74
330
2
100
AcDbSymbolTableRecord
100
AcDbLayerTableRecord
  2
輪廓線
 70
     0
 62
   219
  6
Continuous
370
    15
390
F
  0
LAYER
  5
75
330
2
100
AcDbSymbolTableRecord
100
AcDbLayerTableRecord
  2
DIM
 70
     0
 62
     7
  6
Continuous
370
    -3
390
F
  0
LAYER
  5
76
330
2
100
AcDbSymbolTableRecord
100
AcDbLayerTableRecord
  2
中心線
 70
     0
 62
     7
  6
CENTERX2
370
    -3
390
F
  0
LAYER
  5
77
330
2
100
AcDbSymbolTableRecord
100
AcDbLayerTableRecord
  2
虛線
 70
     0
 62
     7
  6
HIDDEN
370
    -3
390
F
  0
LAYER
  5
78
330
2
100
AcDbSymbolTableRecord
100
AcDbLayerTableRecord
  2
SECTION
 70
     0
 62
     7
  6
PHANTOM
370
    15
390
F
  0
LAYER
  5
79
330
2
100
AcDbSymbolTableRecord
100
AcDbLayerTableRecord
  2
假想線
 70
     0
 62
     7
  6
PHANTOM
370
    -3
390
F
  0
LAYER
  5
7A
330
2
100
AcDbSymbolTableRecord
100
AcDbLayerTableRecord
  2
圖層_1
 70
     0
 62
   179
  6
Continuous
370
    -3
390
F
  0
LAYER
  5
7B
330
2
100
AcDbSymbolTableRecord
100
AcDbLayerTableRecord
  2
工作區域參考線
 70
     0
 62
   179
  6
Continuous
370
    -3
390
F
  0
ENDTAB
  0
TABLE
  2
STYLE
  5
3
330
0
100
AcDbSymbolTable
 70
     3
  0
STYLE
  5
11
330
3
100
AcDbSymbolTableRecord
100
AcDbTextStyleTableRecord
  2
Standard
 70
     0
 40
0.0
 41
1.0
 50
0.0
 71
     0
 42
2.1166666667
  3
txt
  4

  0
STYLE
  5
CC
330
3
100
AcDbSymbolTableRecord
100
AcDbTextStyleTableRecord
  2
SLDTEXTSTYLE0
 70
     0
 40
0.0
 41
0.7
 50
0.0
 71
     0
 42
2.1166666667
  3
TXT
  4

  0
STYLE
  5
CE
330
3
100
AcDbSymbolTableRecord
100
AcDbTextStyleTableRecord
  2
SLDTEXTSTYLE1
 70
     0
 40
0.0
 41
0.605
 50
0.0
 71
     0
 42
2.1166666667
  3
TXT
  4

  0
ENDTAB
  0
TABLE
  2
VIEW
  5
6
330
0
100
AcDbSymbolTable
 70
     0
  0
ENDTAB
  0
TABLE
  2
UCS
  5
7
330
0
100
AcDbSymbolTable
 70
     0
  0
ENDTAB
  0
TABLE
  2
APPID
  5
9
330
0
100
AcDbSymbolTable
 70
     1
  0
APPID
  5
12
330
9
100
AcDbSymbolTableRecord
100
AcDbRegAppTableRecord
  2
ACAD
 70
     0
  0
ENDTAB
  0
TABLE
  2
DIMSTYLE
  5
A
330
0
100
AcDbSymbolTable
 70
     4
100
AcDbDimStyleTable
  0
DIMSTYLE
105
27
330
A
100
AcDbSymbolTableRecord
100
AcDbDimStyleTableRecord
  2
ISO-25
 70
     0
 41
2.5
 42
0.625
 43
3.75
 44
1.25
 73
     0
 74
     0
 77
     1
 78
     8
140
2.5
141
2.5
143
0.0393700787
147
0.625
171
     3
172
     1
178
     0
271
     2
272
     2
274
     3
278
    44
283
     0
284
     8
340
11
  0
DIMSTYLE
105
11A
102
{ACAD_REACTORS
330
119
330
124
330
180
330
1B6
330
1C0
102
}
330
A
100
AcDbSymbolTableRecord
100
AcDbDimStyleTableRecord
  2
SLDDIMSTYLE0
 70
     0
 41
1.3333333333
 44
0.0
 45
0.000000001
 73
     0
 74
     0
 77
     1
 78
    12
 79
     3
140
1.6949869792
147
0.4237467448
173
     1
178
     0
271
     2
272
     2
276
     2
284
    12
340
CC
  0
DIMSTYLE
105
12F
102
{ACAD_REACTORS
330
12E
330
18A
102
}
330
A
100
AcDbSymbolTableRecord
100
AcDbDimStyleTableRecord
  2
SLDDIMSTYLE1
 70
     0
  3
<>
 41
1.3333333333
 44
0.0
 45
0.000000001
 78
    12
 79
     3
140
1.6949869792
141
0.0
147
0.4237467448
173
     1
178
     0
271
     2
272
     2
276
     2
284
    12
340
CC
  0
DIMSTYLE
105
1CB
102
{ACAD_REACTORS
330
1CA
102
}
330
A
100
AcDbSymbolTableRecord
100
AcDbDimStyleTableRecord
  2
SLDDIMSTYLE2
 70
     0
 41
1.3333333333
 44
0.0
 73
     0
 74
     0
 77
     1
 78
    12
 79
     3
140
1.6949869792
144
0.6666666667
147
0.4237467448
173
     1
178
     0
179
     2
272
     2
276
     2
284
    12
340
CC
  0
ENDTAB
  0
TABLE
  2
BLOCK_RECORD
  5
1
330
0
100
AcDbSymbolTable
 70
    14
  0
BLOCK_RECORD
  5
1F
330
1
100
AcDbSymbolTableRecord
100
AcDbBlockTableRecord
  2
*Model_Space
340
22
  0
BLOCK_RECORD
  5
1B
330
1
100
AcDbSymbolTableRecord
100
AcDbBlockTableRecord
  2
*Paper_Space
340
1E
  0
BLOCK_RECORD
  5
23
330
1
100
AcDbSymbolTableRecord
100
AcDbBlockTableRecord
  2
*Paper_Space0
340
26
  0
BLOCK_RECORD
  5
7C
330
1
100
AcDbSymbolTableRecord
100
AcDbBlockTableRecord
  2
圖塊6
340
0
102
{BLKREFS
331
CB
102
}
  0
BLOCK_RECORD
  5
D0
330
1
100
AcDbSymbolTableRecord
100
AcDbBlockTableRecord
  2
SW_NOTE_0
340
0
102
{BLKREFS
331
D6
102
}
  0
BLOCK_RECORD
  5
106
330
1
100
AcDbSymbolTableRecord
100
AcDbBlockTableRecord
  2
SW_NOTE_1
340
0
102
{BLKREFS
331
10B
102
}
  0
BLOCK_RECORD
  5
11B
330
1
100
AcDbSymbolTableRecord
100
AcDbBlockTableRecord
  2
_D
340
0
  0
BLOCK_RECORD
  5
125
330
1
100
AcDbSymbolTableRecord
100
AcDbBlockTableRecord
  2
_D_1
340
0
  0
BLOCK_RECORD
  5
130
330
1
100
AcDbSymbolTableRecord
100
AcDbBlockTableRecord
  2
_D_2
340
0
  0
BLOCK_RECORD
  5
138
330
1
100
AcDbSymbolTableRecord
100
AcDbBlockTableRecord
  2
SW_CENTERMARKSYMBOL_0
340
0
102
{BLKREFS
331
143
102
}
  0
BLOCK_RECORD
  5
181
330
1
100
AcDbSymbolTableRecord
100
AcDbBlockTableRecord
  2
_D_3
340
0
  0
BLOCK_RECORD
  5
18B
330
1
100
AcDbSymbolTableRecord
100
AcDbBlockTableRecord
  2
_D_4
340
0
  0
BLOCK_RECORD
  5
193
330
1
100
AcDbSymbolTableRecord
100
AcDbBlockTableRecord
  2
SW_CENTERMARKSYMBOL_1
340
0
102
{BLKREFS
331
19E
102
}
  0
BLOCK_RECORD
  5
1B7
330
1
100
AcDbSymbolTableRecord
100
AcDbBlockTableRecord
  2
_D_5
340
0
  0
BLOCK_RECORD
  5
1C1
330
1
100
AcDbSymbolTableRecord
100
AcDbBlockTableRecord
  2
_D_6
340
0
  0
BLOCK_RECORD
  5
1CC
330
1
100
AcDbSymbolTableRecord
100
AcDbBlockTableRecord
  2
_D_7
340
0
  0
ENDTAB
  0
ENDSEC
  0
SECTION
  2
BLOCKS
  0
BLOCK
  5
20
330
1F
100
AcDbEntity
  8
0
100
AcDbBlockBegin
  2
*Model_Space
 70
     0
 10
0.0
 20
0.0
 30
0.0
  3
*Model_Space
  1

  0
ENDBLK
  5
21
330
1F
100
AcDbEntity
  8
0
100
AcDbBlockEnd
  0
BLOCK
  5
1C
330
1B
100
AcDbEntity
 67
     1
  8
0
100
AcDbBlockBegin
  2
*Paper_Space
 70
     0
 10
0.0
 20
0.0
 30
0.0
  3
*Paper_Space
  1

  0
ENDBLK
  5
1D
330
1B
100
AcDbEntity
 67
     1
  8
0
100
AcDbBlockEnd
  0
BLOCK
  5
24
330
23
100
AcDbEntity
  8
0
100
AcDbBlockBegin
  2
*Paper_Space0
 70
     0
 10
0.0
 20
0.0
 30
0.0
  3
*Paper_Space0
  1

  0
ENDBLK
  5
25
330
23
100
AcDbEntity
  8
0
100
AcDbBlockEnd
  0
BLOCK
  5
7D
330
7C
100
AcDbEntity
  8
0
100
AcDbBlockBegin
  2
圖塊6
 70
     0
 10
0.0
 20
0.0
 30
0.0
  3
圖塊6
  1

  0
ARC
  5
7F
330
7C
100
AcDbEntity
  8
圖層_1
 62
     7
370
    30
100
AcDbCircle
 10
1.020102956
 20
4.0680455261
 30
0.0
 40
1.020102955962447
100
AcDbArc
 50
130.2115225915
 51
228.588904108
  0
ARC
  5
80
330
7C
100
AcDbEntity
  8
圖層_1
 62
     7
370
    30
100
AcDbCircle
 10
3.2339423987
 20
3.9966302943
 30
0.0
 40
1.718223617878414
100
AcDbArc
 50
140.4331765613
 51
251.0865666567
  0
ARC
  5
81
330
7C
100
AcDbEntity
  8
圖層_1
 62
     7
370
    30
100
AcDbCircle
 10
3.4510027988
 20
4.2078373142
 30
0.0
 40
1.993091105179908
100
AcDbArc
 50
247.1485306747
 51
309.6030773927
  0
LINE
  5
82
330
7C
100
AcDbEntity
  8
圖層_1
 62
     7
370
    30
100
AcDbLine
 10
1.2325984846
 20
5.6881217322
 30
0.0
 11
0.3615129813
 21
4.8470636812
 31
0.0
  0
LINE
  5
83
330
7C
100
AcDbEntity
  8
圖層_1
 62
     7
370
    30
100
AcDbLine
 10
0.3453485933
 20
3.3029856651
 30
0.0
 11
3.0181501334
 21
0.9799164383
 31
0.0
  0
LINE
  5
84
330
7C
100
AcDbEntity
  8
圖層_1
 62
     7
370
    30
100
AcDbLine
 10
3.0181501334
 20
0.9799164383
 30
0.0
 11
2.5974488532
 21
0.569316178
 31
0.0
  0
LINE
  5
85
330
7C
100
AcDbEntity
  8
圖層_1
 62
     7
370
    30
100
AcDbLine
 10
2.5974488532
 20
0.569316178
 30
0.0
 11
3.258701763
 21
0.0
 31
0.0
  0
LINE
  5
86
330
7C
100
AcDbEntity
  8
圖層_1
 62
     7
370
    30
100
AcDbLine
 10
5.3984780526
 20
2.0777186437
 30
0.0
 11
4.7215293648
 21
2.6722024622
 31
0.0
  0
LINE
  5
87
330
7C
100
AcDbEntity
  8
圖層_1
 62
     7
370
    30
100
AcDbLine
 10
1.9093943828
 20
5.091100465
 30
0.0
 11
1.2325984846
 21
5.6881217322
 31
0.0
  0
LINE
  5
88
330
7C
100
AcDbEntity
  8
圖層_1
 62
     7
370
    30
100
AcDbLine
 10
3.258701763
 20
0.0
 30
0.0
 11
5.3984780526
 21
2.0777186437
 31
0.0
  0
ENDBLK
  5
7E
330
7C
100
AcDbEntity
  8
0
100
AcDbBlockEnd
  0
BLOCK
  5
D1
330
D0
100
AcDbEntity
  8
0
100
AcDbBlockBegin
  2
SW_NOTE_0
 70
     0
 10
0.0
 20
0.0
 30
0.0
  3
SW_NOTE_0
  1

  0
MTEXT
  5
D3
330
D0
100
AcDbEntity
  8
0
  6
Continuous
 62
     0
370
     0
100
AcDbMText
 10
0.0
 20
2.2737722632
 30
0.0
 40
1.7638888889
 41
0.0
 71
     1
 72
     1
  1
PROPRIETARY AND CONFIDENTIAL
  7
SLDTEXTSTYLE1
 73
     1
 44
1.0
  0
MTEXT
  5
D4
330
D0
100
AcDbEntity
  8
0
  6
Continuous
 62
     0
370
     0
100
AcDbMText
 10
0.0
 20
-0.0546556533
 30
0.0
 40
1.2347222222
 41
0.0
 71
     1
 72
     1
  1
THE INFORMATION CONTAINED IN THIS DRAWING IS THE SOLE PROPERTY OF UNICE E-O SERVICES INC. ANY REPRODUCTION IN PART OR AS A WHOLE WITHOUT THE WRITTEN PERMISSION OF UNICE E-O SERVICES INC IS
  7
SLDTEXTSTYLE1
 73
     1
 44
1.0
  0
MTEXT
  5
D5
330
D0
100
AcDbEntity
  8
0
  6
Continuous
 62
     0
370
     0
100
AcDbMText
 10
0.0
 20
-1.7009519297
 30
0.0
 40
1.2347222222
 41
0.0
 71
     1
 72
     1
  1
PROHIBITED.
  7
SLDTEXTSTYLE1
 73
     1
 44
1.0
  0
ENDBLK
  5
D2
330
D0
100
AcDbEntity
  8
0
100
AcDbBlockEnd
  0
BLOCK
  5
107
330
106
100
AcDbEntity
  8
0
100
AcDbBlockBegin
  2
SW_NOTE_1
 70
     0
 10
0.0
 20
0.0
 30
0.0
  3
SW_NOTE_1
  1

  0
MTEXT
  5
109
330
106
100
AcDbEntity
  8
SLD-0
 62
     0
100
AcDbMText
 10
0.0
 20
1.3642633579
 30
0.0
 40
1.0583333333
 41
0.0
 71
     1
 72
     1
  1
No.5, Andong Rd., Chung Li District,
  7
SLDTEXTSTYLE1
 73
     1
 44
1.0
  0
MTEXT
  5
10A
330
106
100
AcDbEntity
  8
SLD-0
 62
     0
100
AcDbMText
 10
0.0
 20
-0.0468477361
 30
0.0
 40
1.0583333333
 41
0.0
 71
     1
 72
     1
  1
Taoyuan City 32063, Taiwan, R.O.C.
  7
SLDTEXTSTYLE1
 73
     1
 44
1.0
  0
ENDBLK
  5
108
330
106
100
AcDbEntity
  8
0
100
AcDbBlockEnd
  0
BLOCK
  5
11C
330
11B
100
AcDbEntity
  8
0
100
AcDbBlockBegin
  2
_D
 70
     0
 10
0.0
 20
0.0
 30
0.0
  3
_D
  1

  0
SOLID
  5
11E
330
11B
100
AcDbEntity
  8
DIM
100
AcDbTrace
 10
23.014928346
 20
56.8857648539
 30
0.0
 11
22.8482616793
 21
55.5524315206
 31
0.0
 12
23.1815950126
 22
55.5524315206
 32
0.0
 13
23.1815950126
 23
55.5524315206
 33
0.0
  0
SOLID
  5
11F
330
11B
100
AcDbEntity
  8
DIM
100
AcDbTrace
 10
23.014928346
 20
38.8857648539
 30
0.0
 11
23.1815950126
 21
40.2190981872
 31
0.0
 12
22.8482616793
 22
40.2190981872
 32
0.0
 13
22.8482616793
 23
40.2190981872
 33
0.0
  0
LINE
  5
120
330
11B
100
AcDbEntity
  8
DIM
100
AcDbLine
 10
37.064928346
 20
56.8857648539
 30
0.0
 11
22.3482616793
 21
56.8857648539
 31
0.0
  0
LINE
  5
121
330
11B
100
AcDbEntity
  8
DIM
100
AcDbLine
 10
27.014928346
 20
38.8857648539
 30
0.0
 11
22.3482616793
 21
38.8857648539
 31
0.0
  0
LINE
  5
122
330
11B
100
AcDbEntity
  8
DIM
100
AcDbLine
 10
23.014928346
 20
56.8857648539
 30
0.0
 11
23.014928346
 21
38.8857648539
 31
0.0
  0
MTEXT
  5
123
330
11B
100
AcDbEntity
  8
DIM
100
AcDbMText
 10
20.9685333867
 20
46.8921074624
 30
0.0
 40
1.5875
 41
0.0
 71
     1
 72
     1
  1
18
  7
SLDTEXTSTYLE0
 11
-7.044195017643634E-15
 21
1.0
 31
0.0
 73
     1
 44
1.0
  0
ENDBLK
  5
11D
330
11B
100
AcDbEntity
  8
0
100
AcDbBlockEnd
  0
BLOCK
  5
126
330
125
100
AcDbEntity
  8
0
100
AcDbBlockBegin
  2
_D_1
 70
     0
 10
0.0
 20
0.0
 30
0.0
  3
_D_1
  1

  0
SOLID
  5
128
330
125
100
AcDbEntity
  8
DIM
100
AcDbTrace
 10
27.6815950126
 20
34.2190981872
 30
0.0
 11
29.014928346
 21
34.0524315206
 31
0.0
 12
29.014928346
 22
34.3857648539
 32
0.0
 13
29.014928346
 23
34.3857648539
 33
0.0
  0
SOLID
  5
129
330
125
100
AcDbEntity
  8
DIM
100
AcDbTrace
 10
53.0815950126
 20
34.2190981872
 30
0.0
 11
51.7482616793
 21
34.3857648539
 31
0.0
 12
51.7482616793
 22
34.0524315206
 32
0.0
 13
51.7482616793
 23
34.0524315206
 33
0.0
  0
LINE
  5
12A
330
125
100
AcDbEntity
  8
DIM
100
AcDbLine
 10
27.6815950126
 20
38.2190981872
 30
0.0
 11
27.6815950126
 21
33.5524315206
 31
0.0
  0
LINE
  5
12B
330
125
100
AcDbEntity
  8
DIM
100
AcDbLine
 10
53.0815950126
 20
38.2190981872
 30
0.0
 11
53.0815950126
 21
33.5524315206
 31
0.0
  0
LINE
  5
12C
330
125
100
AcDbEntity
  8
DIM
100
AcDbLine
 10
27.6815950126
 20
34.2190981872
 30
0.0
 11
53.0815950126
 21
34.2190981872
 31
0.0
  0
MTEXT
  5
12D
330
125
100
AcDbEntity
  8
DIM
100
AcDbMText
 10
38.6426946939
 20
36.2654931465
 30
0.0
 40
1.5875
 41
0.0
 71
     1
 72
     1
  1
25.4
  7
SLDTEXTSTYLE0
 73
     1
 44
1.0
  0
ENDBLK
  5
127
330
125
100
AcDbEntity
  8
0
100
AcDbBlockEnd
  0
BLOCK
  5
131
330
130
100
AcDbEntity
  8
0
100
AcDbBlockBegin
  2
_D_2
 70
     0
 10
0.0
 20
0.0
 30
0.0
  3
_D_2
  1

  0
SOLID
  5
133
330
130
100
AcDbEntity
  8
DIM
100
AcDbTrace
 10
41.5233857212
 20
58.0769046349
 30
0.0
 11
42.5663620292
 21
58.9241094369
 31
0.0
 12
42.32572773
 22
59.1547742265
 32
0.0
 13
42.32572773
 23
59.1547742265
 33
0.0
  0
LINE
  5
134
330
130
100
AcDbEntity
  8
DIM
100
AcDbLine
 10
41.5233857212
 20
58.0769046349
 30
0.0
 11
55.3432731252
 21
72.4940982
 31
0.0
  0
LINE
  5
135
330
130
100
AcDbEntity
  8
DIM
100
AcDbLine
 10
55.3432731252
 20
72.4940982
 30
0.0
 11
63.5143846443
 21
72.4940982
 31
0.0
  0
MTEXT
  5
136
330
130
100
AcDbEntity
  8
DIM
100
AcDbMText
 10
56.1766064585
 20
76.6571598004
 30
0.0
 40
1.5875
 41
0.0
 71
     1
 72
     1
  1
1 HOLE,
  7
SLDTEXTSTYLE0
 73
     1
 44
1.0
  0
MTEXT
  5
137
330
130
100
AcDbEntity
  8
DIM
100
AcDbMText
 10
56.1766064585
 20
74.5404931593
 30
0.0
 40
1.5875
 41
0.0
 71
     1
 72
     1
  1
M4
  7
SLDTEXTSTYLE0
 73
     1
 44
1.0
  0
ENDBLK
  5
132
330
130
100
AcDbEntity
  8
0
100
AcDbBlockEnd
  0
BLOCK
  5
139
330
138
100
AcDbEntity
  8
0
100
AcDbBlockBegin
  2
SW_CENTERMARKSYMBOL_0
 70
     0
 10
0.0
 20
0.0
 30
0.0
  3
SW_CENTERMARKSYMBOL_0
  1

  0
LINE
  5
13B
330
138
100
AcDbEntity
  8
DIM
 62
     0
100
AcDbLine
 10
0.0
 20
0.0
 30
0.0
 11
0.0
 21
1.0
 31
0.0
  0
LINE
  5
13C
330
138
100
AcDbEntity
  8
DIM
 62
     0
100
AcDbLine
 10
0.0
 20
0.0
 30
0.0
 11
-1.0
 21
0.0
 31
0.0
  0
LINE
  5
13D
330
138
100
AcDbEntity
  8
DIM
 62
     0
100
AcDbLine
 10
0.0
 20
0.0
 30
0.0
 11
0.0
 21
-1.0
 31
0.0
  0
LINE
  5
13E
330
138
100
AcDbEntity
  8
DIM
 62
     0
100
AcDbLine
 10
0.0
 20
0.0
 30
0.0
 11
1.0
 21
0.0
 31
0.0
  0
LINE
  5
13F
330
138
100
AcDbEntity
  8
DIM
 62
     0
100
AcDbLine
 10
0.0
 20
2.0
 30
0.0
 11
0.0
 21
2.65
 31
0.0
  0
LINE
  5
140
330
138
100
AcDbEntity
  8
DIM
 62
     0
100
AcDbLine
 10
-2.0
 20
0.0
 30
0.0
 11
-2.65
 21
0.0
 31
0.0
  0
LINE
  5
141
330
138
100
AcDbEntity
  8
DIM
 62
     0
100
AcDbLine
 10
0.0
 20
-2.0
 30
0.0
 11
0.0
 21
-2.65
 31
0.0
  0
LINE
  5
142
330
138
100
AcDbEntity
  8
DIM
 62
     0
100
AcDbLine
 10
2.0
 20
0.0
 30
0.0
 11
2.65
 21
0.0
 31
0.0
  0
ENDBLK
  5
13A
330
138
100
AcDbEntity
  8
0
100
AcDbBlockEnd
  0
BLOCK
  5
182
330
181
100
AcDbEntity
  8
0
100
AcDbBlockBegin
  2
_D_3
 70
     0
 10
0.0
 20
0.0
 30
0.0
  3
_D_3
  1

  0
SOLID
  5
184
330
181
100
AcDbEntity
  8
DIM
100
AcDbTrace
 10
57.7482616793
 20
92.4977958157
 30
0.0
 11
57.914928346
 21
93.831129149
 31
0.0
 12
57.5815950126
 22
93.831129149
 32
0.0
 13
57.5815950126
 23
93.831129149
 33
0.0
  0
SOLID
  5
185
330
181
100
AcDbEntity
  8
DIM
100
AcDbTrace
 10
57.7482616793
 20
119.4977958157
 30
0.0
 11
57.5815950126
 21
118.1644624823
 31
0.0
 12
57.914928346
 22
118.1644624823
 32
0.0
 13
57.914928346
 23
118.1644624823
 33
0.0
  0
LINE
  5
186
330
181
100
AcDbEntity
  8
DIM
100
AcDbLine
 10
46.0482616793
 20
92.4977958157
 30
0.0
 11
58.414928346
 21
92.4977958157
 31
0.0
  0
LINE
  5
187
330
181
100
AcDbEntity
  8
DIM
100
AcDbLine
 10
53.7482616793
 20
119.4977958157
 30
0.0
 11
58.414928346
 21
119.4977958157
 31
0.0
  0
LINE
  5
188
330
181
100
AcDbEntity
  8
DIM
100
AcDbLine
 10
57.7482616793
 20
92.4977958157
 30
0.0
 11
57.7482616793
 21
119.4977958157
 31
0.0
  0
MTEXT
  5
189
330
181
100
AcDbEntity
  8
DIM
100
AcDbMText
 10
55.70186672
 20
105.0041384241
 30
0.0
 40
1.5875
 41
0.0
 71
     1
 72
     1
  1
27
  7
SLDTEXTSTYLE0
 11
6.123233995736766E-17
 21
1.0
 31
0.0
 73
     1
 44
1.0
  0
ENDBLK
  5
183
330
181
100
AcDbEntity
  8
0
100
AcDbBlockEnd
  0
BLOCK
  5
18C
330
18B
100
AcDbEntity
  8
0
100
AcDbBlockBegin
  2
_D_4
 70
     0
 10
0.0
 20
0.0
 30
0.0
  3
_D_4
  1

  0
SOLID
  5
18E
330
18B
100
AcDbEntity
  8
DIM
100
AcDbTrace
 10
37.8789057469
 20
89.377451854
 30
0.0
 11
36.9146616599
 21
88.4416159195
 31
0.0
 12
37.1746903234
 22
88.2330584807
 32
0.0
 13
37.1746903234
 23
88.2330584807
 33
0.0
  0
LINE
  5
18F
330
18B
100
AcDbEntity
  8
DIM
100
AcDbLine
 10
37.8789057469
 20
89.377451854
 30
0.0
 11
26.1651599825
 21
74.7727958284
 31
0.0
  0
LINE
  5
190
330
18B
100
AcDbEntity
  8
DIM
100
AcDbLine
 10
26.1651599825
 20
74.7727958284
 30
0.0
 11
17.9940484634
 21
74.7727958284
 31
0.0
  0
MTEXT
  5
191
330
18B
100
AcDbEntity
  8
DIM
100
AcDbMText
 10
17.9940484634
 20
78.9358574288
 30
0.0
 40
1.5875
 41
0.0
 71
     1
 72
     1
  1
1 HOLE,
  7
SLDTEXTSTYLE0
 73
     1
 44
1.0
  0
MTEXT
  5
192
330
18B
100
AcDbEntity
  8
DIM
100
AcDbMText
 10
17.9940484634
 20
76.8191907877
 30
0.0
 40
1.5875
 41
0.0
 71
     1
 72
     1
  1
M4 CLR
  7
SLDTEXTSTYLE0
 73
     1
 44
1.0
  0
ENDBLK
  5
18D
330
18B
100
AcDbEntity
  8
0
100
AcDbBlockEnd
  0
BLOCK
  5
194
330
193
100
AcDbEntity
  8
0
100
AcDbBlockBegin
  2
SW_CENTERMARKSYMBOL_1
 70
     0
 10
0.0
 20
0.0
 30
0.0
  3
SW_CENTERMARKSYMBOL_1
  1

  0
LINE
  5
196
330
193
100
AcDbEntity
  8
DIM
 62
     0
100
AcDbLine
 10
0.0
 20
0.0
 30
0.0
 11
0.0
 21
1.0
 31
0.0
  0
LINE
  5
197
330
193
100
AcDbEntity
  8
DIM
 62
     0
100
AcDbLine
 10
0.0
 20
0.0
 30
0.0
 11
-1.0
 21
0.0
 31
0.0
  0
LINE
  5
198
330
193
100
AcDbEntity
  8
DIM
 62
     0
100
AcDbLine
 10
0.0
 20
0.0
 30
0.0
 11
0.0
 21
-1.0
 31
0.0
  0
LINE
  5
199
330
193
100
AcDbEntity
  8
DIM
 62
     0
100
AcDbLine
 10
0.0
 20
0.0
 30
0.0
 11
1.0
 21
0.0
 31
0.0
  0
LINE
  5
19A
330
193
100
AcDbEntity
  8
DIM
 62
     0
100
AcDbLine
 10
0.0
 20
2.0
 30
0.0
 11
0.0
 21
5.0
 31
0.0
  0
LINE
  5
19B
330
193
100
AcDbEntity
  8
DIM
 62
     0
100
AcDbLine
 10
-2.0
 20
0.0
 30
0.0
 11
-5.0
 21
0.0
 31
0.0
  0
LINE
  5
19C
330
193
100
AcDbEntity
  8
DIM
 62
     0
100
AcDbLine
 10
0.0
 20
-2.0
 30
0.0
 11
0.0
 21
-5.0
 31
0.0
  0
LINE
  5
19D
330
193
100
AcDbEntity
  8
DIM
 62
     0
100
AcDbLine
 10
2.0
 20
0.0
 30
0.0
 11
5.0
 21
0.0
 31
0.0
  0
ENDBLK
  5
195
330
193
100
AcDbEntity
  8
0
100
AcDbBlockEnd
  0
BLOCK
  5
1B8
330
1B7
100
AcDbEntity
  8
0
100
AcDbBlockBegin
  2
_D_5
 70
     0
 10
0.0
 20
0.0
 30
0.0
  3
_D_5
  1

  0
SOLID
  5
1BA
330
1B7
100
AcDbEntity
  8
DIM
100
AcDbTrace
 10
127.0896355362
 20
38.8857648539
 30
0.0
 11
127.2563022028
 21
40.2190981872
 31
0.0
 12
126.9229688695
 22
40.2190981872
 32
0.0
 13
126.9229688695
 23
40.2190981872
 33
0.0
  0
SOLID
  5
1BB
330
1B7
100
AcDbEntity
  8
DIM
100
AcDbTrace
 10
127.0896355362
 20
68.8857648539
 30
0.0
 11
126.9229688695
 21
67.5524315206
 31
0.0
 12
127.2563022028
 22
67.5524315206
 32
0.0
 13
127.2563022028
 23
67.5524315206
 33
0.0
  0
LINE
  5
1BC
330
1B7
100
AcDbEntity
  8
DIM
100
AcDbLine
 10
116.7011127125
 20
38.8857648539
 30
0.0
 11
127.7563022028
 21
38.8857648539
 31
0.0
  0
LINE
  5
1BD
330
1B7
100
AcDbEntity
  8
DIM
100
AcDbLine
 10
116.7011127125
 20
68.8857648539
 30
0.0
 11
127.7563022028
 21
68.8857648539
 31
0.0
  0
LINE
  5
1BE
330
1B7
100
AcDbEntity
  8
DIM
100
AcDbLine
 10
127.0896355362
 20
38.8857648539
 30
0.0
 11
127.0896355362
 21
68.8857648539
 31
0.0
  0
MTEXT
  5
1BF
330
1B7
100
AcDbEntity
  8
DIM
100
AcDbMText
 10
125.0432405769
 20
52.8921074624
 30
0.0
 40
1.5875
 41
0.0
 71
     1
 72
     1
  1
30
  7
SLDTEXTSTYLE0
 11
2.832769448823990E-16
 21
1.0
 31
0.0
 73
     1
 44
1.0
  0
ENDBLK
  5
1B9
330
1B7
100
AcDbEntity
  8
0
100
AcDbBlockEnd
  0
BLOCK
  5
1C2
330
1C1
100
AcDbEntity
  8
0
100
AcDbBlockBegin
  2
_D_6
 70
     0
 10
0.0
 20
0.0
 30
0.0
  3
_D_6
  1

  0
SOLID
  5
1C4
330
1C1
100
AcDbEntity
  8
DIM
100
AcDbTrace
 10
77.0344460458
 20
34.2190981872
 30
0.0
 11
78.3677793792
 21
34.0524315206
 31
0.0
 12
78.3677793792
 22
34.3857648539
 32
0.0
 13
78.3677793792
 23
34.3857648539
 33
0.0
  0
SOLID
  5
1C5
330
1C1
100
AcDbEntity
  8
DIM
100
AcDbTrace
 10
116.0344460458
 20
34.2190981872
 30
0.0
 11
114.7011127125
 21
34.3857648539
 31
0.0
 12
114.7011127125
 22
34.0524315206
 32
0.0
 13
114.7011127125
 23
34.0524315206
 33
0.0
  0
LINE
  5
1C6
330
1C1
100
AcDbEntity
  8
DIM
100
AcDbLine
 10
77.0344460458
 20
38.2190981872
 30
0.0
 11
77.0344460458
 21
33.5524315206
 31
0.0
  0
LINE
  5
1C7
330
1C1
100
AcDbEntity
  8
DIM
100
AcDbLine
 10
116.0344460458
 20
38.2190981872
 30
0.0
 11
116.0344460458
 21
33.5524315206
 31
0.0
  0
LINE
  5
1C8
330
1C1
100
AcDbEntity
  8
DIM
100
AcDbLine
 10
77.0344460458
 20
34.2190981872
 30
0.0
 11
116.0344460458
 21
34.2190981872
 31
0.0
  0
MTEXT
  5
1C9
330
1C1
100
AcDbEntity
  8
DIM
100
AcDbMText
 10
95.5407886543
 20
36.2654931465
 30
0.0
 40
1.5875
 41
0.0
 71
     1
 72
     1
  1
39
  7
SLDTEXTSTYLE0
 73
     1
 44
1.0
  0
ENDBLK
  5
1C3
330
1C1
100
AcDbEntity
  8
0
100
AcDbBlockEnd
  0
BLOCK
  5
1CD
330
1CC
100
AcDbEntity
  8
0
100
AcDbBlockBegin
  2
_D_7
 70
     0
 10
0.0
 20
0.0
 30
0.0
  3
_D_7
  1

  0
ARC
  5
1CF
330
1CC
100
AcDbEntity
  8
DIM
100
AcDbCircle
 10
108.0344460458
 20
46.8857648539
 30
0.0
 40
37.71236166328251
100
AcDbArc
 50
90.0
 51
180.0
  0
SOLID
  5
1D0
330
1CC
100
AcDbEntity
  8
DIM
100
AcDbTrace
 10
108.0344460458
 20
84.5981265172
 30
0.0
 11
106.6983759687
 21
84.7412079781
 31
0.0
 12
106.7042657653
 22
84.4079266834
 32
0.0
 13
106.7042657653
 23
84.4079266834
 33
0.0
  0
SOLID
  5
1D1
330
1CC
100
AcDbEntity
  8
DIM
100
AcDbTrace
 10
70.3220843825
 20
46.8857648539
 30
0.0
 11
70.5122842163
 21
48.2159451345
 31
0.0
 12
70.1790029216
 22
48.2218349311
 32
0.0
 13
70.1790029216
 23
48.2218349311
 33
0.0
  0
LINE
  5
1D2
330
1CC
100
AcDbEntity
  8
DIM
100
AcDbLine
 10
108.0344460458
 20
69.5524315206
 30
0.0
 11
108.0344460458
 21
85.2647931839
 31
0.0
  0
LINE
  5
1D3
330
1CC
100
AcDbEntity
  8
DIM
100
AcDbLine
 10
76.3677793792
 20
46.8857648539
 30
0.0
 11
69.6554177159
 21
46.8857648539
 31
0.0
  0
MTEXT
  5
1D4
330
1CC
100
AcDbEntity
  8
DIM
100
AcDbMText
 10
79.0372854003
 20
74.1159770471
 30
0.0
 40
1.5875
 41
0.0
 71
     1
 72
     1
  1
90°
  7
SLDTEXTSTYLE0
 11
0.7071067811865431
 21
0.7071067811865519
 31
0.0
 73
     1
 44
1.0
  0
ENDBLK
  5
1CE
330
1CC
100
AcDbEntity
  8
0
100
AcDbBlockEnd
  0
ENDSEC
  0
SECTION
  2
ENTITIES
  0
HATCH
  5
89
330
1F
100
AcDbEntity
  8
0
  6
Continuous
 62
     7
100
AcDbHatch
 10
0.0
 20
0.0
 30
0.0
210
0.0
220
0.0
230
1.0
  2
SOLID
 70
     1
 71
     0
 91
        1
 92
        0
 93
       10
 72
     2
 10
128.0937310419578
 20
23.83720587325904
 40
1.993091105179906
 50
50.39692260731403
 51
112.8514693252978
 73
     0
 72
     2
 10
127.8766706418747
 20
23.62599885337469
 40
1.718223617878412
 50
108.9134333432863
 51
219.5668234386826
 73
     0
 72
     1
 10
126.5521226259736
 20
24.72046902410007
 11
125.8753267277053
 21
25.31749029131191
 72
     1
 10
125.8753267277053
 20
25.31749029131191
 11
125.0042412244508
 21
24.47643224030691
 72
     2
 10
125.6628311990926
 20
23.69741408514964
 40
1.020102955962441
 50
130.2115225915086
 51
228.5889041080189
 73
     1
 72
     1
 10
124.988076836434
 20
22.93235422419985
 11
127.6608783765644
 21
20.60928499735007
 72
     1
 10
127.6608783765644
 20
20.60928499735007
 11
127.2401770962877
 21
20.19868473703605
 72
     1
 10
127.2401770962877
 20
20.19868473703605
 11
127.9014300061047
 21
19.62936855906683
 72
     1
 10
127.9014300061047
 20
19.62936855906683
 11
130.0412062956815
 21
21.70708720274381
 72
     1
 10
130.0412062956815
 20
21.70708720274381
 11
129.3642576079094
 21
22.30157102123255
 97
        0
 75
     0
 76
     1
 98
        1
 10
0.0
 20
0.0
  0
HATCH
  5
8A
330
1F
100
AcDbEntity
  8
0
  6
Continuous
 62
     1
100
AcDbHatch
 10
0.0
 20
0.0
 30
0.0
210
0.0
220
0.0
230
1.0
  2
SOLID
 70
     1
 71
     0
 91
        1
 92
        0
 93
       10
 72
     2
 10
128.3928303751792
 20
23.77537943754406
 40
1.718378325564166
 50
317.8184992995789
 51
398.0564711573074
 73
     0
 72
     1
 10
129.7458876038775
 20
22.71610600464965
 11
130.4028535325327
 21
22.14364137805665
 72
     1
 10
130.4028535325327
 20
22.14364137805665
 11
131.2306410757286
 21
22.94659667299479
 72
     2
 10
130.6350461919538
 20
23.76522782754207
 40
1.01236862494551
 50
306.0377529468134
 51
403.4396461533869
 73
     1
 72
     1
 10
131.3701261017354
 20
24.46132247556751
 11
128.6189555295065
 21
26.85410665465681
 72
     1
 10
128.6189555295065
 20
26.85410665465681
 11
129.0351230641247
 21
27.26014560854837
 72
     1
 10
129.0351230641247
 20
27.26014560854837
 11
128.4147853906687
 21
27.8136070884447
 72
     1
 10
128.4147853906687
 20
27.8136070884447
 11
126.2577284250621
 21
25.72899359070198
 72
     1
 10
126.2577284250621
 20
25.72899359070198
 11
126.9393336766278
 21
25.13446657262145
 72
     2
 10
128.1810595146962
 20
23.41483156722528
 40
2.121091136351917
 50
234.1674444878511
 51
314.4407074583995
 73
     0
 97
        0
 75
     0
 76
     1
 98
        1
 10
0.0
 20
0.0
  0
LINE
  5
8B
330
1F
100
AcDbEntity
  8
0
  6
Continuous
 62
     7
370
     0
100
AcDbLine
 10
111.906251679
 20
11.8496795008
 30
0.0
 11
112.5729183457
 21
11.8496795008
 31
0.0
  0
LINE
  5
8C
330
1F
100
AcDbEntity
  8
0
  6
Continuous
 62
     7
370
     0
100
AcDbLine
 10
109.906251679
 20
11.8496795008
 30
0.0
 11
111.5729183457
 21
11.8496795008
 31
0.0
  0
LINE
  5
8D
330
1F
100
AcDbEntity
  8
0
  6
Continuous
 62
     7
370
     0
100
AcDbLine
 10
120.906251679
 20
10.1830128342
 30
0.0
 11
120.906251679
 21
13.5163461675
 31
0.0
  0
LINE
  5
8E
330
1F
100
AcDbEntity
  8
0
  6
Continuous
 62
     7
370
     0
100
AcDbLine
 10
116.2395850123
 20
10.8496795008
 30
0.0
 11
120.906251679
 21
10.1830128342
 31
0.0
  0
LINE
  5
8F
330
1F
100
AcDbEntity
  8
0
  6
Continuous
 62
     7
370
     0
100
AcDbLine
 10
112.2395850123
 20
11.1830128342
 30
0.0
 11
112.2395850123
 21
9.5163461675
 31
0.0
  0
LINE
  5
90
330
1F
100
AcDbEntity
  8
0
  6
Continuous
 62
     7
370
     0
100
AcDbLine
 10
120.906251679
 20
13.5163461675
 30
0.0
 11
116.2395850123
 21
12.8496795008
 31
0.0
  0
LINE
  5
91
330
1F
100
AcDbEntity
  8
0
  6
Continuous
 62
     7
370
     0
100
AcDbLine
 10
115.5729183457
 20
11.8496795008
 30
0.0
 11
121.5729183457
 21
11.8496795008
 31
0.0
  0
LINE
  5
92
330
1F
100
AcDbEntity
  8
0
  6
Continuous
 62
     7
370
     0
100
AcDbLine
 10
112.2395850123
 20
12.1830128342
 30
0.0
 11
112.2395850123
 21
11.5163461675
 31
0.0
  0
LINE
  5
93
330
1F
100
AcDbEntity
  8
0
  6
Continuous
 62
     7
370
     0
100
AcDbLine
 10
112.906251679
 20
11.8496795008
 30
0.0
 11
114.5729183457
 21
11.8496795008
 31
0.0
  0
LINE
  5
94
330
1F
100
AcDbEntity
  8
0
  6
Continuous
 62
     7
370
     0
100
AcDbLine
 10
112.2395850123
 20
14.1830128342
 30
0.0
 11
112.2395850123
 21
12.5163461675
 31
0.0
  0
LINE
  5
95
330
1F
100
AcDbEntity
  8
0
  6
Continuous
 62
     7
370
     0
100
AcDbLine
 10
116.2395850123
 20
12.8496795008
 30
0.0
 11
116.2395850123
 21
10.8496795008
 31
0.0
  0
LINE
  5
96
330
1F
100
AcDbEntity
  8
工作區域參考線
 62
     1
370
    30
100
AcDbLine
 10
126.9393336766
 20
25.1344665726
 30
0.0
 11
126.2577284251
 21
25.7289935907
 31
0.0
  0
LINE
  5
97
330
1F
100
AcDbEntity
  8
工作區域參考線
 62
     1
370
    30
100
AcDbLine
 10
126.2577284251
 20
25.7289935907
 30
0.0
 11
128.4147853907
 21
27.8136070884
 31
0.0
  0
LINE
  5
98
330
1F
100
AcDbEntity
  8
工作區域參考線
 62
     1
370
    30
100
AcDbLine
 10
128.4147853907
 20
27.8136070884
 30
0.0
 11
129.0351230641
 21
27.2601456085
 31
0.0
  0
LINE
  5
99
330
1F
100
AcDbEntity
  8
工作區域參考線
 62
     1
370
    30
100
AcDbLine
 10
129.0351230641
 20
27.2601456085
 30
0.0
 11
128.6189555295
 21
26.8541066547
 31
0.0
  0
LINE
  5
9A
330
1F
100
AcDbEntity
  8
工作區域參考線
 62
     1
370
    30
100
AcDbLine
 10
128.6189555295
 20
26.8541066547
 30
0.0
 11
131.3701261017
 21
24.4613224756
 31
0.0
  0
LINE
  5
9B
330
1F
100
AcDbEntity
  8
工作區域參考線
 62
     1
370
    30
100
AcDbLine
 10
129.7458876039
 20
22.7161060046
 30
0.0
 11
130.4028535325
 21
22.1436413781
 31
0.0
  0
LINE
  5
9C
330
1F
100
AcDbEntity
  8
工作區域參考線
 62
     1
370
    30
100
AcDbLine
 10
130.4028535325
 20
22.1436413781
 30
0.0
 11
131.2306410757
 21
22.946596673
 31
0.0
  0
LINE
  5
9D
330
1F
100
AcDbEntity
  8
0
  6
Continuous
 62
     7
370
     0
100
AcDbLine
 10
123.7938643473
 20
8.7434976053
 30
0.0
 11
190.460531014
 21
8.7434976053
 31
0.0
  0
LINE
  5
9E
330
1F
100
AcDbEntity
  8
0
  6
Continuous
 62
     7
370
     0
100
AcDbLine
 10
123.7938643473
 20
12.0768309386
 30
0.0
 11
157.1271976806
 21
12.0768309386
 31
0.0
  0
LINE
  5
9F
330
1F
100
AcDbEntity
  8
0
  6
Continuous
 62
     7
370
     0
100
AcDbLine
 10
123.7938643473
 20
15.4101642719
 30
0.0
 11
157.1271976806
 21
15.4101642719
 31
0.0
  0
LINE
  5
A0
330
1F
100
AcDbEntity
  8
0
  6
Continuous
 62
     7
370
     0
100
AcDbLine
 10
123.7938643473
 20
18.7434976053
 30
0.0
 11
190.460531014
 21
18.7434976053
 31
0.0
  0
LINE
  5
A1
330
1F
100
AcDbEntity
  8
0
  6
Continuous
 62
     7
370
     0
100
AcDbLine
 10
157.1271976806
 20
22.0768309386
 30
0.0
 11
190.460531014
 21
22.0768309386
 31
0.0
  0
LINE
  5
A2
330
1F
100
AcDbEntity
  8
0
  6
Continuous
 62
     7
370
    15
100
AcDbLine
 10
157.1271976806
 20
12.0768309386
 30
0.0
 11
190.460531014
 21
12.0768309386
 31
0.0
  0
LINE
  5
A3
330
1F
100
AcDbEntity
  8
0
  6
Continuous
 62
     7
370
     0
100
AcDbLine
 10
123.7938643473
 20
28.7434976053
 30
0.0
 11
190.460531014
 21
28.7434976053
 31
0.0
  0
LINE
  5
A4
330
1F
100
AcDbEntity
  8
0
  6
Continuous
 62
     7
370
     0
100
AcDbLine
 10
167.49147845
 20
5.4101642719
 30
0.0
 11
167.49147845
 21
12.0768309386
 31
0.0
  0
LINE
  5
A5
330
1F
100
AcDbEntity
  8
0
  6
Continuous
 62
     7
370
     0
100
AcDbLine
 10
157.1271976806
 20
5.4101642719
 30
0.0
 11
157.1271976806
 21
28.7434976053
 31
0.0
  0
LINE
  5
A6
330
1F
100
AcDbEntity
  8
0
  6
Continuous
 62
     7
370
     0
100
AcDbLine
 10
167.49147845
 20
18.7434976053
 30
0.0
 11
167.49147845
 21
22.0768309386
 31
0.0
  0
LINE
  5
A7
330
1F
100
AcDbEntity
  8
0
  6
Continuous
 62
     7
370
     0
100
AcDbLine
 10
142.9442724235
 20
5.4101642719
 30
0.0
 11
142.9442724235
 21
18.7434976053
 31
0.0
  0
LINE
  5
A8
330
1F
100
AcDbEntity
  8
0
  6
Continuous
 62
     7
370
     0
100
AcDbLine
 10
133.1857258337
 20
5.4101642719
 30
0.0
 11
133.1857258337
 21
18.7434976053
 31
0.0
  0
LINE
  5
A9
330
1F
100
AcDbEntity
  8
0
  6
Continuous
 62
     7
370
     0
100
AcDbLine
 10
123.7938643473
 20
5.4101642719
 30
0.0
 11
123.7938643473
 21
28.7434976053
 31
0.0
  0
LINE
  5
AA
330
1F
100
AcDbEntity
  8
0
  6
Continuous
 62
     7
370
    15
100
AcDbLine
 10
28.880531014
 20
134.2480183834
 30
0.0
 11
28.880531014
 21
135.2480183834
 31
0.0
  0
LINE
  5
AB
330
1F
100
AcDbEntity
  8
0
  6
Continuous
 62
     7
370
    15
100
AcDbLine
 10
51.9671976806
 20
134.2480183834
 30
0.0
 11
51.9671976806
 21
135.2480183834
 31
0.0
  0
LINE
  5
AC
330
1F
100
AcDbEntity
  8
0
  6
Continuous
 62
     7
370
    15
100
AcDbLine
 10
75.0538643473
 20
134.2480183834
 30
0.0
 11
75.0538643473
 21
135.2480183834
 31
0.0
  0
LINE
  5
AD
330
1F
100
AcDbEntity
  8
0
  6
Continuous
 62
     7
370
    15
100
AcDbLine
 10
98.140531014
 20
134.2480183834
 30
0.0
 11
98.140531014
 21
135.2480183834
 31
0.0
  0
LINE
  5
AE
330
1F
100
AcDbEntity
  8
0
  6
Continuous
 62
     7
370
    15
100
AcDbLine
 10
121.2271976806
 20
134.2480183834
 30
0.0
 11
121.2271976806
 21
135.2480183834
 31
0.0
  0
LINE
  5
AF
330
1F
100
AcDbEntity
  8
0
  6
Continuous
 62
     7
370
    15
100
AcDbLine
 10
144.3138643473
 20
134.2480183834
 30
0.0
 11
144.3138643473
 21
135.2480183834
 31
0.0
  0
LINE
  5
B0
330
1F
100
AcDbEntity
  8
0
  6
Continuous
 62
     7
370
    15
100
AcDbLine
 10
167.400531014
 20
134.2480183834
 30
0.0
 11
167.400531014
 21
135.2480183834
 31
0.0
  0
LINE
  5
B1
330
1F
100
AcDbEntity
  8
0
  6
Continuous
 62
     7
370
    15
100
AcDbLine
 10
28.8771976806
 20
5.4101642719
 30
0.0
 11
28.8771976806
 21
4.4101642719
 31
0.0
  0
LINE
  5
B2
330
1F
100
AcDbEntity
  8
0
  6
Continuous
 62
     7
370
    15
100
AcDbLine
 10
51.960531014
 20
5.4101642719
 30
0.0
 11
51.960531014
 21
4.4101642719
 31
0.0
  0
LINE
  5
B3
330
1F
100
AcDbEntity
  8
0
  6
Continuous
 62
     7
370
    15
100
AcDbLine
 10
75.0438643473
 20
5.4101642719
 30
0.0
 11
75.0438643473
 21
4.4101642719
 31
0.0
  0
LINE
  5
B4
330
1F
100
AcDbEntity
  8
0
  6
Continuous
 62
     7
370
    15
100
AcDbLine
 10
98.1271976806
 20
5.4101642719
 30
0.0
 11
98.1271976806
 21
4.4101642719
 31
0.0
  0
LINE
  5
B5
330
1F
100
AcDbEntity
  8
0
  6
Continuous
 62
     7
370
    15
100
AcDbLine
 10
121.210531014
 20
5.4101642719
 30
0.0
 11
121.210531014
 21
4.4101642719
 31
0.0
  0
LINE
  5
B6
330
1F
100
AcDbEntity
  8
0
  6
Continuous
 62
     7
370
    15
100
AcDbLine
 10
144.2938643473
 20
5.4101642719
 30
0.0
 11
144.2938643473
 21
4.4101642719
 31
0.0
  0
LINE
  5
B7
330
1F
100
AcDbEntity
  8
0
  6
Continuous
 62
     7
370
     0
100
AcDbLine
 10
190.460531014
 20
134.2480183834
 30
0.0
 11
5.7938643473
 21
134.2480183834
 31
0.0
  0
LINE
  5
B8
330
1F
100
AcDbEntity
  8
0
  6
Continuous
 62
     7
370
     0
100
AcDbLine
 10
190.460531014
 20
5.4101642719
 30
0.0
 11
190.460531014
 21
134.2480183834
 31
0.0
  0
LINE
  5
B9
330
1F
100
AcDbEntity
  8
0
  6
Continuous
 62
     7
370
     0
100
AcDbLine
 10
5.7938643473
 20
134.2480183834
 30
0.0
 11
5.7938643473
 21
5.4101642719
 31
0.0
  0
LINE
  5
BA
330
1F
100
AcDbEntity
  8
0
  6
Continuous
 62
     7
370
     0
100
AcDbLine
 10
5.7938643473
 20
5.4101642719
 30
0.0
 11
190.460531014
 21
5.4101642719
 31
0.0
  0
LINE
  5
BB
330
1F
100
AcDbEntity
  8
0
  6
Continuous
 62
     7
370
    15
100
AcDbLine
 10
167.3771976806
 20
5.4101642719
 30
0.0
 11
167.3771976806
 21
4.4101642719
 31
0.0
  0
LINE
  5
BC
330
1F
100
AcDbEntity
  8
0
  6
Continuous
 62
     7
370
    15
100
AcDbLine
 10
5.7938643473
 20
26.8834976053
 30
0.0
 11
4.7938643473
 21
26.8834976053
 31
0.0
  0
LINE
  5
BD
330
1F
100
AcDbEntity
  8
0
  6
Continuous
 62
     7
370
    15
100
AcDbLine
 10
5.7938643473
 20
48.3568309386
 30
0.0
 11
4.7938643473
 21
48.3568309386
 31
0.0
  0
LINE
  5
BE
330
1F
100
AcDbEntity
  8
0
  6
Continuous
 62
     7
370
    15
100
AcDbLine
 10
5.7938643473
 20
69.8301642719
 30
0.0
 11
4.7938643473
 21
69.8301642719
 31
0.0
  0
LINE
  5
BF
330
1F
100
AcDbEntity
  8
0
  6
Continuous
 62
     7
370
    15
100
AcDbLine
 10
5.7938643473
 20
91.3034976053
 30
0.0
 11
4.7938643473
 21
91.3034976053
 31
0.0
  0
LINE
  5
C0
330
1F
100
AcDbEntity
  8
0
  6
Continuous
 62
     7
370
    15
100
AcDbLine
 10
5.7938643473
 20
112.7768309386
 30
0.0
 11
4.7938643473
 21
112.7768309386
 31
0.0
  0
LINE
  5
C1
330
1F
100
AcDbEntity
  8
0
  6
Continuous
 62
     7
370
    15
100
AcDbLine
 10
190.460531014
 20
26.8834976053
 30
0.0
 11
191.460531014
 21
26.8834976053
 31
0.0
  0
LINE
  5
C2
330
1F
100
AcDbEntity
  8
0
  6
Continuous
 62
     7
370
    15
100
AcDbLine
 10
190.460531014
 20
48.3568309386
 30
0.0
 11
191.460531014
 21
48.3568309386
 31
0.0
  0
LINE
  5
C3
330
1F
100
AcDbEntity
  8
0
  6
Continuous
 62
     7
370
    15
100
AcDbLine
 10
190.460531014
 20
69.8301642719
 30
0.0
 11
191.460531014
 21
69.8301642719
 31
0.0
  0
LINE
  5
C4
330
1F
100
AcDbEntity
  8
0
  6
Continuous
 62
     7
370
    15
100
AcDbLine
 10
190.460531014
 20
91.3034976053
 30
0.0
 11
191.460531014
 21
91.3034976053
 31
0.0
  0
LINE
  5
C5
330
1F
100
AcDbEntity
  8
0
  6
Continuous
 62
     7
370
    15
100
AcDbLine
 10
190.460531014
 20
112.7768309386
 30
0.0
 11
191.460531014
 21
112.7768309386
 31
0.0
  0
CIRCLE
  5
C6
330
1F
100
AcDbEntity
  8
0
  6
Continuous
 62
     7
370
     0
100
AcDbCircle
 10
112.2395850123
 20
11.8496795008
 30
0.0
 40
1.0
  0
CIRCLE
  5
C7
330
1F
100
AcDbEntity
  8
0
  6
Continuous
 62
     7
370
     0
100
AcDbCircle
 10
112.2395850123
 20
11.8496795008
 30
0.0
 40
1.666666666666643
  0
ARC
  5
C8
330
1F
100
AcDbEntity
  8
工作區域參考線
 62
     1
370
    30
100
AcDbCircle
 10
130.635046192
 20
23.7652278275
 30
0.0
 40
1.012368624945523
100
AcDbArc
 50
306.0377529468
 51
43.4396461534
  0
ARC
  5
C9
330
1F
100
AcDbEntity
  8
工作區域參考線
 62
     1
370
    30
100
AcDbCircle
 10
128.1810595147
 20
23.4148315672
 30
0.0
 40
2.121091136351941
100
AcDbArc
 50
45.5592925416
 51
125.8325555121
  0
ARC
  5
CA
330
1F
100
AcDbEntity
  8
工作區域參考線
 62
     1
370
    30
100
AcDbCircle
 10
128.3928303752
 20
23.7753794375
 30
0.0
 40
1.718378325564182
100
AcDbArc
 50
321.9435288427
 51
42.1815007004
  0
INSERT
  5
CB
330
1F
100
AcDbEntity
  8
0
  6
Continuous
 62
     7
100
AcDbBlockReference
  2
圖塊6
 10
124.6427282431
 20
19.6293685591
 30
0.0
  0
MTEXT
  5
CD
330
1F
100
AcDbEntity
  8
DIM
100
AcDbMText
 10
164.7708190324
 20
28.1672896514
 30
0.0
 40
1.6666666667
 41
0.0
 71
     1
 72
     1
  1
XXX
  7
SLDTEXTSTYLE0
 73
     1
 44
1.0
  0
MTEXT
  5
CF
330
1F
100
AcDbEntity
  8
0
  6
Continuous
 62
     7
370
     0
100
AcDbMText
 10
110.3617900536
 20
8.8138960246
 30
0.0
 40
1.7638888889
 41
0.0
 71
     1
 72
     1
  1
UNIT:m/m
  7
SLDTEXTSTYLE1
 73
     1
 44
1.0
  0
INSERT
  5
D6
330
1F
100
AcDbEntity
  8
0
  6
Continuous
 62
     7
370
     0
100
AcDbBlockReference
  2
SW_NOTE_0
 10
8.1543384036
 20
129.2602869501
 30
0.0
  0
MTEXT
  5
D7
330
1F
100
AcDbEntity
  8
0
  6
Continuous
 62
     7
370
     0
100
AcDbMText
 10
132.4834595957
 20
26.9604516092
 30
0.0
 40
1.5875
 41
0.0
 71
     1
 72
     1
  1
Unice E-O Services Inc.
  7
SLDTEXTSTYLE1
 73
     1
 44
1.0
  0
MTEXT
  5
D8
330
1F
100
AcDbEntity
  8
0
  6
Continuous
 62
     7
370
     0
100
AcDbMText
 10
145.03936921
 20
14.3911432341
 30
0.0
 40
1.2347222222
 41
0.0
 71
     1
 72
     1
  1
2018/11/8
  7
SLDTEXTSTYLE1
 73
     1
 44
1.0
  0
MTEXT
  5
D9
330
1F
100
AcDbEntity
  8
0
  6
Continuous
 62
     7
370
     0
100
AcDbMText
 10
168.4059321671
 20
11.2474518267
 30
0.0
 40
1.6666666667
 41
0.0
 71
     1
 72
     1
  1
1.5:1
  7
SLDTEXTSTYLE1
 73
     1
 44
1.0
  0
MTEXT
  5
DA
330
1F
100
AcDbEntity
  8
0
  6
Continuous
 62
     7
370
     0
100
AcDbMText
 10
168.205039999
 20
21.4346130292
 30
0.0
 40
1.6666666667
 41
0.0
 71
     1
 72
     1
  1
04FOM-2M
  7
SLDTEXTSTYLE1
 73
     1
 44
1.0
  0
MTEXT
  5
DB
330
1F
100
AcDbEntity
  8
0
  6
Continuous
 62
     7
370
     0
100
AcDbMText
 10
168.205039999
 20
25.4054745252
 30
0.0
 40
1.6666666667
 41
0.0
 71
     1
 72
     1
  1
04FOM-2M
  7
SLDTEXTSTYLE1
 73
     1
 44
1.0
  0
MTEXT
  5
DC
330
1F
100
AcDbEntity
  8
0
  6
Continuous
 62
     7
370
     0
100
AcDbMText
 10
157.5947911191
 20
11.0043197152
 30
0.0
 40
1.4111111111
 41
0.0
 71
     1
 72
     1
  1
SCALE:
  7
SLDTEXTSTYLE1
 73
     1
 44
1.0
  0
MTEXT
  5
DD
330
1F
100
AcDbEntity
  8
0
  6
Continuous
 62
     7
370
     0
100
AcDbMText
 10
124.222405786
 20
14.3911432341
 30
0.0
 40
1.2347222222
 41
0.0
 71
     1
 72
     1
  1
DRAWN
  7
SLDTEXTSTYLE1
 73
     1
 44
1.0
  0
MTEXT
  5
DE
330
1F
100
AcDbEntity
  8
0
  6
Continuous
 62
     7
370
     0
100
AcDbMText
 10
135.4818911958
 20
17.7888055387
 30
0.0
 40
1.2347222222
 41
0.0
 71
     1
 72
     1
  1
NAME
  7
SLDTEXTSTYLE1
 73
     1
 44
1.0
  0
MTEXT
  5
DF
330
1F
100
AcDbEntity
  8
0
  6
Continuous
 62
     7
370
     0
100
AcDbMText
 10
147.2473437172
 20
17.7888055387
 30
0.0
 40
1.2347222222
 41
0.0
 71
     1
 72
     1
  1
DATE
  7
SLDTEXTSTYLE1
 73
     1
 44
1.0
  0
MTEXT
  5
E0
330
1F
100
AcDbEntity
  8
0
  6
Continuous
 62
     7
370
     0
100
AcDbMText
 10
157.5170877763
 20
21.1914809177
 30
0.0
 40
1.4111111111
 41
0.0
 71
     1
 72
     1
  1
DWG. NO.
  7
SLDTEXTSTYLE1
 73
     1
 44
1.0
  0
MTEXT
  5
E1
330
1F
100
AcDbEntity
  8
0
  6
Continuous
 62
     7
370
     0
100
AcDbMText
 10
157.5753271392
 20
27.9227105495
 30
0.0
 40
1.4111111111
 41
0.0
 71
     1
 72
     1
  1
TITLE:
  7
SLDTEXTSTYLE1
 73
     1
 44
1.0
  0
MTEXT
  5
E2
330
1F
100
AcDbEntity
  8
0
  6
Continuous
 62
     7
370
     0
100
AcDbMText
 10
135.3542806535
 20
10.8269193149
 30
0.0
 40
1.2347222222
 41
0.0
 71
     1
 72
     1
  1
Johnny
  7
SLDTEXTSTYLE1
 73
     1
 44
1.0
  0
MTEXT
  5
E3
330
1F
100
AcDbEntity
  8
0
  6
Continuous
 62
     7
370
     0
100
AcDbMText
 10
145.03936921
 20
10.8269193149
 30
0.0
 40
1.2347222222
 41
0.0
 71
     1
 72
     1
  1
2018/11/8
  7
SLDTEXTSTYLE1
 73
     1
 44
1.0
  0
MTEXT
  5
E4
330
1F
100
AcDbEntity
  8
0
  6
Continuous
 62
     7
370
     0
100
AcDbMText
 10
124.222405786
 20
10.8269193149
 30
0.0
 40
1.2347222222
 41
0.0
 71
     1
 72
     1
  1
ENG APPR.
  7
SLDTEXTSTYLE1
 73
     1
 44
1.0
  0
MTEXT
  5
E5
330
1F
100
AcDbEntity
  8
0
  6
Continuous
 62
     7
370
     0
100
AcDbMText
 10
157.5947911191
 20
7.7902259525
 30
0.0
 40
1.4111111111
 41
0.0
 71
     1
 72
     1
  1
REV
  7
SLDTEXTSTYLE1
 73
     1
 44
1.0
  0
MTEXT
  5
E6
330
1F
100
AcDbEntity
  8
0
  6
Continuous
 62
     7
370
     0
100
AcDbMText
 10
157.5753271392
 20
17.966205939
 30
0.0
 40
1.4111111111
 41
0.0
 71
     1
 72
     1
  1
MATERIAL:
  7
SLDTEXTSTYLE1
 73
     1
 44
1.0
  0
MTEXT
  5
E7
330
1F
100
AcDbEntity
  8
0
  6
Continuous
 62
     7
370
     0
100
AcDbMText
 10
168.4059321671
 20
14.8116757458
 30
0.0
 40
1.6666666667
 41
0.0
 71
     1
 72
     1
  1
N/A
  7
SLDTEXTSTYLE1
 73
     1
 44
1.0
  0
MTEXT
  5
E8
330
1F
100
AcDbEntity
  8
0
  6
Continuous
 62
     7
370
     0
100
AcDbMText
 10
17.7353287689
 20
136.302234438
 30
0.0
 40
1.4111111111
 41
0.0
 71
     1
 72
     1
  1
1
  7
SLDTEXTSTYLE1
 73
     1
 44
1.0
  0
MTEXT
  5
E9
330
1F
100
AcDbEntity
  8
0
  6
Continuous
 62
     7
370
     0
100
AcDbMText
 10
40.4780663816
 20
136.302234438
 30
0.0
 40
1.4111111111
 41
0.0
 71
     1
 72
     1
  1
2
  7
SLDTEXTSTYLE1
 73
     1
 44
1.0
  0
MTEXT
  5
EA
330
1F
100
AcDbEntity
  8
0
  6
Continuous
 62
     7
370
     0
100
AcDbMText
 10
63.2673295937
 20
136.302234438
 30
0.0
 40
1.4111111111
 41
0.0
 71
     1
 72
     1
  1
3
  7
SLDTEXTSTYLE1
 73
     1
 44
1.0
  0
MTEXT
  5
EB
330
1F
100
AcDbEntity
  8
0
  6
Continuous
 62
     7
370
     0
100
AcDbMText
 10
86.1688908567
 20
136.1995056243
 30
0.0
 40
1.4111111111
 41
0.0
 71
     1
 72
     1
  1
4
  7
SLDTEXTSTYLE1
 73
     1
 44
1.0
  0
MTEXT
  5
EC
330
1F
100
AcDbEntity
  8
0
  6
Continuous
 62
     7
370
     0
100
AcDbMText
 10
109.1348823093
 20
136.302234438
 30
0.0
 40
1.4111111111
 41
0.0
 71
     1
 72
     1
  1
5
  7
SLDTEXTSTYLE1
 73
     1
 44
1.0
  0
MTEXT
  5
ED
330
1F
100
AcDbEntity
  8
0
  6
Continuous
 62
     7
370
     0
100
AcDbMText
 10
132.4254780277
 20
136.302234438
 30
0.0
 40
1.4111111111
 41
0.0
 71
     1
 72
     1
  1
6
  7
SLDTEXTSTYLE1
 73
     1
 44
1.0
  0
MTEXT
  5
EE
330
1F
100
AcDbEntity
  8
0
  6
Continuous
 62
     7
370
     0
100
AcDbMText
 10
156.2420438271
 20
136.302234438
 30
0.0
 40
1.4111111111
 41
0.0
 71
     1
 72
     1
  1
7
  7
SLDTEXTSTYLE1
 73
     1
 44
1.0
  0
MTEXT
  5
EF
330
1F
100
AcDbEntity
  8
0
  6
Continuous
 62
     7
370
     0
100
AcDbMText
 10
177.5191880329
 20
136.302234438
 30
0.0
 40
1.4111111111
 41
0.0
 71
     1
 72
     1
  1
8
  7
SLDTEXTSTYLE1
 73
     1
 44
1.0
  0
MTEXT
  5
F0
330
1F
100
AcDbEntity
  8
0
  6
Continuous
 62
     7
370
     0
100
AcDbMText
 10
3.5712157703
 20
123.8742015253
 30
0.0
 40
1.4111111111
 41
0.0
 71
     1
 72
     1
  1
A
  7
SLDTEXTSTYLE1
 73
     1
 44
1.0
  0
MTEXT
  5
F1
330
1F
100
AcDbEntity
  8
0
  6
Continuous
 62
     7
370
     0
100
AcDbMText
 10
3.7273621221
 20
102.8662032159
 30
0.0
 40
1.4111111111
 41
0.0
 71
     1
 72
     1
  1
B
  7
SLDTEXTSTYLE1
 73
     1
 44
1.0
  0
MTEXT
  5
F2
330
1F
100
AcDbEntity
  8
0
  6
Continuous
 62
     7
370
     0
100
AcDbMText
 10
3.7273621221
 20
80.8495676153
 30
0.0
 40
1.4111111111
 41
0.0
 71
     1
 72
     1
  1
C
  7
SLDTEXTSTYLE1
 73
     1
 44
1.0
  0
MTEXT
  5
F3
330
1F
100
AcDbEntity
  8
0
  6
Continuous
 62
     7
370
     0
100
AcDbMText
 10
3.7273621221
 20
59.1635480147
 30
0.0
 40
1.4111111111
 41
0.0
 71
     1
 72
     1
  1
D
  7
SLDTEXTSTYLE1
 73
     1
 44
1.0
  0
MTEXT
  5
F4
330
1F
100
AcDbEntity
  8
0
  6
Continuous
 62
     7
370
     0
100
AcDbMText
 10
3.7273621221
 20
38.3705899465
 30
0.0
 40
1.4111111111
 41
0.0
 71
     1
 72
     1
  1
E
  7
SLDTEXTSTYLE1
 73
     1
 44
1.0
  0
MTEXT
  5
F5
330
1F
100
AcDbEntity
  8
0
  6
Continuous
 62
     7
370
     0
100
AcDbMText
 10
3.7273621221
 20
17.0462808168
 30
0.0
 40
1.4111111111
 41
0.0
 71
     1
 72
     1
  1
F
  7
SLDTEXTSTYLE1
 73
     1
 44
1.0
  0
MTEXT
  5
F6
330
1F
100
AcDbEntity
  8
0
  6
Continuous
 62
     7
370
     0
100
AcDbMText
 10
177.4572411309
 20
4.4157482642
 30
0.0
 40
1.4111111111
 41
0.0
 71
     1
 72
     1
  1
8
  7
SLDTEXTSTYLE1
 73
     1
 44
1.0
  0
MTEXT
  5
F7
330
1F
100
AcDbEntity
  8
0
  6
Continuous
 62
     7
370
     0
100
AcDbMText
 10
156.1800969251
 20
4.4157482642
 30
0.0
 40
1.4111111111
 41
0.0
 71
     1
 72
     1
  1
7
  7
SLDTEXTSTYLE1
 73
     1
 44
1.0
  0
MTEXT
  5
F8
330
1F
100
AcDbEntity
  8
0
  6
Continuous
 62
     7
370
     0
100
AcDbMText
 10
132.3635311257
 20
4.4157482642
 30
0.0
 40
1.4111111111
 41
0.0
 71
     1
 72
     1
  1
6
  7
SLDTEXTSTYLE1
 73
     1
 44
1.0
  0
MTEXT
  5
F9
330
1F
100
AcDbEntity
  8
0
  6
Continuous
 62
     7
370
     0
100
AcDbMText
 10
109.0729354073
 20
4.4157482642
 30
0.0
 40
1.4111111111
 41
0.0
 71
     1
 72
     1
  1
5
  7
SLDTEXTSTYLE1
 73
     1
 44
1.0
  0
MTEXT
  5
FA
330
1F
100
AcDbEntity
  8
0
  6
Continuous
 62
     7
370
     0
100
AcDbMText
 10
86.1069439547
 20
4.3130194505
 30
0.0
 40
1.4111111111
 41
0.0
 71
     1
 72
     1
  1
4
  7
SLDTEXTSTYLE1
 73
     1
 44
1.0
  0
MTEXT
  5
FB
330
1F
100
AcDbEntity
  8
0
  6
Continuous
 62
     7
370
     0
100
AcDbMText
 10
63.2053826917
 20
4.4157482642
 30
0.0
 40
1.4111111111
 41
0.0
 71
     1
 72
     1
  1
3
  7
SLDTEXTSTYLE1
 73
     1
 44
1.0
  0
MTEXT
  5
FC
330
1F
100
AcDbEntity
  8
0
  6
Continuous
 62
     7
370
     0
100
AcDbMText
 10
40.4161194796
 20
4.4157482642
 30
0.0
 40
1.4111111111
 41
0.0
 71
     1
 72
     1
  1
2
  7
SLDTEXTSTYLE1
 73
     1
 44
1.0
  0
MTEXT
  5
FD
330
1F
100
AcDbEntity
  8
0
  6
Continuous
 62
     7
370
     0
100
AcDbMText
 10
17.6733818669
 20
4.4157482642
 30
0.0
 40
1.4111111111
 41
0.0
 71
     1
 72
     1
  1
1
  7
SLDTEXTSTYLE1
 73
     1
 44
1.0
  0
MTEXT
  5
FE
330
1F
100
AcDbEntity
  8
0
  6
Continuous
 62
     7
370
     0
100
AcDbMText
 10
191.401589743
 20
124.4283272728
 30
0.0
 40
1.4111111111
 41
0.0
 71
     1
 72
     1
  1
A
  7
SLDTEXTSTYLE1
 73
     1
 44
1.0
  0
MTEXT
  5
FF
330
1F
100
AcDbEntity
  8
0
  6
Continuous
 62
     7
370
     0
100
AcDbMText
 10
191.5577360947
 20
103.4203289634
 30
0.0
 40
1.4111111111
 41
0.0
 71
     1
 72
     1
  1
B
  7
SLDTEXTSTYLE1
 73
     1
 44
1.0
  0
MTEXT
  5
100
330
1F
100
AcDbEntity
  8
0
  6
Continuous
 62
     7
370
     0
100
AcDbMText
 10
191.5577360947
 20
81.4036933628
 30
0.0
 40
1.4111111111
 41
0.0
 71
     1
 72
     1
  1
C
  7
SLDTEXTSTYLE1
 73
     1
 44
1.0
  0
MTEXT
  5
101
330
1F
100
AcDbEntity
  8
0
  6
Continuous
 62
     7
370
     0
100
AcDbMText
 10
191.5577360947
 20
59.7176737622
 30
0.0
 40
1.4111111111
 41
0.0
 71
     1
 72
     1
  1
D
  7
SLDTEXTSTYLE1
 73
     1
 44
1.0
  0
MTEXT
  5
102
330
1F
100
AcDbEntity
  8
0
  6
Continuous
 62
     7
370
     0
100
AcDbMText
 10
191.5577360947
 20
38.924715694
 30
0.0
 40
1.4111111111
 41
0.0
 71
     1
 72
     1
  1
E
  7
SLDTEXTSTYLE1
 73
     1
 44
1.0
  0
MTEXT
  5
103
330
1F
100
AcDbEntity
  8
0
  6
Continuous
 62
     7
370
     0
100
AcDbMText
 10
191.5577360947
 20
17.6004065643
 30
0.0
 40
1.4111111111
 41
0.0
 71
     1
 72
     1
  1
F
  7
SLDTEXTSTYLE1
 73
     1
 44
1.0
  0
MTEXT
  5
104
330
1F
100
AcDbEntity
  8
0
  6
Continuous
 62
     7
370
     0
100
AcDbMText
 10
135.4368752535
 20
14.3911432341
 30
0.0
 40
1.2347222222
 41
0.0
 71
     1
 72
     1
  1
Sky
  7
SLDTEXTSTYLE1
 73
     1
 44
1.0
  0
MTEXT
  5
105
330
1F
100
AcDbEntity
  8
0
  6
Continuous
 62
     7
370
     0
100
AcDbMText
 10
168.565482643
 20
8.1479735545
 30
0.0
 40
1.5875
 41
0.0
 71
     1
 72
     1
  1
0
  7
SLDTEXTSTYLE0
 73
     1
 44
1.0
  0
INSERT
  5
10B
330
1F
100
AcDbEntity
  8
SLD-0
 62
     7
100
AcDbBlockReference
  2
SW_NOTE_1
 10
132.4834595957
 20
22.3653163475
 30
0.0
  0
ARC
  5
10C
330
1F
100
AcDbEntity
  8
0
  6
Continuous
 62
     7
370
    30
100
AcDbCircle
 10
40.3815950126
 20
46.6138382567
 30
0.0
 40
1.500000000000005
100
AcDbArc
 50
10.4445813023
 51
169.5554186977
  0
ARC
  5
10D
330
1F
100
AcDbEntity
  8
0
  6
Continuous
 62
     7
370
    30
100
AcDbCircle
 10
40.3815950126
 20
56.1857648539
 30
0.0
 40
12.7
100
AcDbArc
 50
90.0
 51
180.0
  0
ARC
  5
10E
330
1F
100
AcDbEntity
  8
0
  6
Continuous
 62
     7
370
    30
100
AcDbCircle
 10
40.3815950126
 20
56.1857648539
 30
0.0
 40
12.7
100
AcDbArc
 50
0.0
 51
90.0
  0
CIRCLE
  5
10F
330
1F
100
AcDbEntity
  8
0
  6
Continuous
 62
     7
370
    30
100
AcDbCircle
 10
40.3815950126
 20
56.8857648539
 30
0.0
 40
1.649999999999984
  0
LINE
  5
110
330
1F
100
AcDbEntity
  8
0
  6
Continuous
 62
     7
370
    30
100
AcDbLine
 10
27.6815951661
 20
56.1857652682
 30
0.0
 11
27.6815951661
 21
46.8857652339
 31
0.0
  0
LINE
  5
111
330
1F
100
AcDbEntity
  8
0
  6
Continuous
 62
     7
370
    30
100
AcDbLine
 10
53.0815948592
 20
46.8857652339
 30
0.0
 11
53.0815948592
 21
56.1857652682
 31
0.0
  0
LINE
  5
112
330
1F
100
AcDbEntity
  8
0
  6
Continuous
 62
     7
370
    30
100
AcDbLine
 10
27.6815951661
 20
38.8857648539
 30
0.0
 11
27.6815951661
 21
46.8857652339
 31
0.0
  0
LINE
  5
113
330
1F
100
AcDbEntity
  8
0
  6
Continuous
 62
     7
370
    30
100
AcDbLine
 10
40.3815950126
 20
38.8857648539
 30
0.0
 11
40.3815950126
 21
46.8857652339
 31
0.0
  0
LINE
  5
114
330
1F
100
AcDbEntity
  8
0
  6
Continuous
 62
     7
370
    30
100
AcDbLine
 10
40.3815950126
 20
38.8857648539
 30
0.0
 11
27.6815951661
 21
38.8857648539
 31
0.0
  0
LINE
  5
115
330
1F
100
AcDbEntity
  8
0
  6
Continuous
 62
     7
370
    30
100
AcDbLine
 10
27.6815951661
 20
46.8857652339
 30
0.0
 11
40.3815950126
 21
46.8857652339
 31
0.0
  0
LINE
  5
116
330
1F
100
AcDbEntity
  8
0
  6
Continuous
 62
     7
370
    30
100
AcDbLine
 10
53.0815948592
 20
46.8857652339
 30
0.0
 11
53.0815948592
 21
38.8857648539
 31
0.0
  0
LINE
  5
117
330
1F
100
AcDbEntity
  8
0
  6
Continuous
 62
     7
370
    30
100
AcDbLine
 10
53.0815948592
 20
38.8857648539
 30
0.0
 11
40.3815950126
 21
38.8857648539
 31
0.0
  0
LINE
  5
118
330
1F
100
AcDbEntity
  8
0
  6
Continuous
 62
     7
370
    30
100
AcDbLine
 10
40.3815950126
 20
46.8857652339
 30
0.0
 11
53.0815948592
 21
46.8857652339
 31
0.0
  0
DIMENSION
  5
119
330
1F
100
AcDbEntity
  8
DIM
100
AcDbDimension
  2
_D
 10
23.014928346
 20
38.8857648539
 30
0.0
 11
23.014928346
 21
47.8857648539
 31
0.0
 70
   160
  1
<>
 71
     2
 42
-1.0
  3
SLDDIMSTYLE0
100
AcDbAlignedDimension
 13
37.7315950126
 23
56.8857648539
 33
0.0
 14
27.6815950126
 24
38.8857648539
 34
0.0
 50
90.0
100
AcDbRotatedDimension
  0
DIMENSION
  5
124
330
1F
100
AcDbEntity
  8
DIM
100
AcDbDimension
  2
_D_1
 10
53.0815950126
 20
34.2190981872
 30
0.0
 11
40.3815950126
 21
34.2190981872
 31
0.0
 70
   160
  1
<>
 71
     2
 42
-1.0
  3
SLDDIMSTYLE0
100
AcDbAlignedDimension
 13
27.6815950126
 23
38.8857648539
 33
0.0
 14
53.0815950126
 24
38.8857648539
 34
0.0
 50
0.0
100
AcDbRotatedDimension
  0
DIMENSION
  5
12E
330
1F
100
AcDbEntity
  8
DIM
100
AcDbDimension
  2
_D_2
 10
39.2398043041
 20
55.6946250729
 30
0.0
 11
59.8454955514
 21
74.6107648411
 31
0.0
 70
   163
  1
1 HOLE,\PM4
 71
     1
 42
-1.0
  3
SLDDIMSTYLE1
100
AcDbDiametricDimension
 15
41.5233857212
 25
58.0769046349
 35
0.0
 40
0.0
  0
INSERT
  5
143
330
1F
100
AcDbEntity
  8
DIM
100
AcDbBlockReference
  2
SW_CENTERMARKSYMBOL_0
 10
40.3815950126
 20
56.8857648539
 30
0.0
  0
ARC
  5
144
330
1F
100
AcDbEntity
  8
0
  6
Continuous
 62
     7
370
    30
100
AcDbCircle
 10
40.3815950126
 20
84.5032133518
 30
0.0
 40
1.500000000000014
100
AcDbArc
 50
270.0
 51
359.8964611427
  0
ARC
  5
145
330
1F
100
AcDbEntity
  8
0
  6
Continuous
 62
     7
370
    30
100
AcDbCircle
 10
40.3815950126
 20
84.5032133518
 30
0.0
 40
1.500000000000014
100
AcDbArc
 50
180.1035388573
 51
270.0
  0
LWPOLYLINE
  5
146
330
1F
100
AcDbEntity
  8
0
  6
Continuous
 62
     7
370
    30
100
AcDbPolyline
 90
        3
 70
   128
 43
0.0
 10
35.2958086738
 20
102.2977952315
 10
35.2803035499
 20
102.3396581813
 10
35.1927801826
 20
102.5263511046
  0
LWPOLYLINE
  5
147
330
1F
100
AcDbEntity
  8
0
  6
Continuous
 62
     7
370
    30
100
AcDbPolyline
 90
        3
 70
   128
 43
0.0
 10
32.5677092047
 20
102.5214691116
 10
32.4828862072
 20
102.3396581813
 10
32.467381549
 20
102.2977952315
  0
LWPOLYLINE
  5
148
330
1F
100
AcDbEntity
  8
0
  6
Continuous
 62
     7
370
    30
100
AcDbPolyline
 90
        3
 70
   128
 43
0.0
 10
48.2958084763
 20
102.2977952315
 10
48.2243397133
 20
102.4664037331
 10
48.1946566002
 20
102.5229648157
  0
LWPOLYLINE
  5
149
330
1F
100
AcDbEntity
  8
0
  6
Continuous
 62
     7
370
    30
100
AcDbPolyline
 90
        3
 70
   128
 43
0.0
 10
45.5709667736
 20
102.5273532077
 10
45.5388501146
 20
102.4664037331
 10
45.4673813515
 20
102.2977952315
  0
LINE
  5
14A
330
1F
100
AcDbEntity
  8
0
  6
Continuous
 62
     7
370
    30
100
AcDbLine
 10
27.6815951661
 20
111.4977954357
 30
0.0
 11
27.6815951661
 21
119.4977958157
 31
0.0
  0
LINE
  5
14B
330
1F
100
AcDbEntity
  8
0
  6
Continuous
 62
     7
370
    30
100
AcDbLine
 10
40.3815950126
 20
111.4977954357
 30
0.0
 11
40.3815950126
 21
119.4977958157
 31
0.0
  0
LINE
  5
14C
330
1F
100
AcDbEntity
  8
0
  6
Continuous
 62
     7
370
    30
100
AcDbLine
 10
40.3815950126
 20
111.4977954357
 30
0.0
 11
27.6815951661
 21
111.4977954357
 31
0.0
  0
LINE
  5
14D
330
1F
100
AcDbEntity
  8
0
  6
Continuous
 62
     7
370
    30
100
AcDbLine
 10
27.6815951661
 20
119.4977958157
 30
0.0
 11
40.3815950126
 21
119.4977958157
 31
0.0
  0
LINE
  5
14E
330
1F
100
AcDbEntity
  8
0
  6
Continuous
 62
     7
370
    30
100
AcDbLine
 10
53.0815948592
 20
119.4977958157
 30
0.0
 11
53.0815948592
 21
111.4977954357
 31
0.0
  0
LINE
  5
14F
330
1F
100
AcDbEntity
  8
0
  6
Continuous
 62
     7
370
    30
100
AcDbLine
 10
53.0815948592
 20
111.4977954357
 30
0.0
 11
40.3815950126
 21
111.4977954357
 31
0.0
  0
LINE
  5
150
330
1F
100
AcDbEntity
  8
0
  6
Continuous
 62
     7
370
    30
100
AcDbLine
 10
40.3815950126
 20
119.4977958157
 30
0.0
 11
53.0815948592
 21
119.4977958157
 31
0.0
  0
LINE
  5
151
330
1F
100
AcDbEntity
  8
0
  6
Continuous
 62
     7
370
    30
100
AcDbLine
 10
31.6815948905
 20
106.4977955474
 30
0.0
 11
32.467381549
 21
106.4977955474
 31
0.0
  0
LINE
  5
152
330
1F
100
AcDbEntity
  8
0
  6
Continuous
 62
     7
370
    30
100
AcDbLine
 10
31.6815948905
 20
106.4977955474
 30
0.0
 11
31.6815948905
 21
111.4977954357
 31
0.0
  0
LINE
  5
153
330
1F
100
AcDbEntity
  8
0
  6
Continuous
 62
     7
370
    30
100
AcDbLine
 10
49.0815951348
 20
106.4977955474
 30
0.0
 11
49.0815951348
 21
111.4977954357
 31
0.0
  0
LINE
  5
154
330
1F
100
AcDbEntity
  8
0
  6
Continuous
 62
     7
370
    30
100
AcDbLine
 10
48.2958084763
 20
106.4977955474
 30
0.0
 11
49.0815951348
 21
106.4977955474
 31
0.0
  0
ARC
  5
155
330
1F
100
AcDbEntity
  8
0
  6
Continuous
 62
     7
370
    30
100
AcDbCircle
 10
46.8815950126
 20
106.4977958157
 30
0.0
 40
1.414213562373092
100
AcDbArc
 50
0.0
 51
180.0
  0
LINE
  5
156
330
1F
100
AcDbEntity
  8
0
  6
Continuous
 62
     7
370
    30
100
AcDbLine
 10
35.2958086738
 20
106.4977955474
 30
0.0
 11
45.4673813515
 21
106.4977955474
 31
0.0
  0
ARC
  5
157
330
1F
100
AcDbEntity
  8
0
  6
Continuous
 62
     7
370
    30
100
AcDbCircle
 10
33.8815950126
 20
106.4977958157
 30
0.0
 40
1.414213562373099
100
AcDbArc
 50
0.0
 51
180.0
  0
SPLINE
  5
158
330
1F
100
AcDbEntity
  8
0
  6
Continuous
 62
     7
370
    30
100
AcDbSpline
210
0.0
220
0.0
230
1.0
 70
     8
 71
     3
 72
    26
 73
    22
 74
     0
 42
0.000000001
 43
0.00000001
 40
0.0
 40
0.0
 40
0.0
 40
0.0
 40
0.0624999999999993
 40
0.0624999999999993
 40
0.1249999999999986
 40
0.1249999999999986
 40
0.2499999999999991
 40
0.2499999999999991
 40
0.3749999999999996
 40
0.3749999999999996
 40
0.5
 40
0.5
 40
0.6250000000000004
 40
0.6250000000000004
 40
0.7500000000000008
 40
0.7500000000000008
 40
0.8125000000000007
 40
0.8125000000000007
 40
0.8750000000000004
 40
0.8750000000000004
 40
1.0
 40
1.0
 40
1.0
 40
1.0
 10
48.29580857502219
 20
106.4977958156536
 30
0.0
 10
48.29580857502219
 20
106.4067787948779
 30
0.0
 10
48.28603884776737
 20
106.3175564707002
 30
0.0
 10
48.24789186486926
 20
106.1425114925506
 30
0.0
 10
48.21896628819044
 20
106.0558410206187
 30
0.0
 10
48.10768308716964
 20
105.8121156045732
 30
0.0
 10
47.9985644758181
 20
105.6660526579532
 30
0.0
 10
47.7343582306222
 20
105.4295483549785
 30
0.0
 10
47.57775774271884
 20
105.3372488045536
 30
0.0
 10
47.24146565228864
 20
105.2142644750564
 30
0.0
 10
47.06207821320758
 20
105.1830765951612
 30
0.0
 10
46.70050798934037
 20
105.1831463018624
 30
0.0
 10
46.52257271471501
 20
105.2138887497531
 30
0.0
 10
46.1836326719114
 20
105.3379725994791
 30
0.0
 10
46.02970666947035
 20
105.4287320500238
 30
0.0
 10
45.83003233840682
 20
105.6075203564868
 30
0.0
 10
45.77039429723784
 20
105.6727886084277
 30
0.0
 10
45.66490626696007
 20
105.8149564407568
 30
0.0
 10
45.61861300523086
 20
105.8929778773406
 30
0.0
 10
45.50716441726199
 20
106.1368873065722
 30
0.0
 10
45.46738145027601
 20
106.3156931248783
 30
0.0
 10
45.46738145027601
 20
106.4977958156536
 30
0.0
  0
SPLINE
  5
159
330
1F
100
AcDbEntity
  8
0
  6
Continuous
 62
     7
370
    30
100
AcDbSpline
210
0.0
220
0.0
230
1.0
 70
     8
 71
     3
 72
    28
 73
    24
 74
     0
 42
0.000000001
 43
0.00000001
 40
0.0
 40
0.0
 40
0.0
 40
0.0
 40
0.1250000000000002
 40
0.1250000000000002
 40
0.2500000000000003
 40
0.2500000000000003
 40
0.3750000000000005
 40
0.3750000000000005
 40
0.5000000000000007
 40
0.5000000000000007
 40
0.5625000000000008
 40
0.5625000000000008
 40
0.6250000000000009
 40
0.6250000000000009
 40
0.6875000000000009
 40
0.6875000000000009
 40
0.750000000000001
 40
0.750000000000001
 40
0.8125000000000011
 40
0.8125000000000011
 40
0.8750000000000011
 40
0.8750000000000011
 40
1.0
 40
1.0
 40
1.0
 40
1.0
 10
35.2958085750222
 20
106.4977958156536
 30
0.0
 10
35.2958085750222
 20
106.3175194940515
 30
0.0
 10
35.25605610636332
 20
106.1372366743463
 30
0.0
 10
35.10808893077045
 20
105.8128410171983
 30
0.0
 10
34.99926501029022
 20
105.6666999011858
 30
0.0
 10
34.73382613371756
 20
105.429051901475
 30
0.0
 10
34.57858895960429
 20
105.3374635097978
 30
0.0
 10
34.23933729713585
 20
105.213575739471
 30
0.0
 10
34.06075800192275
 20
105.1829465929192
 30
0.0
 10
33.78986107517924
 20
105.1831948188077
 30
0.0
 10
33.7005960757078
 20
105.1910097846335
 30
0.0
 10
33.52410311832389
 20
105.2219693845733
 30
0.0
 10
33.4360210942334
 20
105.2455038836431
 30
0.0
 10
33.2680974676834
 20
105.3071223253601
 30
0.0
 10
33.18785609845055
 20
105.3450961390447
 30
0.0
 10
33.03492146227088
 20
105.4359610870664
 30
0.0
 10
32.96187579509274
 20
105.4893916641452
 30
0.0
 10
32.83001965806366
 20
105.6076085763202
 30
0.0
 10
32.77035332805315
 20
105.6727637548036
 30
0.0
 10
32.66412027672335
 20
105.8160964257294
 30
0.0
 10
32.61811996139068
 20
105.893954522384
 30
0.0
 10
32.50739190859998
 20
106.136595288497
 30
0.0
 10
32.467381450276
 20
106.3172118090364
 30
0.0
 10
32.46738145027601
 20
106.4977958156536
 30
0.0
  0
SPLINE
  5
15A
330
1F
100
AcDbEntity
  8
0
  6
Continuous
 62
     7
370
    30
100
AcDbSpline
210
0.0
220
0.0
230
1.0
 70
    11
 71
     3
 72
    52
 73
    48
 74
     0
 42
0.000000001
 43
0.00000001
 40
0.0
 40
0.0
 40
0.0
 40
0.0
 40
0.0625000000000007
 40
0.0625000000000007
 40
0.0937500000000008
 40
0.0937500000000008
 40
0.1250000000000009
 40
0.1250000000000009
 40
0.1562500000000009
 40
0.1562500000000009
 40
0.187500000000001
 40
0.187500000000001
 40
0.2500000000000012
 40
0.2500000000000012
 40
0.2812500000000017
 40
0.2812500000000017
 40
0.3125000000000017
 40
0.3125000000000017
 40
0.3750000000000015
 40
0.3750000000000015
 40
0.4375000000000014
 40
0.4375000000000014
 40
0.5000000000000012
 40
0.5000000000000012
 40
0.5625000000000011
 40
0.5625000000000011
 40
0.6250000000000011
 40
0.6250000000000011
 40
0.6562500000000012
 40
0.6562500000000012
 40
0.6875000000000013
 40
0.6875000000000013
 40
0.7187500000000014
 40
0.7187500000000014
 40
0.7500000000000016
 40
0.7500000000000016
 40
0.7812500000000018
 40
0.7812500000000018
 40
0.8125000000000019
 40
0.8125000000000019
 40
0.8750000000000012
 40
0.8750000000000012
 40
0.9062500000000008
 40
0.9062500000000008
 40
0.9375000000000004
 40
0.9375000000000004
 40
1.0
 40
1.0
 40
1.0
 40
1.0
 10
33.8815950126491
 20
102.8968814832807
 30
0.0
 10
33.69993292981743
 20
102.8968814832807
 30
0.0
 10
33.52212830341389
 20
102.9108706401024
 30
0.0
 10
33.26899357522239
 20
102.9553490240653
 30
0.0
 10
33.1886921246989
 20
102.9738693063625
 30
0.0
 10
33.03617221502935
 20
103.0193868428087
 30
0.0
 10
32.96320591412851
 20
103.046777862713
 30
0.0
 10
32.83078926387821
 20
103.1100610542638
 30
0.0
 10
32.77115316614782
 20
103.1458308753683
 30
0.0
 10
32.66529191845359
 20
103.2272059141141
 30
0.0
 10
32.61891038081501
 20
103.2733257403255
 30
0.0
 10
32.507723328159
 20
103.4223511428537
 30
0.0
 10
32.46775127425182
 20
103.5408407434259
 30
0.0
 10
32.46720049196124
 20
103.7309031385357
 30
0.0
 10
32.47680542626957
 20
103.7973915516849
 30
0.0
 10
32.5149015287678
 20
103.9301282198058
 30
0.0
 10
32.5430419870395
 20
103.9961765608031
 30
0.0
 10
32.65438869453283
 20
104.1923989980157
 30
0.0
 10
32.76296871277181
 20
104.3164705784934
 30
0.0
 10
33.02831293763597
 20
104.5259024145256
 30
0.0
 10
33.18488217401715
 20
104.6109528151844
 30
0.0
 10
33.52003836169222
 20
104.7257044826343
 30
0.0
 10
33.70131777639335
 20
104.7560111280555
 30
0.0
 10
34.05977636783599
 20
104.7562397692715
 30
0.0
 10
34.24119619843702
 20
104.7261006720388
 30
0.0
 10
34.57583077891713
 20
104.6120706521086
 30
0.0
 10
34.73300822059266
 20
104.5268974112624
 30
0.0
 10
34.93104490020112
 20
104.3713036130628
 30
0.0
 10
34.99222042377092
 20
104.3136855466645
 30
0.0
 10
35.09823079124583
 20
104.1933622772181
 30
0.0
 10
35.14348687162556
 20
104.1305831676043
 30
0.0
 10
35.21805370628432
 20
104.0005171766954
 30
0.0
 10
35.24713943863269
 20
103.9330360291951
 30
0.0
 10
35.28561921338893
 20
103.8011005402626
 30
0.0
 10
35.29561242201063
 20
103.7356352747718
 30
0.0
 10
35.29599905286835
 20
103.6068807010408
 30
0.0
 10
35.28642576484128
 20
103.5458753566087
 30
0.0
 10
35.24855283466275
 20
103.4300661325725
 30
0.0
 10
35.21975145594458
 20
103.3748981762492
 30
0.0
 10
35.10885930768183
 20
103.225042074346
 30
0.0
 10
34.99989125148798
 20
103.1425484119091
 30
0.0
 10
34.80169176854425
 20
103.0474795240611
 30
0.0
 10
34.72870614683068
 20
103.0199570907694
 30
0.0
 10
34.57552852360373
 20
102.9741116631447
 30
0.0
 10
34.49507653075482
 20
102.9555382731702
 30
0.0
 10
34.2422293042374
 20
102.9110071742115
 30
0.0
 10
34.06325709548077
 20
102.8968814832807
 30
0.0
 10
33.8815950126491
 20
102.8968814832807
 30
0.0
  0
SPLINE
  5
15B
330
1F
100
AcDbEntity
  8
0
  6
Continuous
 62
     7
370
    30
100
AcDbSpline
210
0.0
220
0.0
230
1.0
 70
    11
 71
     3
 72
    52
 73
    48
 74
     0
 42
0.000000001
 43
0.00000001
 40
0.0
 40
0.0
 40
0.0
 40
0.0
 40
0.0625000000000008
 40
0.0625000000000008
 40
0.0937500000000009
 40
0.0937500000000009
 40
0.125000000000001
 40
0.125000000000001
 40
0.1562500000000011
 40
0.1562500000000011
 40
0.1875000000000012
 40
0.1875000000000012
 40
0.2500000000000014
 40
0.2500000000000014
 40
0.2812500000000019
 40
0.2812500000000019
 40
0.3125000000000019
 40
0.3125000000000019
 40
0.3750000000000021
 40
0.3750000000000021
 40
0.4375000000000023
 40
0.4375000000000023
 40
0.5000000000000026
 40
0.5000000000000026
 40
0.5625000000000028
 40
0.5625000000000028
 40
0.625000000000003
 40
0.625000000000003
 40
0.6562500000000028
 40
0.6562500000000028
 40
0.6875000000000027
 40
0.6875000000000027
 40
0.7187500000000026
 40
0.7187500000000026
 40
0.7500000000000024
 40
0.7500000000000024
 40
0.7812500000000024
 40
0.7812500000000024
 40
0.8125000000000023
 40
0.8125000000000023
 40
0.8750000000000017
 40
0.8750000000000017
 40
0.9062500000000012
 40
0.9062500000000012
 40
0.9375000000000007
 40
0.9375000000000007
 40
1.0
 40
1.0
 40
1.0
 40
1.0
 10
46.88159501264909
 20
102.8968814832807
 30
0.0
 10
46.69993292981742
 20
102.8968814832807
 30
0.0
 10
46.52212830341389
 20
102.9108706401024
 30
0.0
 10
46.26899357522238
 20
102.9553490240653
 30
0.0
 10
46.1886921246989
 20
102.9738693063625
 30
0.0
 10
46.03617221502935
 20
103.0193868428087
 30
0.0
 10
45.96320591412851
 20
103.046777862713
 30
0.0
 10
45.83078926387822
 20
103.1100610542638
 30
0.0
 10
45.77115316614783
 20
103.1458308753683
 30
0.0
 10
45.66529191845358
 20
103.2272059141141
 30
0.0
 10
45.61891038081501
 20
103.2733257403255
 30
0.0
 10
45.50772332815901
 20
103.4223511428537
 30
0.0
 10
45.46775127425181
 20
103.5408407434259
 30
0.0
 10
45.46720049196124
 20
103.7309031385357
 30
0.0
 10
45.47680542626956
 20
103.7973915516849
 30
0.0
 10
45.5149015287678
 20
103.9301282198058
 30
0.0
 10
45.54304198703949
 20
103.9961765608031
 30
0.0
 10
45.65438869453283
 20
104.1923989980157
 30
0.0
 10
45.7629687127718
 20
104.3164705784934
 30
0.0
 10
46.02831293763597
 20
104.5259024145256
 30
0.0
 10
46.18488217401714
 20
104.6109528151844
 30
0.0
 10
46.52003836169222
 20
104.7257044826343
 30
0.0
 10
46.70131777639335
 20
104.7560111280555
 30
0.0
 10
47.05977636783599
 20
104.7562397692715
 30
0.0
 10
47.24119619843702
 20
104.7261006720388
 30
0.0
 10
47.57583077891713
 20
104.6120706521086
 30
0.0
 10
47.73300822059266
 20
104.5268974112624
 30
0.0
 10
47.93104490020112
 20
104.3713036130628
 30
0.0
 10
47.99222042377091
 20
104.3136855466645
 30
0.0
 10
48.09823079124583
 20
104.1933622772181
 30
0.0
 10
48.14348687162556
 20
104.1305831676043
 30
0.0
 10
48.21805370628432
 20
104.0005171766954
 30
0.0
 10
48.24713943863268
 20
103.9330360291951
 30
0.0
 10
48.28561921338893
 20
103.8011005402626
 30
0.0
 10
48.29561242201063
 20
103.7356352747718
 30
0.0
 10
48.29599905286835
 20
103.6068807010408
 30
0.0
 10
48.28642576484128
 20
103.5458753566087
 30
0.0
 10
48.24855283466275
 20
103.4300661325725
 30
0.0
 10
48.21975145594458
 20
103.3748981762492
 30
0.0
 10
48.10885930768183
 20
103.225042074346
 30
0.0
 10
47.99989125148798
 20
103.1425484119091
 30
0.0
 10
47.80169176854425
 20
103.0474795240611
 30
0.0
 10
47.72870614683068
 20
103.0199570907694
 30
0.0
 10
47.57552852360373
 20
102.9741116631447
 30
0.0
 10
47.49507653075482
 20
102.9555382731702
 30
0.0
 10
47.2422293042374
 20
102.9110071742115
 30
0.0
 10
47.06325709548076
 20
102.8968814832807
 30
0.0
 10
46.8815950126491
 20
102.8968814832807
 30
0.0
  0
LINE
  5
15C
330
1F
100
AcDbEntity
  8
0
  6
Continuous
 62
     7
370
    30
100
AcDbLine
 10
39.5815950329
 20
102.4977948918
 30
0.0
 11
35.2815948286
 21
102.4977948918
 31
0.0
  0
SPLINE
  5
15D
330
1F
100
AcDbEntity
  8
0
  6
Continuous
 62
     7
370
    30
100
AcDbSpline
210
0.0
220
0.0
230
1.0
 70
     8
 71
     3
 72
     9
 73
     5
 74
     0
 42
0.000000001
 43
0.00000001
 40
0.0
 40
0.0
 40
0.0
 40
0.0
 40
0.5747193061309483
 40
1.0
 40
1.0
 40
1.0
 40
1.0
 10
32.48159539411883
 20
102.4977948917816
 30
0.0
 10
32.50315675048441
 20
102.4999612750967
 30
0.0
 10
32.54067307564621
 20
102.5037307383669
 30
0.0
 10
32.65474175411648
 20
102.5267344060396
 30
0.0
 10
32.70325296084503
 20
102.5365174217889
 30
0.0
  0
SPLINE
  5
15E
330
1F
100
AcDbEntity
  8
0
  6
Continuous
 62
     7
370
    30
100
AcDbSpline
210
0.0
220
0.0
230
1.0
 70
     8
 71
     3
 72
     9
 73
     5
 74
     0
 42
0.000000001
 43
0.00000001
 40
0.0
 40
0.0
 40
0.0
 40
0.0
 40
0.4071116219957851
 40
1.0
 40
1.0
 40
1.0
 40
1.0
 10
35.05605597506384
 20
102.5370985670755
 30
0.0
 10
35.10441668341169
 20
102.5274307418705
 30
0.0
 10
35.22320648388649
 20
102.5036833844317
 30
0.0
 10
35.25986212500958
 20
102.4999866453937
 30
0.0
 10
35.28159482861976
 20
102.4977948917816
 30
0.0
  0
LINE
  5
15F
330
1F
100
AcDbEntity
  8
0
  6
Continuous
 62
     7
370
    30
100
AcDbLine
 10
32.4815953941
 20
102.4977948918
 30
0.0
 11
31.6815948905
 21
102.4977948918
 31
0.0
  0
LINE
  5
160
330
1F
100
AcDbEntity
  8
0
  6
Continuous
 62
     7
370
    30
100
AcDbLine
 10
49.0815951348
 20
102.4977948918
 30
0.0
 11
48.2815946312
 21
102.4977948918
 31
0.0
  0
SPLINE
  5
161
330
1F
100
AcDbEntity
  8
0
  6
Continuous
 62
     7
370
    30
100
AcDbSpline
210
0.0
220
0.0
230
1.0
 70
     8
 71
     3
 72
     9
 73
     5
 74
     0
 42
0.000000001
 43
0.00000001
 40
0.0
 40
0.0
 40
0.0
 40
0.0
 40
0.7351952863621197
 40
1.0
 40
1.0
 40
1.0
 40
1.0
 10
45.48159519667844
 20
102.4977948917816
 30
0.0
 10
45.50978827116977
 20
102.5011217320355
 30
0.0
 10
45.54813600681813
 20
102.5056468430036
 30
0.0
 10
45.66991536731023
 20
102.5296345184057
 30
0.0
 10
45.70216311599235
 20
102.5359865679214
 30
0.0
  0
SPLINE
  5
162
330
1F
100
AcDbEntity
  8
0
  6
Continuous
 62
     7
370
    30
100
AcDbSpline
210
0.0
220
0.0
230
1.0
 70
     8
 71
     3
 72
     9
 73
     5
 74
     0
 42
0.000000001
 43
0.00000001
 40
0.0
 40
0.0
 40
0.0
 40
0.0
 40
0.5885642088385138
 40
1.0
 40
1.0
 40
1.0
 40
1.0
 10
48.05938246185998
 20
102.5368601484964
 30
0.0
 10
48.12333740866955
 20
102.5238487443103
 30
0.0
 10
48.2320000589788
 20
102.5017417184486
 30
0.0
 10
48.2671377340407
 20
102.4989453980692
 30
0.0
 10
48.28159463117937
 20
102.4977948917816
 30
0.0
  0
LINE
  5
163
330
1F
100
AcDbEntity
  8
0
  6
Continuous
 62
     7
370
    30
100
AcDbLine
 10
45.4815951967
 20
102.4977948918
 30
0.0
 11
41.1815949924
 21
102.4977948918
 31
0.0
  0
SPLINE
  5
164
330
1F
100
AcDbEntity
  8
0
  6
Continuous
 62
     7
370
    30
100
AcDbSpline
210
0.0
220
0.0
230
1.0
 70
     8
 71
     3
 72
    20
 73
    16
 74
     0
 42
0.000000001
 43
0.00000001
 40
0.0
 40
0.0
 40
0.0
 40
0.0
 40
0.125
 40
0.125
 40
0.25
 40
0.25
 40
0.375
 40
0.375
 40
0.5
 40
0.5
 40
0.625
 40
0.625
 40
0.7500000000000001
 40
0.7500000000000001
 40
1.0
 40
1.0
 40
1.0
 40
1.0
 10
41.18159501264909
 20
102.4977958156536
 30
0.0
 10
41.18159501264909
 20
102.4977958156536
 30
0.0
 10
41.16063909763698
 20
102.502129445189
 30
0.0
 10
41.08025543063901
 20
102.5170212129697
 30
0.0
 10
41.02084235856503
 20
102.5274894164174
 30
0.0
 10
40.87367222663678
 20
102.5485128783242
 30
0.0
 10
40.78466134982592
 20
102.5591070970176
 30
0.0
 10
40.59230728628069
 20
102.5741232997057
 30
0.0
 10
40.48686991919453
 20
102.5785947537165
 30
0.0
 10
40.27762515952057
 20
102.5786295920417
 30
0.0
 10
40.17266342166332
 20
102.574239054229
 30
0.0
 10
39.97863500289671
 20
102.5591384276763
 30
0.0
 10
39.89060997956014
 20
102.5486635393091
 30
0.0
 10
39.66745010650531
 20
102.5168008796651
 30
0.0
 10
39.5815950126491
 20
102.4977958156536
 30
0.0
 10
39.5815950126491
 20
102.4977958156536
 30
0.0
  0
LINE
  5
165
330
1F
100
AcDbEntity
  8
0
  6
Continuous
 62
     7
370
    30
100
AcDbLine
 10
31.6815948905
 20
106.0257472499
 30
0.0
 11
31.6815948905
 21
106.4977955474
 31
0.0
  0
LINE
  5
166
330
1F
100
AcDbEntity
  8
0
  6
Continuous
 62
     7
370
    30
100
AcDbLine
 10
49.0815951348
 20
106.4977955474
 30
0.0
 11
49.0815951348
 21
106.0257472499
 31
0.0
  0
LINE
  5
167
330
1F
100
AcDbEntity
  8
0
  6
Continuous
 62
     7
370
    30
100
AcDbLine
 10
52.0815946953
 20
111.4977954357
 30
0.0
 11
52.0815946953
 21
110.4977962031
 31
0.0
  0
LINE
  5
168
330
1F
100
AcDbEntity
  8
0
  6
Continuous
 62
     7
370
    30
100
AcDbLine
 10
49.8455273778
 20
110.4977962031
 30
0.0
 11
49.0815951348
 21
110.4977962031
 31
0.0
  0
LINE
  5
169
330
1F
100
AcDbEntity
  8
0
  6
Continuous
 62
     7
370
    30
100
AcDbLine
 10
28.68159533
 20
110.4977962031
 30
0.0
 11
28.68159533
 21
111.4977954357
 31
0.0
  0
LINE
  5
16A
330
1F
100
AcDbEntity
  8
0
  6
Continuous
 62
     7
370
    30
100
AcDbLine
 10
31.6815948905
 20
110.4977962031
 30
0.0
 11
30.9176626475
 21
110.4977962031
 31
0.0
  0
LINE
  5
16B
330
1F
100
AcDbEntity
  8
0
  6
Continuous
 62
     7
370
    30
100
AcDbLine
 10
53.0815948592
 20
110.4977962031
 30
0.0
 11
53.0815948592
 21
111.4977954357
 31
0.0
  0
LINE
  5
16C
330
1F
100
AcDbEntity
  8
0
  6
Continuous
 62
     7
370
    30
100
AcDbLine
 10
27.6815951661
 20
110.4977962031
 30
0.0
 11
27.6815951661
 21
111.4977954357
 31
0.0
  0
LINE
  5
16D
330
1F
100
AcDbEntity
  8
0
  6
Continuous
 62
     7
370
    30
100
AcDbLine
 10
49.8455273778
 20
110.4977962031
 30
0.0
 11
53.0815948592
 21
110.4977962031
 31
0.0
  0
LINE
  5
16E
330
1F
100
AcDbEntity
  8
0
  6
Continuous
 62
     7
370
    30
100
AcDbLine
 10
53.0815948592
 20
110.4977962031
 30
0.0
 11
53.0815948592
 21
105.4977953835
 31
0.0
  0
LINE
  5
16F
330
1F
100
AcDbEntity
  8
0
  6
Continuous
 62
     7
370
    30
100
AcDbLine
 10
53.0815948592
 20
105.4977953835
 30
0.0
 11
49.0815951348
 21
105.4977953835
 31
0.0
  0
LINE
  5
170
330
1F
100
AcDbEntity
  8
0
  6
Continuous
 62
     7
370
    30
100
AcDbLine
 10
49.0815951348
 20
105.4977953835
 30
0.0
 11
49.0815951348
 21
106.0257472499
 31
0.0
  0
LINE
  5
171
330
1F
100
AcDbEntity
  8
0
  6
Continuous
 62
     7
370
    30
100
AcDbLine
 10
27.6815951661
 20
110.4977962031
 30
0.0
 11
30.9176626475
 21
110.4977962031
 31
0.0
  0
LINE
  5
172
330
1F
100
AcDbEntity
  8
0
  6
Continuous
 62
     7
370
    30
100
AcDbLine
 10
31.6815948905
 20
106.0257472499
 30
0.0
 11
31.6815948905
 21
105.4977953835
 31
0.0
  0
LINE
  5
173
330
1F
100
AcDbEntity
  8
0
  6
Continuous
 62
     7
370
    30
100
AcDbLine
 10
31.6815948905
 20
105.4977953835
 30
0.0
 11
27.6815951661
 21
105.4977953835
 31
0.0
  0
LINE
  5
174
330
1F
100
AcDbEntity
  8
0
  6
Continuous
 62
     7
370
    30
100
AcDbLine
 10
27.6815951661
 20
105.4977953835
 30
0.0
 11
27.6815951661
 21
110.4977962031
 31
0.0
  0
LINE
  5
175
330
1F
100
AcDbEntity
  8
0
  6
Continuous
 62
     7
370
    30
100
AcDbLine
 10
49.0815951348
 20
102.2977952315
 30
0.0
 11
31.6815948905
 21
102.2977952315
 31
0.0
  0
ARC
  5
176
330
1F
100
AcDbEntity
  8
0
  6
Continuous
 62
     7
370
    30
100
AcDbCircle
 10
40.3815950126
 20
93.1977958157
 30
0.0
 40
12.7
100
AcDbArc
 50
270.0
 51
0.0
  0
ARC
  5
177
330
1F
100
AcDbEntity
  8
0
  6
Continuous
 62
     7
370
    30
100
AcDbCircle
 10
40.3815950126
 20
93.1977958157
 30
0.0
 40
12.7
100
AcDbArc
 50
180.0
 51
270.0
  0
CIRCLE
  5
178
330
1F
100
AcDbEntity
  8
0
  6
Continuous
 62
     7
370
    30
100
AcDbCircle
 10
40.3815950126
 20
92.4977958157
 30
0.0
 40
4.000000000000014
  0
CIRCLE
  5
179
330
1F
100
AcDbEntity
  8
0
  6
Continuous
 62
     7
370
    30
100
AcDbCircle
 10
40.3815950126
 20
84.4977958157
 30
0.0
 40
1.500000000000014
  0
LINE
  5
17A
330
1F
100
AcDbEntity
  8
0
  6
Continuous
 62
     7
370
    30
100
AcDbLine
 10
31.6815948905
 20
102.2977952315
 30
0.0
 11
31.6815948905
 21
105.4977953835
 31
0.0
  0
LINE
  5
17B
330
1F
100
AcDbEntity
  8
0
  6
Continuous
 62
     7
370
    30
100
AcDbLine
 10
27.6815951661
 20
93.1977957888
 30
0.0
 11
27.6815951661
 21
105.4977953835
 31
0.0
  0
LINE
  5
17C
330
1F
100
AcDbEntity
  8
0
  6
Continuous
 62
     7
370
    30
100
AcDbLine
 10
49.0815951348
 20
105.4977953835
 30
0.0
 11
49.0815951348
 21
102.2977952315
 31
0.0
  0
LINE
  5
17D
330
1F
100
AcDbEntity
  8
0
  6
Continuous
 62
     7
370
    30
100
AcDbLine
 10
53.0815948592
 20
105.4977953835
 30
0.0
 11
53.0815948592
 21
93.1977957888
 31
0.0
  0
ARC
  5
17E
330
1F
100
AcDbEntity
  8
0
  6
Continuous
 62
     7
370
    30
100
AcDbCircle
 10
40.3815950126
 20
84.4977958157
 30
0.0
 40
1.499868208758375
100
AcDbArc
 50
181.2905732002
 51
358.7094267997
  0
CIRCLE
  5
17F
330
1F
100
AcDbEntity
  8
0
  6
Continuous
 62
     7
370
    30
100
AcDbCircle
 10
40.3815950126
 20
92.4977958157
 30
0.0
 40
2.250000000000014
  0
DIMENSION
  5
180
330
1F
100
AcDbEntity
  8
DIM
100
AcDbDimension
  2
_D_3
 10
57.7482616793
 20
119.4977958157
 30
0.0
 11
57.7482616793
 21
105.9977958157
 31
0.0
 70
   160
  1
<>
 71
     2
 42
-1.0
  3
SLDDIMSTYLE0
100
AcDbAlignedDimension
 13
45.3815950126
 23
92.4977958157
 33
0.0
 14
53.0815950126
 24
119.4977958157
 34
0.0
 50
90.0
100
AcDbRotatedDimension
  0
DIMENSION
  5
18A
330
1F
100
AcDbEntity
  8
DIM
100
AcDbDimension
  2
_D_4
 10
42.8842842784
 20
95.6181397773
 30
0.0
 11
21.6629375563
 21
76.8894624695
 31
0.0
 70
   163
  1
1 HOLE,\PM4 CLR
 71
     1
 42
-1.0
  3
SLDDIMSTYLE1
100
AcDbDiametricDimension
 15
37.8789057469
 25
89.377451854
 35
0.0
 40
0.0
  0
INSERT
  5
19E
330
1F
100
AcDbEntity
  8
DIM
100
AcDbBlockReference
  2
SW_CENTERMARKSYMBOL_1
 10
40.3815950126
 20
92.4977958157
 30
0.0
  0
ARC
  5
19F
330
1F
100
AcDbEntity
  8
0
  6
Continuous
 62
     7
370
    30
100
AcDbCircle
 10
81.039863582
 20
46.6138382567
 30
0.0
 40
1.500000000000005
100
AcDbArc
 50
10.4445813023
 51
169.5554186977
  0
CIRCLE
  5
1A0
330
1F
100
AcDbEntity
  8
0
  6
Continuous
 62
     7
370
    30
100
AcDbCircle
 10
103.0344460458
 20
42.8857648539
 30
0.0
 40
2.000000000000014
  0
LINE
  5
1A1
330
1F
100
AcDbEntity
  8
0
  6
Continuous
 62
     7
370
    30
100
AcDbLine
 10
107.0344464333
 20
38.8857648539
 30
0.0
 11
116.0344460458
 21
38.8857648539
 31
0.0
  0
LINE
  5
1A2
330
1F
100
AcDbEntity
  8
0
  6
Continuous
 62
     7
370
    30
100
AcDbLine
 10
107.0344464333
 20
38.8857648539
 30
0.0
 11
107.0344464333
 21
40.8857649489
 31
0.0
  0
LINE
  5
1A3
330
1F
100
AcDbEntity
  8
0
  6
Continuous
 62
     7
370
    30
100
AcDbLine
 10
107.0344464333
 20
40.8857649489
 30
0.0
 11
108.0344456658
 21
40.8857649489
 31
0.0
  0
LINE
  5
1A4
330
1F
100
AcDbEntity
  8
0
  6
Continuous
 62
     7
370
    30
100
AcDbLine
 10
108.0344456658
 20
40.8857649489
 30
0.0
 11
108.0344456658
 21
56.1857652682
 31
0.0
  0
LINE
  5
1A5
330
1F
100
AcDbEntity
  8
0
  6
Continuous
 62
     7
370
    30
100
AcDbLine
 10
116.0344460458
 20
56.1857652682
 30
0.0
 11
108.0344456658
 21
56.1857652682
 31
0.0
  0
LINE
  5
1A6
330
1F
100
AcDbEntity
  8
0
  6
Continuous
 62
     7
370
    30
100
AcDbLine
 10
116.0344460458
 20
38.8857648539
 30
0.0
 11
116.0344460458
 21
56.1857652682
 31
0.0
  0
LINE
  5
1A7
330
1F
100
AcDbEntity
  8
0
  6
Continuous
 62
     7
370
    30
100
AcDbLine
 10
108.0344456658
 20
56.1857652682
 30
0.0
 11
108.0344456658
 21
68.8857641834
 31
0.0
  0
LINE
  5
1A8
330
1F
100
AcDbEntity
  8
0
  6
Continuous
 62
     7
370
    30
100
AcDbLine
 10
108.0344456658
 20
68.8857641834
 30
0.0
 11
116.0344460458
 21
68.8857641834
 31
0.0
  0
LINE
  5
1A9
330
1F
100
AcDbEntity
  8
0
  6
Continuous
 62
     7
370
    30
100
AcDbLine
 10
116.0344460458
 20
68.8857641834
 30
0.0
 11
116.0344460458
 21
56.1857652682
 31
0.0
  0
LINE
  5
1AA
330
1F
100
AcDbEntity
  8
0
  6
Continuous
 62
     7
370
    30
100
AcDbLine
 10
107.0344464333
 20
43.8857647422
 30
0.0
 11
108.0344456658
 21
43.8857647422
 31
0.0
  0
LINE
  5
1AB
330
1F
100
AcDbEntity
  8
0
  6
Continuous
 62
     7
370
    30
100
AcDbLine
 10
107.0344464333
 20
41.88576488
 30
0.0
 11
107.0344464333
 21
43.8857647422
 31
0.0
  0
LINE
  5
1AC
330
1F
100
AcDbEntity
  8
0
  6
Continuous
 62
     7
370
    30
100
AcDbLine
 10
103.0344457776
 20
46.8857652339
 30
0.0
 11
108.0344456658
 21
46.8857652339
 31
0.0
  0
LWPOLYLINE
  5
1AD
330
1F
100
AcDbEntity
  8
0
  6
Continuous
 62
     7
370
    30
100
AcDbPolyline
 90
        3
 70
   128
 43
0.0
 10
103.0344457776
 20
46.8857652339
 10
102.586588584
 20
46.8606139364
 10
102.5623974801
 20
46.8578134495
  0
ARC
  5
1AE
330
1F
100
AcDbEntity
  8
0
  6
Continuous
 62
     7
370
    30
100
AcDbCircle
 10
102.0344460458
 20
41.8857648539
 30
0.0
 40
5.0
100
AcDbArc
 50
0.0
 51
90.0
  0
LINE
  5
1AF
330
1F
100
AcDbEntity
  8
0
  6
Continuous
 62
     7
370
    30
100
AcDbLine
 10
107.0344464333
 20
38.8857648539
 30
0.0
 11
107.0344464333
 21
41.88576488
 31
0.0
  0
LINE
  5
1B0
330
1F
100
AcDbEntity
  8
0
  6
Continuous
 62
     7
370
    30
100
AcDbLine
 10
107.0344464333
 20
38.8857648539
 30
0.0
 11
89.734446019
 21
38.8857648539
 31
0.0
  0
LINE
  5
1B1
330
1F
100
AcDbEntity
  8
0
  6
Continuous
 62
     7
370
    30
100
AcDbLine
 10
89.734446019
 20
46.8857652339
 30
0.0
 11
89.734446019
 21
38.8857648539
 31
0.0
  0
LINE
  5
1B2
330
1F
100
AcDbEntity
  8
0
  6
Continuous
 62
     7
370
    30
100
AcDbLine
 10
102.0344456137
 20
46.8857652339
 30
0.0
 11
89.734446019
 21
46.8857652339
 31
0.0
  0
LINE
  5
1B3
330
1F
100
AcDbEntity
  8
0
  6
Continuous
 62
     7
370
    30
100
AcDbLine
 10
77.0344452412
 20
38.8857648539
 30
0.0
 11
77.0344452412
 21
46.8857652339
 31
0.0
  0
LINE
  5
1B4
330
1F
100
AcDbEntity
  8
0
  6
Continuous
 62
     7
370
    30
100
AcDbLine
 10
77.0344452412
 20
46.8857652339
 30
0.0
 11
89.734446019
 21
46.8857652339
 31
0.0
  0
LINE
  5
1B5
330
1F
100
AcDbEntity
  8
0
  6
Continuous
 62
     7
370
    30
100
AcDbLine
 10
89.734446019
 20
38.8857648539
 30
0.0
 11
77.0344452412
 21
38.8857648539
 31
0.0
  0
DIMENSION
  5
1B6
330
1F
100
AcDbEntity
  8
DIM
100
AcDbDimension
  2
_D_5
 10
127.0896355362
 20
68.8857648539
 30
0.0
 11
127.0896355362
 21
53.8857648539
 31
0.0
 70
   160
  1
<>
 71
     2
 42
-1.0
  3
SLDDIMSTYLE0
100
AcDbAlignedDimension
 13
116.0344460458
 23
38.8857648539
 33
0.0
 14
116.0344460458
 24
68.8857648539
 34
0.0
 50
90.0
100
AcDbRotatedDimension
  0
DIMENSION
  5
1C0
330
1F
100
AcDbEntity
  8
DIM
100
AcDbDimension
  2
_D_6
 10
116.0344460458
 20
34.2190981872
 30
0.0
 11
96.5344460458
 21
34.2190981872
 31
0.0
 70
   160
  1
<>
 71
     2
 42
-1.0
  3
SLDDIMSTYLE0
100
AcDbAlignedDimension
 13
77.0344460458
 23
38.8857648539
 33
0.0
 14
116.0344460458
 24
38.8857648539
 34
0.0
 50
0.0
100
AcDbRotatedDimension
  0
DIMENSION
  5
1CA
330
1F
100
AcDbEntity
  8
DIM
100
AcDbDimension
  2
_D_7
 10
102.0344460458
 20
46.8857648539
 30
0.0
 11
81.3677793792
 21
73.5524315206
 31
0.0
 70
   162
  1
<>
 71
     1
 42
-1.0
  3
SLDDIMSTYLE2
100
AcDb2LineAngularDimension
 13
108.0344460458
 23
68.8857648539
 33
0.0
 14
108.0344460458
 24
40.8857648539
 34
0.0
 15
77.0344460458
 25
46.8857648539
 35
0.0
 16
81.3677793792
 26
73.5524315206
 36
0.0
  0
ARC
  5
1D5
330
1F
100
AcDbEntity
  8
0
  6
Continuous
 62
     7
370
    30
100
AcDbCircle
 10
140.5391454082
 20
86.5944716871
 30
0.0
 40
1.500000000000007
100
AcDbArc
 50
5.9328585607
 51
175.2235517394
  0
LINE
  5
1D6
330
1F
100
AcDbEntity
  8
0
  6
Continuous
 62
     7
370
    30
100
AcDbLine
 10
158.934568021
 20
119.694091451
 30
0.0
 11
153.2777137715
 21
116.4284590037
 31
0.0
  0
LINE
  5
1D7
330
1F
100
AcDbEntity
  8
0
  6
Continuous
 62
     7
370
    30
100
AcDbLine
 10
133.987143628
 20
90.3656746777
 30
0.0
 11
133.987143628
 21
83.8333481827
 31
0.0
  0
LINE
  5
1D8
330
1F
100
AcDbEntity
  8
0
  6
Continuous
 62
     7
370
    30
100
AcDbLine
 10
166.8646099893
 20
90.4499333079
 30
0.0
 11
164.0361828645
 21
92.0827495315
 31
0.0
  0
LINE
  5
1D9
330
1F
100
AcDbEntity
  8
0
  6
Continuous
 62
     7
370
    30
100
AcDbLine
 10
150.6970258338
 20
99.7832809749
 30
0.0
 11
148.9040977471
 21
100.818316328
 31
0.0
  0
LWPOLYLINE
  5
1DA
330
1F
100
AcDbEntity
  8
0
  6
Continuous
 62
     7
370
    30
100
AcDbPolyline
 90
       33
 70
   128
 43
0.0
 10
166.4861335012
 20
88.1608419756
 10
166.4589597842
 20
87.8265565028
 10
166.3784829037
 20
87.4737433273
 10
166.2477955413
 20
87.1159608617
 10
166.0719199388
 20
86.7669584854
 10
165.8576148972
 20
86.4401481641
 10
165.613116039
 20
86.1480890351
 10
165.3478193181
 20
85.9020047669
 10
165.0719199388
 20
85.71135224
 10
164.7960205596
 20
85.583458124
 10
164.5307238387
 20
85.5232373182
 10
164.2862249805
 20
85.5330040742
 10
164.0719199388
 20
85.6123830613
 10
163.8960443364
 20
85.7583237893
 10
163.765356974
 20
85.9652178379
 10
163.6848800935
 20
86.225114385
 10
163.6577063765
 20
86.5280257519
 10
163.6848800935
 20
86.8623112247
 10
163.765356974
 20
87.2151244002
 10
163.8960443364
 20
87.5729068658
 10
164.0719199388
 20
87.9219092421
 10
164.2862249805
 20
88.2487195634
 10
164.5307238387
 20
88.5407786924
 10
164.7960205596
 20
88.7868629606
 10
165.0719199388
 20
88.9775154875
 10
165.3478193181
 20
89.1054096035
 10
165.613116039
 20
89.1656304093
 10
165.8576148972
 20
89.1558636532
 10
166.0719199388
 20
89.0764846662
 10
166.2477955413
 20
88.9305439382
 10
166.3784829037
 20
88.7236498896
 10
166.4589597842
 20
88.4637533425
 10
166.4861335012
 20
88.1608419756
  0
LINE
  5
1DB
330
1F
100
AcDbEntity
  8
0
  6
Continuous
 62
     7
370
    30
100
AcDbLine
 10
168.6074538448
 20
87.7523725195
 30
0.0
 11
168.6074538448
 21
100.2454469414
 31
0.0
  0
LINE
  5
1DC
330
1F
100
AcDbEntity
  8
0
  6
Continuous
 62
     7
370
    30
100
AcDbLine
 10
168.6074538448
 20
87.7523725195
 30
0.0
 11
167.9003470636
 21
88.1605765754
 31
0.0
  0
LWPOLYLINE
  5
1DD
330
1F
100
AcDbEntity
  8
0
  6
Continuous
 62
     7
370
    30
100
AcDbPolyline
 90
        3
 70
   128
 43
0.0
 10
165.77902672
 20
91.8348111788
 10
165.8112543426
 20
91.3908340964
 10
165.8831920162
 20
91.0164938441
  0
LINE
  5
1DE
330
1F
100
AcDbEntity
  8
0
  6
Continuous
 62
     7
370
    30
100
AcDbLine
 10
165.77902672
 20
91.8348111788
 30
0.0
 11
165.77902672
 21
94.2844336145
 31
0.0
  0
LINE
  5
1DF
330
1F
100
AcDbEntity
  8
0
  6
Continuous
 62
     7
370
    30
100
AcDbLine
 10
165.77902672
 20
94.2844336145
 30
0.0
 11
153.4753687274
 21
101.3871841873
 31
0.0
  0
LINE
  5
1E0
330
1F
100
AcDbEntity
  8
0
  6
Continuous
 62
     7
370
    30
100
AcDbLine
 10
150.6469416026
 20
110.6138299615
 30
0.0
 11
150.6469416026
 21
99.8121939861
 31
0.0
  0
LWPOLYLINE
  5
1E1
330
1F
100
AcDbEntity
  8
0
  6
Continuous
 62
     7
370
    30
100
AcDbPolyline
 90
       21
 70
   128
 43
0.0
 10
159.6271977237
 20
115.7997067624
 10
158.922614949
 20
116.1744862806
 10
158.2223761615
 20
116.4830202389
 10
157.530798566
 20
116.7234064229
 10
156.8521459685
 20
116.8941627717
 10
156.1906024878
 20
116.9942365158
 10
155.5502467595
 20
117.0230106672
 10
154.9350267897
 20
116.9803078237
 10
154.3487356139
 20
116.8663912625
 10
153.7949879124
 20
116.6819633172
 10
153.2771977237
 20
116.4281610472
 10
152.7985573966
 20
116.1065492281
 10
152.3620179079
 20
115.7191107036
 10
151.9702706687
 20
115.2682341611
 10
151.625730931
 20
114.7566994044
 10
151.3305228967
 20
114.1876602153
 10
151.0864666218
 20
113.5646249097
 10
150.8950667941
 20
112.8914347075
 10
150.7575034574
 20
112.17224005
 10
150.6746247353
 20
111.4114750116
 10
150.6469416026
 20
110.6138299615
  0
ARC
  5
1E2
330
1F
100
AcDbEntity
  8
0
  6
Continuous
 62
     7
370
    30
100
AcDbCircle
 10
149.1102093574
 20
99.3582141177
 30
0.0
 40
19.51742105616501
100
AcDbArc
 50
2.6054784857
 51
57.39452166
  0
LWPOLYLINE
  5
1E3
330
1F
100
AcDbEntity
  8
0
  6
Continuous
 62
     7
370
    30
100
AcDbPolyline
 90
       30
 70
   128
 43
0.0
 10
159.6271977237
 20
104.6539246802
 10
159.8780093662
 20
104.5406331471
 10
160.117093335
 20
104.4956368927
 10
160.3332703295
 20
104.5210398916
 10
160.5164321537
 20
104.6156543279
 10
160.6580143642
 20
104.7750561358
 10
160.7513967344
 20
104.9917918639
 10
160.7922128082
 20
105.2557271903
 10
160.7785540715
 20
105.5545207926
 10
160.7110591917
 20
105.874201414
 10
160.5928841542
 20
106.199821144
 10
160.4295546925
 20
106.5161543659
 10
160.2287079107
 20
106.8084096897
 10
159.9997351811
 20
107.0629215815
 10
159.753343014
 20
107.2677893479
 10
159.5010524334
 20
107.4134336
 10
159.2546602663
 20
107.4930441744
 10
159.0256875367
 20
107.502898569
 10
158.8248407549
 20
107.4425360034
 10
158.6615112932
 20
107.3147789641
 10
158.5433362558
 20
107.1256012281
 10
158.4758413759
 20
106.8838485362
 10
158.4621826392
 20
106.6008249756
 10
158.5029987131
 20
106.2897644134
 10
158.5963810832
 20
105.9652116958
 10
158.7379632938
 20
105.6423425471
 10
158.921125118
 20
105.3362539699
 10
159.1373021125
 20
105.0612583258
 10
159.3763860813
 20
104.8302141056
 10
159.6271977237
 20
104.6539246802
  0
ARC
  5
1E4
330
1F
100
AcDbEntity
  8
0
  6
Continuous
 62
     7
370
    30
100
AcDbCircle
 10
154.7670636069
 20
102.623846565
 30
0.0
 40
19.51742105616525
100
AcDbArc
 50
2.6054784857
 51
57.39452166
  0
LINE
  5
1E5
330
1F
100
AcDbEntity
  8
0
  6
Continuous
 62
     7
370
    30
100
AcDbLine
 10
174.2643080943
 20
103.5110793887
 30
0.0
 11
168.6074538448
 21
100.2454469414
 31
0.0
  0
LINE
  5
1E6
330
1F
100
AcDbEntity
  8
0
  6
Continuous
 62
     7
370
    30
100
AcDbLine
 10
159.6271977237
 20
115.7997067624
 30
0.0
 11
165.2840519732
 21
119.0653392097
 31
0.0
  0
LINE
  5
1E7
330
1F
100
AcDbEntity
  8
0
  6
Continuous
 62
     7
370
    30
100
AcDbLine
 10
167.9003470636
 20
85.7110868398
 30
0.0
 11
174.2643080943
 21
89.3849233431
 31
0.0
  0
LINE
  5
1E8
330
1F
100
AcDbEntity
  8
0
  6
Continuous
 62
     7
370
    30
100
AcDbLine
 10
167.9003470636
 20
85.7110868398
 30
0.0
 11
167.9003470636
 21
87.3441684636
 31
0.0
  0
LINE
  5
1E9
330
1F
100
AcDbEntity
  8
0
  6
Continuous
 62
     7
370
    30
100
AcDbLine
 10
167.9003470636
 20
87.3441684636
 30
0.0
 11
168.6074538448
 21
87.7523725195
 31
0.0
  0
LINE
  5
1EA
330
1F
100
AcDbEntity
  8
0
  6
Continuous
 62
     7
370
    30
100
AcDbLine
 10
174.2643080943
 20
89.3849233431
 30
0.0
 11
174.2643080943
 21
103.5110793887
 31
0.0
  0
ARC
  5
1EB
330
1F
100
AcDbEntity
  8
0
  6
Continuous
 62
     7
370
    30
100
AcDbCircle
 10
161.5620855168
 20
113.8535432903
 30
0.0
 40
6.404361873569554
100
AcDbArc
 50
54.4677451557
 51
114.2217964152
  0
LINE
  5
1EC
330
1F
100
AcDbEntity
  8
0
  6
Continuous
 62
     7
370
    30
100
AcDbLine
 10
162.2434928141
 20
92.2434133349
 30
0.0
 11
165.77902672
 21
94.2844336145
 31
0.0
  0
LINE
  5
1ED
330
1F
100
AcDbEntity
  8
0
  6
Continuous
 62
     7
370
    30
100
AcDbLine
 10
165.0719199388
 20
91.4266071229
 30
0.0
 11
165.77902672
 21
91.8348111788
 31
0.0
  0
LINE
  5
1EE
330
1F
100
AcDbEntity
  8
0
  6
Continuous
 62
     7
370
    30
100
AcDbLine
 10
165.0719199388
 20
91.4266071229
 30
0.0
 11
165.0719199388
 21
89.7935254992
 31
0.0
  0
LINE
  5
1EF
330
1F
100
AcDbEntity
  8
0
  6
Continuous
 62
     7
370
    30
100
AcDbLine
 10
162.2434928141
 20
92.2434133349
 30
0.0
 11
161.9097040449
 21
92.0278977247
 31
0.0
  0
SPLINE
  5
1F0
330
1F
100
AcDbEntity
  8
0
  6
Continuous
 62
     7
370
    30
100
AcDbSpline
210
0.0
220
0.0
230
1.0
 70
     8
 71
     3
 72
    18
 73
    14
 74
     0
 42
0.000000001
 43
0.00000001
 40
0.0
 40
0.0
 40
0.0
 40
0.0
 40
0.0713980968558715
 40
0.1593618260922354
 40
0.2494357140556191
 40
0.3454044428035279
 40
0.4480096328964118
 40
0.5549129184520174
 40
0.6630840184422927
 40
0.770005563406431
 40
0.8720913652696624
 40
0.9665520749882136
 40
1.0
 40
1.0
 40
1.0
 40
1.0
 10
148.4420523119571
 20
96.7819012762457
 30
0.0
 10
148.489267229003
 20
96.88140875679427
 30
0.0
 10
148.5946517662748
 20
97.10351122882611
 30
0.0
 10
148.8911773694253
 20
97.35870074385288
 30
0.0
 10
149.2669844623109
 20
97.53356977842817
 30
0.0
 10
149.6875964474352
 20
97.58818899945605
 30
0.0
 10
150.1017251186478
 20
97.51352611434373
 30
0.0
 10
150.4503915962927
 20
97.30979413392932
 30
0.0
 10
150.678461503928
 20
96.99528132886122
 30
0.0
 10
150.7589268290586
 20
96.59982129264982
 30
0.0
 10
150.6899928675132
 20
96.17608893101804
 30
0.0
 10
150.5594141246839
 20
95.8401062097699
 30
0.0
 10
150.4423637258999
 20
95.68529809497467
 30
0.0
 10
150.4117552140557
 20
95.64481599440498
 30
0.0
  0
SPLINE
  5
1F1
330
1F
100
AcDbEntity
  8
0
  6
Continuous
 62
     7
370
    30
100
AcDbSpline
210
0.0
220
0.0
230
1.0
 70
     8
 71
     3
 72
    16
 73
    12
 74
     0
 42
0.000000001
 43
0.00000001
 40
0.0
 40
0.0
 40
0.0
 40
0.0
 40
0.0822077712419804
 40
0.1834892121920391
 40
0.2872002899749297
 40
0.3976986876453571
 40
0.5158383071428211
 40
0.6389267539078928
 40
0.7634749622578282
 40
0.8865844329065293
 40
1.0
 40
1.0
 40
1.0
 40
1.0
 10
157.6344404673822
 20
91.47524854939809
 30
0.0
 10
157.6816552875296
 20
91.5747560105847
 30
0.0
 10
157.7870396085221
 20
91.79685843940027
 30
0.0
 10
158.0835671399221
 20
92.05204833972397
 30
0.0
 10
158.4593662712858
 20
92.22691578345218
 30
0.0
 10
158.8800107420218
 20
92.28154149565609
 30
0.0
 10
159.2940065518002
 20
92.20685206257662
 30
0.0
 10
159.6431977374019
 20
92.00322492770805
 30
0.0
 10
159.8692792697364
 20
91.68831481154322
 30
0.0
 10
159.9559962088513
 20
91.29875352263522
 30
0.0
 10
159.8943728289549
 20
91.00911899885509
 30
0.0
 10
159.864823946334
 20
90.87023702645192
 30
0.0
  0
ARC
  5
1F2
330
1F
100
AcDbEntity
  8
0
  6
Continuous
 62
     7
370
    30
100
AcDbCircle
 10
153.0398480175
 20
94.3994591067
 30
0.0
 40
5.83780525576016
100
AcDbArc
 50
122.0746511233
 51
152.3136709443
  0
LINE
  5
1F3
330
1F
100
AcDbEntity
  8
0
  6
Continuous
 62
     7
370
    30
100
AcDbLine
 10
149.9398348215
 20
99.3461639078
 30
0.0
 11
150.4954697401
 21
99.0254026969
 31
0.0
  0
SPLINE
  5
1F4
330
1F
100
AcDbEntity
  8
0
  6
Continuous
 62
     7
370
    30
100
AcDbSpline
210
0.0
220
0.0
230
1.0
 70
     8
 71
     3
 72
    28
 73
    24
 74
     0
 42
0.000000001
 43
0.00000001
 40
0.0
 40
0.0
 40
0.0
 40
0.0
 40
0.1250000000000002
 40
0.1250000000000002
 40
0.2500000000000003
 40
0.2500000000000003
 40
0.3750000000000005
 40
0.3750000000000005
 40
0.5000000000000007
 40
0.5000000000000007
 40
0.5625000000000008
 40
0.5625000000000008
 40
0.6250000000000009
 40
0.6250000000000009
 40
0.6875000000000009
 40
0.6875000000000009
 40
0.750000000000001
 40
0.750000000000001
 40
0.8125000000000011
 40
0.8125000000000011
 40
0.8750000000000011
 40
0.8750000000000011
 40
1.0
 40
1.0
 40
1.0
 40
1.0
 10
152.495469740065
 20
97.87082727270102
 30
0.0
 10
152.3679951305728
 20
97.79723774703825
 30
0.0
 10
152.2124066860702
 20
97.72931841935498
 30
0.0
 10
151.8783957238587
 20
97.62238286386051
 30
0.0
 10
151.6981082175892
 20
97.58290383463458
 30
0.0
 10
151.3423720758432
 20
97.54680821999854
 30
0.0
 10
151.1678400445026
 20
97.54995799701804
 30
0.0
 10
150.8403510109381
 20
97.60540647060195
 30
0.0
 10
150.6924183030847
 20
97.65675278943661
 30
0.0
 10
150.5010407713908
 20
97.76750587631919
 30
0.0
 10
150.4434469002721
 20
97.80937634824014
 30
0.0
 10
150.3405392763345
 20
97.9026819799457
 30
0.0
 10
150.2948972836836
 20
97.95472885782246
 30
0.0
 10
150.2197281666129
 20
98.06456399068394
 30
0.0
 10
150.1898404914605
 20
98.12244572447185
 30
0.0
 10
150.1459505940579
 20
98.2433393325012
 30
0.0
 10
150.132080630835
 20
98.30680983764961
 30
0.0
 10
150.1224362424506
 20
98.43247303040273
 30
0.0
 10
150.1263174444267
 20
98.49527209590906
 30
0.0
 10
150.1525508370225
 20
98.61959042449301
 30
0.0
 10
150.1750776902287
 20
98.68063645014398
 30
0.0
 10
150.2683540643437
 20
98.85101035118446
 30
0.0
 10
150.3677775644121
 20
98.95168757293824
 30
0.0
 10
150.495469740065
 20
99.02540269687209
 30
0.0
  0
LINE
  5
1F5
330
1F
100
AcDbEntity
  8
0
  6
Continuous
 62
     7
370
    30
100
AcDbLine
 10
152.4954697401
 20
97.8708272727
 30
0.0
 11
159.6878578955
 21
93.71874997
 31
0.0
  0
SPLINE
  5
1F6
330
1F
100
AcDbEntity
  8
0
  6
Continuous
 62
     7
370
    30
100
AcDbSpline
210
0.0
220
0.0
230
1.0
 70
     8
 71
     3
 72
    26
 73
    22
 74
     0
 42
0.000000001
 43
0.00000001
 40
0.0
 40
0.0
 40
0.0
 40
0.0
 40
0.0624999999999993
 40
0.0624999999999993
 40
0.1249999999999986
 40
0.1249999999999986
 40
0.2499999999999991
 40
0.2499999999999991
 40
0.3749999999999996
 40
0.3749999999999996
 40
0.5
 40
0.5
 40
0.6250000000000004
 40
0.6250000000000004
 40
0.7500000000000008
 40
0.7500000000000008
 40
0.8125000000000007
 40
0.8125000000000007
 40
0.8750000000000004
 40
0.8750000000000004
 40
1.0
 40
1.0
 40
1.0
 40
1.0
 10
161.6878578954901
 20
92.56417454585339
 30
0.0
 10
161.6234991428962
 20
92.5270210288158
 30
0.0
 10
161.5535011920447
 20
92.4920567609421
 30
0.0
 10
161.4027517106934
 20
92.42658504339194
 30
0.0
 10
161.3210129608424
 20
92.39582620912475
 30
0.0
 10
161.0699839603352
 20
92.31550662271133
 30
0.0
 10
160.8895433502598
 20
92.27614564191762
 30
0.0
 10
160.5354875262366
 20
92.24023806060292
 30
0.0
 10
160.3594886212972
 20
92.24349721770939
 30
0.0
 10
160.0347311503274
 20
92.29835000333813
 30
0.0
 10
159.8858319143288
 20
92.34965115584582
 30
0.0
 10
159.6302124472383
 20
92.49729385014149
 30
0.0
 10
159.5261314013122
 20
92.59155575792252
 30
0.0
 10
159.3742051302071
 20
92.81306725037985
 30
0.0
 10
159.329539633017
 20
92.93559083916783
 30
0.0
 10
159.3147709833899
 20
93.12576912301706
 30
0.0
 10
159.3187521436062
 20
93.18860810753702
 30
0.0
 10
159.3446886803693
 20
93.31198150344937
 30
0.0
 10
159.3671238879637
 20
93.37326916238945
 30
0.0
 10
159.4607878470622
 20
93.54461996560096
 30
0.0
 10
159.5590918479706
 20
93.64441491305767
 30
0.0
 10
159.6878578954901
 20
93.71874997002448
 30
0.0
  0
LINE
  5
1F7
330
1F
100
AcDbEntity
  8
0
  6
Continuous
 62
     7
370
    30
100
AcDbLine
 10
161.6878578955
 20
92.5641745459
 30
0.0
 11
162.2434928141
 21
92.2434133349
 31
0.0
  0
LWPOLYLINE
  5
1F8
330
1F
100
AcDbEntity
  8
0
  6
Continuous
 62
     7
370
    30
100
AcDbPolyline
 90
       14
 70
   128
 43
0.0
 10
161.6878578955
 20
92.5641745459
 10
161.8981153772
 20
92.7191034699
 10
162.0380370932
 20
92.8985783515
 10
162.0994913019
 20
93.0921687629
 10
162.0789065081
 20
93.288623933
 10
161.9774790252
 20
93.4765266015
 10
161.8011034498
 20
93.6449565483
 10
161.5600300893
 20
93.784125237
 10
161.2682692511
 20
93.8859446894
 10
160.9427770147
 20
93.9444975289
 10
160.6024698056
 20
93.9563808774
 10
160.2671250419
 20
93.9209041179
 10
159.9562317424
 20
93.8401290306
 10
159.6878578955
 20
93.71874997
  0
LINE
  5
1F9
330
1F
100
AcDbEntity
  8
0
  6
Continuous
 62
     7
370
    30
100
AcDbLine
 10
149.9398348215
 20
99.3461639078
 30
0.0
 11
153.4753687274
 21
101.3871841873
 31
0.0
  0
LWPOLYLINE
  5
1FA
330
1F
100
AcDbEntity
  8
0
  6
Continuous
 62
     7
370
    30
100
AcDbPolyline
 90
       14
 70
   128
 43
0.0
 10
152.4954697401
 20
97.8708272727
 10
152.7057272218
 20
98.0257561967
 10
152.8456489378
 20
98.2052310783
 10
152.9071031465
 20
98.3988214897
 10
152.8865183527
 20
98.5952766599
 10
152.7850908698
 20
98.7831793284
 10
152.6087152944
 20
98.9516092751
 10
152.3676419339
 20
99.0907779638
 10
152.0758810957
 20
99.1925974162
 10
151.7503888592
 20
99.2511502558
 10
151.4100816501
 20
99.2630336043
 10
151.0747368865
 20
99.2275568447
 10
150.7638435869
 20
99.1467817574
 10
150.4954697401
 20
99.0254026969
  0
ARC
  5
1FB
330
1F
100
AcDbEntity
  8
0
  6
Continuous
 62
     7
370
    30
100
AcDbCircle
 10
169.3529267383
 20
91.5681358718
 30
0.0
 40
4.283345608672533
100
AcDbArc
 50
181.893490966
 51
209.1506540956
  0
LINE
  5
1FC
330
1F
100
AcDbEntity
  8
0
  6
Continuous
 62
     7
370
    30
100
AcDbLine
 10
149.2327280403
 20
98.9379598519
 30
0.0
 11
146.4043009155
 21
100.5707760755
 31
0.0
  0
LINE
  5
1FD
330
1F
100
AcDbEntity
  8
0
  6
Continuous
 62
     7
370
    30
100
AcDbLine
 10
146.9699863405
 20
97.631706873
 30
0.0
 11
149.2327280403
 21
98.9379598519
 31
0.0
  0
LINE
  5
1FE
330
1F
100
AcDbEntity
  8
0
  6
Continuous
 62
     7
370
    30
100
AcDbLine
 10
159.2736443331
 20
90.5289563001
 30
0.0
 11
146.9699863405
 21
97.631706873
 31
0.0
  0
LINE
  5
1FF
330
1F
100
AcDbEntity
  8
0
  6
Continuous
 62
     7
370
    30
100
AcDbLine
 10
161.5363860329
 20
91.835209279
 30
0.0
 11
159.2736443331
 21
90.5289563001
 31
0.0
  0
LINE
  5
200
330
1F
100
AcDbEntity
  8
0
  6
Continuous
 62
     7
370
    30
100
AcDbLine
 10
164.3648131577
 20
90.2023930554
 30
0.0
 11
161.5363860329
 21
91.835209279
 31
0.0
  0
LINE
  5
201
330
1F
100
AcDbEntity
  8
0
  6
Continuous
 62
     7
370
    30
100
AcDbLine
 10
164.3648131577
 20
90.2023930554
 30
0.0
 11
155.6673997491
 21
85.1814831677
 31
0.0
  0
ARC
  5
202
330
1F
100
AcDbEntity
  8
0
  6
Continuous
 62
     7
370
    30
100
AcDbCircle
 10
146.687143628
 20
102.5133139466
 30
0.0
 40
19.52017823047883
100
AcDbArc
 50
242.6096722366
 51
297.3903277634
  0
LWPOLYLINE
  5
203
330
1F
100
AcDbEntity
  8
0
  6
Continuous
 62
     7
370
    30
100
AcDbPolyline
 90
       21
 70
   128
 43
0.0
 10
137.7068875069
 20
95.5498661878
 10
137.0299878649
 20
95.1271380776
 10
136.4126277994
 20
94.6750539621
 10
135.8586135407
 20
94.1964010904
 10
135.3713607708
 20
93.6941305164
 10
134.9538735651
 20
93.1713389054
 10
134.608725871
 20
92.6312494415
 10
134.3380456389
 20
92.0771919557
 10
134.1435017024
 20
91.5125823968
 10
134.0262934896
 20
90.9409017704
 10
133.987143628
 20
90.3656746777
 10
134.0262934896
 20
89.7904475851
 10
134.1435017024
 20
89.2187669587
 10
134.3380456389
 20
88.6541573998
 10
134.608725871
 20
88.100099914
 10
134.9538735651
 20
87.5600104501
 10
135.3713607708
 20
87.0372188391
 10
135.8586135407
 20
86.5349482651
 10
136.4126277994
 20
86.0562953934
 10
137.0299878649
 20
85.6042112779
 10
137.7068875069
 20
85.1814831677
  0
LINE
  5
204
330
1F
100
AcDbEntity
  8
0
  6
Continuous
 62
     7
370
    30
100
AcDbLine
 10
137.7068875069
 20
95.5498661878
 30
0.0
 11
146.4043009155
 21
100.5707760755
 31
0.0
  0
LWPOLYLINE
  5
205
330
1F
100
AcDbEntity
  8
0
  6
Continuous
 62
     7
370
    30
100
AcDbPolyline
 90
       46
 70
   128
 43
0.0
 10
143.3637417564
 20
88.447115615
 10
143.7849087886
 20
88.2357619731
 10
144.2529304002
 20
88.0603029999
 10
144.758697083
 20
87.9241538048
 10
145.2923646638
 20
87.8299643769
 10
145.8435459102
 20
87.7795680064
 10
146.4015127061
 20
87.7739456012
 10
146.9554048627
 20
87.8132065952
 10
147.494441499
 20
87.8965868176
 10
148.0081308801
 20
88.0224633674
 10
148.4864746266
 20
88.1883862006
 10
148.9201623214
 20
88.3911258181
 10
149.300752727
 20
88.6267361237
 10
149.620838084
 20
88.890631231
 10
149.874188295
 20
89.1776747218
 10
150.0558721863
 20
89.482279621
 10
150.1623534877
 20
89.7985171409
 10
150.1915596618
 20
90.1202320777
 10
150.1429222435
 20
90.4411626163
 10
150.017387905
 20
90.7550622086
 10
149.8174000293
 20
91.0558211562
 10
149.5468511529
 20
91.3375855283
 10
149.2110072021
 20
91.594871102
 10
148.8164049971
 20
91.822670106
 10
148.3707250212
 20
92.0165486921
 10
147.8826419281
 20
92.1727332339
 10
147.3616557001
 20
92.2881837771
 10
146.8179067413
 20
92.3606532082
 10
146.2619785069
 20
92.3887309921
 10
145.7046915075
 20
92.3718706267
 10
145.1568927008
 20
92.3104002798
 10
144.6292443672
 20
92.2055164019
 10
144.1320165815
 20
92.0592604382
 10
143.674887317
 20
91.8744790948
 10
143.2667540747
 20
91.6547689303
 10
142.915560704
 20
91.4044063532
 10
142.6281427844
 20
91.1282643862
 10
142.4100945788
 20
90.8317178187
 10
142.2656601474
 20
90.5205385921
 10
142.1976507421
 20
90.2007834564
 10
142.2073900888
 20
89.8786760813
 10
142.294688622
 20
89.5604859206
 10
142.4578471752
 20
89.2524061839
 10
142.6936900526
 20
88.9604332927
 10
142.997626841
 20
88.6902501673
 10
143.3637417564
 20
88.447115615
  0
LWPOLYLINE
  5
206
330
1F
100
AcDbEntity
  8
0
  6
Continuous
 62
     7
370
    30
100
AcDbPolyline
 90
       13
 70
   128
 43
0.0
 10
139.4746544599
 20
86.2019933074
 10
139.7478497612
 20
86.0772905965
 10
140.0634974974
 20
85.9923202204
 10
140.4045810176
 20
85.9516629542
 10
140.7527124206
 20
85.9575106416
 10
141.0891238526
 20
86.0095480323
 10
141.3956792862
 20
86.1049697771
 10
141.6558522385
 20
86.2386316649
 10
141.8556167184
 20
86.4033279489
 10
141.9842033711
 20
86.5901798097
 10
142.0346800568
 20
86.7891140152
 10
142.0043255643
 20
86.9894059708
 10
141.9514961896
 20
87.0997095225
  0
ARC
  5
207
330
1F
100
AcDbEntity
  8
0
  6
Continuous
 62
     7
370
    30
100
AcDbCircle
 10
139.7034821374
 20
86.8098629194
 30
0.0
 40
0.6495133340315957
100
AcDbArc
 50
150.660840929
 51
249.3715526481
  0
LINE
  5
208
330
1F
100
AcDbEntity
  8
0
  6
Continuous
 62
     7
370
    30
100
AcDbLine
 10
155.6673997491
 20
85.1814831677
 30
0.0
 11
155.6673997491
 21
78.6491566726
 31
0.0
  0
ARC
  5
209
330
1F
100
AcDbEntity
  8
0
  6
Continuous
 62
     7
370
    30
100
AcDbCircle
 10
146.687143628
 20
95.9809874515
 30
0.0
 40
19.52017823047889
100
AcDbArc
 50
242.6096722366
 51
297.3903277634
  0
LINE
  5
20A
330
1F
100
AcDbEntity
  8
0
  6
Continuous
 62
     7
370
    30
100
AcDbLine
 10
137.7068875069
 20
78.6491566726
 30
0.0
 11
137.7068875069
 21
85.1814831677
 31
0.0
  0
ARC
  5
20B
330
1F
100
AcDbEntity
  8
0
  6
Continuous
 62
     7
370
    30
100
AcDbCircle
 10
165.7449752265
 20
88.51034526
 30
0.0
 40
2.183545987142405
100
AcDbArc
 50
350.7859630095
 51
129.2032852357
  0
LINE
  5
20C
330
1F
100
AcDbEntity
  8
0
  6
Continuous
 62
     7
370
    30
100
AcDbLine
 10
167.9003470636
 20
85.7110868398
 30
0.0
 11
167.9003470636
 21
88.1607092755
 31
0.0
  0
LWPOLYLINE
  5
20D
330
1F
100
AcDbEntity
  8
0
  6
Continuous
 62
     7
370
    30
100
AcDbPolyline
 90
       33
 70
   128
 43
0.0
 10
166.4861335012
 20
88.1608419756
 10
166.4589597842
 20
87.8265565028
 10
166.3784829037
 20
87.4737433273
 10
166.2477955413
 20
87.1159608617
 10
166.0719199388
 20
86.7669584854
 10
165.8576148972
 20
86.4401481641
 10
165.613116039
 20
86.1480890351
 10
165.3478193181
 20
85.9020047669
 10
165.0719199388
 20
85.71135224
 10
164.7960205596
 20
85.583458124
 10
164.5307238387
 20
85.5232373182
 10
164.2862249805
 20
85.5330040742
 10
164.0719199388
 20
85.6123830613
 10
163.8960443364
 20
85.7583237893
 10
163.765356974
 20
85.9652178379
 10
163.6848800935
 20
86.225114385
 10
163.6577063765
 20
86.5280257519
 10
163.6848800935
 20
86.8623112247
 10
163.765356974
 20
87.2151244002
 10
163.8960443364
 20
87.5729068658
 10
164.0719199388
 20
87.9219092421
 10
164.2862249805
 20
88.2487195634
 10
164.5307238387
 20
88.5407786924
 10
164.7960205596
 20
88.7868629606
 10
165.0719199388
 20
88.9775154875
 10
165.3478193181
 20
89.1054096035
 10
165.613116039
 20
89.1656304093
 10
165.8576148972
 20
89.1558636532
 10
166.0719199388
 20
89.0764846662
 10
166.2477955413
 20
88.9305439382
 10
166.3784829037
 20
88.7236498896
 10
166.4589597842
 20
88.4637533425
 10
166.4861335012
 20
88.1608419756
  0
LINE
  5
20E
330
1F
100
AcDbEntity
  8
0
  6
Continuous
 62
     7
370
    30
100
AcDbLine
 10
167.9003470636
 20
85.7110868398
 30
0.0
 11
155.6673997491
 21
78.6491566726
 31
0.0
  0
ARC
  5
20F
330
1F
100
AcDbEntity
  8
0
  6
Continuous
 62
     7
370
    30
100
AcDbCircle
 10
140.3584654483
 20
84.4782929665
 30
0.0
 40
6.403881285014606
100
AcDbArc
 50
185.7801459138
 51
245.5399950438
  0
ARC
  5
210
330
1F
100
AcDbEntity
  8
0
  6
Continuous
 62
     7
370
    30
100
AcDbCircle
 10
146.1921688812
 20
83.0037203179
 30
0.0
 40
6.133927143556525
100
AcDbArc
 50
62.5459570944
 51
117.4540429056
  0
ARC
  5
211
330
1F
100
AcDbEntity
  8
0
  6
Continuous
 62
     7
370
    30
100
AcDbCircle
 10
146.1921688812
 20
84.5042196565
 30
0.0
 40
3.612488166262282
100
AcDbArc
 50
69.5413693604
 51
110.4586306396
  0
ARC
  5
212
330
1F
100
AcDbEntity
  8
0
  6
Continuous
 62
     7
370
    30
100
AcDbCircle
 10
163.0022944664
 20
89.7775921257
 30
0.0
 40
2.526395829112792
100
AcDbArc
 50
65.8432420499
 51
125.4672163792
  0
LINE
  5
213
330
1F
100
AcDbEntity
  8
0
  6
Continuous
 62
     7
370
    30
100
AcDbLine
 10
149.6060460523
 20
99.1306482976
 30
0.0
 11
149.2327280403
 21
98.9379598519
 31
0.0
  0
ARC
  5
214
330
1F
100
AcDbEntity
  8
0
  6
Continuous
 62
     7
370
    30
100
AcDbCircle
 10
147.8702093491
 20
98.5131589222
 30
0.0
 40
2.526395829112903
100
AcDbArc
 50
65.8432420499
 51
125.4672163792
  0
ENDSEC
  0
SECTION
  2
OBJECTS
  0
DICTIONARY
  5
C
330
0
100
AcDbDictionary
281
     1
  3
ACAD_GROUP
350
D
  3
ACAD_LAYOUT
350
1A
  3
ACAD_MLINESTYLE
350
17
  3
ACAD_PLOTSETTINGS
350
19
  3
ACAD_PLOTSTYLENAME
350
E
  3
ACAD_SCALELIST
350
47
  0
DICTIONARY
  5
D
102
{ACAD_REACTORS
330
C
102
}
330
C
100
AcDbDictionary
281
     1
  0
DICTIONARY
  5
1A
102
{ACAD_REACTORS
330
C
102
}
330
C
100
AcDbDictionary
281
     1
  3
Layout1
350
1E
  3
Layout2
350
26
  3
Model
350
22
  0
DICTIONARY
  5
17
102
{ACAD_REACTORS
330
C
102
}
330
C
100
AcDbDictionary
281
     1
  3
Standard
350
18
  0
DICTIONARY
  5
19
102
{ACAD_REACTORS
330
C
102
}
330
C
100
AcDbDictionary
281
     1
  0
ACDBDICTIONARYWDFLT
  5
E
102
{ACAD_REACTORS
330
C
102
}
330
C
100
AcDbDictionary
281
     1
  3
Normal
350
F
100
AcDbDictionaryWithDefault
340
F
  0
DICTIONARY
  5
47
102
{ACAD_REACTORS
330
C
102
}
330
C
100
AcDbDictionary
281
     1
  3
A0
350
48
  3
A1
350
49
  3
A2
350
4A
  3
A3
350
4B
  3
A4
350
4C
  3
A5
350
4D
  3
A6
350
4E
  3
A7
350
4F
  3
A8
350
50
  3
A9
350
51
  3
B0
350
52
  3
B1
350
53
  3
B2
350
54
  3
B3
350
55
  3
B4
350
56
  3
B5
350
57
  3
B6
350
58
  3
B7
350
59
  3
B8
350
5A
  3
B9
350
5B
  3
C0
350
5C
  3
C1
350
5D
  3
C2
350
5E
  3
C3
350
5F
  3
C4
350
60
  3
C5
350
61
  3
C6
350
62
  3
C7
350
63
  3
C8
350
64
  3
C9
350
65
  3
D0
350
66
  3
D1
350
67
  3
D2
350
68
  0
LAYOUT
  5
1E
102
{ACAD_REACTORS
330
1A
102
}
330
1A
100
AcDbPlotSettings
  1

  2
none_device
  4

  6

 40
0.0
 41
0.0
 42
0.0
 43
0.0
 44
0.0
 45
0.0
 46
0.0
 47
0.0
 48
0.0
 49
0.0
140
0.0
141
0.0
142
1.0
143
1.0
 70
   688
 72
     1
 73
     0
 74
     5
  7

 75
    16
147
1.0
148
0.0
149
0.0
100
AcDbLayout
  1
Layout1
 70
     1
 71
     1
 10
0.0
 20
0.0
 11
420.0
 21
297.0
 12
0.0
 22
0.0
 32
0.0
 14
1.0000000000E+20
 24
1.0000000000E+20
 34
1.0000000000E+20
 15
-1.0000000000E+20
 25
-1.0000000000E+20
 35
-1.0000000000E+20
146
0.0
 13
0.0
 23
0.0
 33
0.0
 16
1.0
 26
0.0
 36
0.0
 17
0.0
 27
1.0
 37
0.0
 76
     0
330
1B
  0
LAYOUT
  5
26
102
{ACAD_REACTORS
330
1A
102
}
330
1A
100
AcDbPlotSettings
  1

  2
none_device
  4

  6

 40
0.0
 41
0.0
 42
0.0
 43
0.0
 44
0.0
 45
0.0
 46
0.0
 47
0.0
 48
0.0
 49
0.0
140
0.0
141
0.0
142
1.0
143
1.0
 70
   688
 72
     1
 73
     0
 74
     5
  7

 75
    16
147
1.0
148
0.0
149
0.0
100
AcDbLayout
  1
Layout2
 70
     1
 71
     2
 10
0.0
 20
0.0
 11
0.0
 21
0.0
 12
0.0
 22
0.0
 32
0.0
 14
0.0
 24
0.0
 34
0.0
 15
0.0
 25
0.0
 35
0.0
146
0.0
 13
0.0
 23
0.0
 33
0.0
 16
1.0
 26
0.0
 36
0.0
 17
0.0
 27
1.0
 37
0.0
 76
     0
330
23
  0
LAYOUT
  5
22
102
{ACAD_REACTORS
330
1A
102
}
330
1A
100
AcDbPlotSettings
  1

  2
none_device
  4
Letter_(8.50_x_11.00_Inches)
  6

 40
6.35
 41
6.35
 42
6.35000508
 43
6.35000508
 44
215.9
 45
279.4
 46
0.0
 47
0.0
 48
0.0
 49
0.0
140
0.0
141
0.0
142
1.0
143
1.0
 70
  1712
 72
     1
 73
     0
 74
     0
  7

 75
     0
147
1.0
148
0.0
149
0.0
100
AcDbLayout
  1
Model
 70
     1
 71
     0
 10
0.0
 20
0.0
 11
198.0
 21
140.0
 12
0.0
 22
0.0
 32
0.0
 14
0.0
 24
0.0
 34
0.0
 15
198.0
 25
140.0
 35
0.0
146
0.0
 13
0.0
 23
0.0
 33
0.0
 16
1.0
 26
0.0
 36
0.0
 17
0.0
 27
1.0
 37
0.0
 76
     0
330
1F
331
29
  0
MLINESTYLE
  5
18
102
{ACAD_REACTORS
330
17
102
}
330
17
100
AcDbMlineStyle
  2
Standard
 70
     0
  3

 62
   256
 51
90.0
 52
90.0
 71
     2
 49
0.5
 62
   256
  6
BYLAYER
 49
-0.5
 62
   256
  6
BYLAYER
  0
ACDBPLACEHOLDER
  5
F
102
{ACAD_REACTORS
330
E
102
}
330
E
  0
SCALE
  5
48
102
{ACAD_REACTORS
330
47
102
}
330
47
100
AcDbScale
 70
     0
300
1:1
140
1.0
141
1.0
290
     1
  0
SCALE
  5
49
102
{ACAD_REACTORS
330
47
102
}
330
47
100
AcDbScale
 70
     0
300
1:2
140
1.0
141
2.0
290
     0
  0
SCALE
  5
4A
102
{ACAD_REACTORS
330
47
102
}
330
47
100
AcDbScale
 70
     0
300
1:4
140
1.0
141
4.0
290
     0
  0
SCALE
  5
4B
102
{ACAD_REACTORS
330
47
102
}
330
47
100
AcDbScale
 70
     0
300
1:5
140
1.0
141
5.0
290
     0
  0
SCALE
  5
4C
102
{ACAD_REACTORS
330
47
102
}
330
47
100
AcDbScale
 70
     0
300
1:8
140
1.0
141
8.0
290
     0
  0
SCALE
  5
4D
102
{ACAD_REACTORS
330
47
102
}
330
47
100
AcDbScale
 70
     0
300
1:10
140
1.0
141
10.0
290
     0
  0
SCALE
  5
4E
102
{ACAD_REACTORS
330
47
102
}
330
47
100
AcDbScale
 70
     0
300
1:16
140
1.0
141
16.0
290
     0
  0
SCALE
  5
4F
102
{ACAD_REACTORS
330
47
102
}
330
47
100
AcDbScale
 70
     0
300
1:20
140
1.0
141
20.0
290
     0
  0
SCALE
  5
50
102
{ACAD_REACTORS
330
47
102
}
330
47
100
AcDbScale
 70
     0
300
1:30
140
1.0
141
30.0
290
     0
  0
SCALE
  5
51
102
{ACAD_REACTORS
330
47
102
}
330
47
100
AcDbScale
 70
     0
300
1:40
140
1.0
141
40.0
290
     0
  0
SCALE
  5
52
102
{ACAD_REACTORS
330
47
102
}
330
47
100
AcDbScale
 70
     0
300
1:50
140
1.0
141
50.0
290
     0
  0
SCALE
  5
53
102
{ACAD_REACTORS
330
47
102
}
330
47
100
AcDbScale
 70
     0
300
1:100
140
1.0
141
100.0
290
     0
  0
SCALE
  5
54
102
{ACAD_REACTORS
330
47
102
}
330
47
100
AcDbScale
 70
     0
300
2:1
140
2.0
141
1.0
290
     0
  0
SCALE
  5
55
102
{ACAD_REACTORS
330
47
102
}
330
47
100
AcDbScale
 70
     0
300
4:1
140
4.0
141
1.0
290
     0
  0
SCALE
  5
56
102
{ACAD_REACTORS
330
47
102
}
330
47
100
AcDbScale
 70
     0
300
8:1
140
8.0
141
1.0
290
     0
  0
SCALE
  5
57
102
{ACAD_REACTORS
330
47
102
}
330
47
100
AcDbScale
 70
     0
300
10:1
140
10.0
141
1.0
290
     0
  0
SCALE
  5
58
102
{ACAD_REACTORS
330
47
102
}
330
47
100
AcDbScale
 70
     0
300
100:1
140
100.0
141
1.0
290
     0
  0
SCALE
  5
59
102
{ACAD_REACTORS
330
47
102
}
330
47
100
AcDbScale
 70
     0
300
1/128" = 1'-0"
140
0.0078125
141
12.0
290
     0
  0
SCALE
  5
5A
102
{ACAD_REACTORS
330
47
102
}
330
47
100
AcDbScale
 70
     0
300
1/64" = 1'-0"
140
0.015625
141
12.0
290
     0
  0
SCALE
  5
5B
102
{ACAD_REACTORS
330
47
102
}
330
47
100
AcDbScale
 70
     0
300
1/32" = 1'-0"
140
0.03125
141
12.0
290
     0
  0
SCALE
  5
5C
102
{ACAD_REACTORS
330
47
102
}
330
47
100
AcDbScale
 70
     0
300
1/16" = 1'-0"
140
0.0625
141
12.0
290
     0
  0
SCALE
  5
5D
102
{ACAD_REACTORS
330
47
102
}
330
47
100
AcDbScale
 70
     0
300
3/32" = 1'-0"
140
0.09375
141
12.0
290
     0
  0
SCALE
  5
5E
102
{ACAD_REACTORS
330
47
102
}
330
47
100
AcDbScale
 70
     0
300
1/8" = 1'-0"
140
0.125
141
12.0
290
     0
  0
SCALE
  5
5F
102
{ACAD_REACTORS
330
47
102
}
330
47
100
AcDbScale
 70
     0
300
3/16" = 1'-0"
140
0.1875
141
12.0
290
     0
  0
SCALE
  5
60
102
{ACAD_REACTORS
330
47
102
}
330
47
100
AcDbScale
 70
     0
300
1/4" = 1'-0"
140
0.25
141
12.0
290
     0
  0
SCALE
  5
61
102
{ACAD_REACTORS
330
47
102
}
330
47
100
AcDbScale
 70
     0
300
3/8" = 1'-0"
140
0.375
141
12.0
290
     0
  0
SCALE
  5
62
102
{ACAD_REACTORS
330
47
102
}
330
47
100
AcDbScale
 70
     0
300
1/2" = 1'-0"
140
0.5
141
12.0
290
     0
  0
SCALE
  5
63
102
{ACAD_REACTORS
330
47
102
}
330
47
100
AcDbScale
 70
     0
300
3/4" = 1'-0"
140
0.75
141
12.0
290
     0
  0
SCALE
  5
64
102
{ACAD_REACTORS
330
47
102
}
330
47
100
AcDbScale
 70
     0
300
1" = 1'-0"
140
1.0
141
12.0
290
     0
  0
SCALE
  5
65
102
{ACAD_REACTORS
330
47
102
}
330
47
100
AcDbScale
 70
     0
300
1-1/2" = 1'-0"
140
1.5
141
12.0
290
     0
  0
SCALE
  5
66
102
{ACAD_REACTORS
330
47
102
}
330
47
100
AcDbScale
 70
     0
300
3" = 1'-0"
140
3.0
141
12.0
290
     0
  0
SCALE
  5
67
102
{ACAD_REACTORS
330
47
102
}
330
47
100
AcDbScale
 70
     0
300
6" = 1'-0"
140
6.0
141
12.0
290
     0
  0
SCALE
  5
68
102
{ACAD_REACTORS
330
47
102
}
330
47
100
AcDbScale
 70
     0
300
1'-0" = 1'-0"
140
12.0
141
12.0
290
     0
  0
ENDSEC
  0
EOF
