  0
SECTION
  2
HEADER
  9
$ACADVER
  1
AC1015
  9
$ACADMAINTVER
 70
     6
  9
$DWGCODEPAGE
  3
ANSI_950
  9
$INSBASE
 10
0.0
 20
0.0
 30
0.0
  9
$EXTMIN
 10
0.0
 20
0.0
 30
0.0
  9
$EXTMAX
 10
198.0
 20
140.0
 30
0.0
  9
$LIMMIN
 10
0.0
 20
0.0
  9
$LIMMAX
 10
198.0
 20
140.0
  9
$ORTHOMODE
 70
     0
  9
$REGENMODE
 70
     1
  9
$FILLMODE
 70
     1
  9
$QTEXTMODE
 70
     0
  9
$MIRRTEXT
 70
     1
  9
$LTSCALE
 40
0.6666666667
  9
$ATTMODE
 70
     1
  9
$TEXTSIZE
 40
2.1166666667
  9
$TRACEWID
 40
1.0
  9
$TEXTSTYLE
  7
Standard
  9
$CLAYER
  8
0
  9
$CELTYPE
  6
ByLayer
  9
$CECOLOR
 62
   256
  9
$CELTSCALE
 40
1.0
  9
$DISPSILH
 70
     0
  9
$DIMSCALE
 40
1.0
  9
$DIMASZ
 40
1.3333333333
  9
$DIMEXO
 40
0.6666666667
  9
$DIMDLI
 40
3.75
  9
$DIMRND
 40
0.0
  9
$DIMDLE
 40
0.0
  9
$DIMEXE
 40
0.6666666667
  9
$DIMTP
 40
0.0
  9
$DIMTM
 40
0.0
  9
$DIMTXT
 40
2.1166666667
  9
$DIMCEN
 40
2.5
  9
$DIMTSZ
 40
0.0
  9
$DIMTOL
 70
     0
  9
$DIMLIM
 70
     0
  9
$DIMTIH
 70
     1
  9
$DIMTOH
 70
     1
  9
$DIMSE1
 70
     0
  9
$DIMSE2
 70
     0
  9
$DIMTAD
 70
     1
  9
$DIMZIN
 70
     0
  9
$DIMBLK
  1

  9
$DIMASO
 70
     1
  9
$DIMSHO
 70
     1
  9
$DIMPOST
  1

  9
$DIMAPOST
  1

  9
$DIMALT
 70
     0
  9
$DIMALTD
 70
     3
  9
$DIMALTF
 40
0.0393700787
  9
$DIMLFAC
 40
1.0
  9
$DIMTOFL
 70
     1
  9
$DIMTVP
 40
0.0
  9
$DIMTIX
 70
     0
  9
$DIMSOXD
 70
     0
  9
$DIMSAH
 70
     0
  9
$DIMBLK1
  1

  9
$DIMBLK2
  1

  9
$DIMSTYLE
  2
ISO-25
  9
$DIMCLRD
 70
     0
  9
$DIMCLRE
 70
     0
  9
$DIMCLRT
 70
     0
  9
$DIMTFAC
 40
1.0
  9
$DIMGAP
 40
0.6666666667
  9
$DIMJUST
 70
     0
  9
$DIMSD1
 70
     0
  9
$DIMSD2
 70
     0
  9
$DIMTOLJ
 70
     0
  9
$DIMTZIN
 70
     0
  9
$DIMALTZ
 70
     0
  9
$DIMALTTZ
 70
     0
  9
$DIMUPT
 70
     0
  9
$DIMDEC
 70
     2
  9
$DIMTDEC
 70
     2
  9
$DIMALTU
 70
     2
  9
$DIMALTTD
 70
     3
  9
$DIMTXSTY
  7
Standard
  9
$DIMAUNIT
 70
     0
  9
$DIMADEC
 70
     2
  9
$DIMALTRND
 40
0.0
  9
$DIMAZIN
 70
     0
  9
$DIMDSEP
 70
    44
  9
$DIMATFIT
 70
     3
  9
$DIMFRAC
 70
     0
  9
$DIMLDRBLK
  1

  9
$DIMLUNIT
 70
     2
  9
$DIMLWD
 70
    -2
  9
$DIMLWE
 70
    -2
  9
$DIMTMOVE
 70
     0
  9
$LUNITS
 70
     2
  9
$LUPREC
 70
     2
  9
$SKETCHINC
 40
1.0
  9
$FILLETRAD
 40
10.0
  9
$AUNITS
 70
     0
  9
$AUPREC
 70
     2
  9
$MENU
  1
.
  9
$ELEVATION
 40
0.0
  9
$PELEVATION
 40
0.0
  9
$THICKNESS
 40
0.0
  9
$LIMCHECK
 70
     0
  9
$CHAMFERA
 40
0.0
  9
$CHAMFERB
 40
0.0
  9
$CHAMFERC
 40
0.0
  9
$CHAMFERD
 40
0.0
  9
$SKPOLY
 70
     0
  9
$TDCREATE
 40
2458431.626746123
  9
$TDUCREATE
 40
2458431.293412789
  9
$TDUPDATE
 40
2458431.626754664
  9
$TDUUPDATE
 40
2458431.293421331
  9
$TDINDWG
 40
0.0000000116
  9
$TDUSRTIMER
 40
0.0000000116
  9
$USRTIMER
 70
     1
  9
$ANGBASE
 50
0.0
  9
$ANGDIR
 70
     0
  9
$PDMODE
 70
     0
  9
$PDSIZE
 40
-1.0
  9
$PLINEWID
 40
0.0
  9
$SPLFRAME
 70
     0
  9
$SPLINETYPE
 70
     6
  9
$SPLINESEGS
 70
     8
  9
$HANDSEED
  5
215
  9
$SURFTAB1
 70
     6
  9
$SURFTAB2
 70
     6
  9
$SURFTYPE
 70
     6
  9
$SURFU
 70
     6
  9
$SURFV
 70
     6
  9
$UCSBASE
  2

  9
$UCSNAME
  2

  9
$UCSORG
 10
0.0
 20
0.0
 30
0.0
  9
$UCSXDIR
 10
1.0
 20
0.0
 30
0.0
  9
$UCSYDIR
 10
0.0
 20
1.0
 30
0.0
  9
$UCSORTHOREF
  2

  9
$UCSORTHOVIEW
 70
     0
  9
$UCSORGTOP
 10
0.0
 20
0.0
 30
0.0
  9
$UCSORGBOTTOM
 10
0.0
 20
0.0
 30
0.0
  9
$UCSORGLEFT
 10
0.0
 20
0.0
 30
0.0
  9
$UCSORGRIGHT
 10
0.0
 20
0.0
 30
0.0
  9
$UCSORGFRONT
 10
0.0
 20
0.0
 30
0.0
  9
$UCSORGBACK
 10
0.0
 20
0.0
 30
0.0
  9
$PUCSBASE
  2

  9
$PUCSNAME
  2

  9
$PUCSORG
 10
0.0
 20
0.0
 30
0.0
  9
$PUCSXDIR
 10
1.0
 20
0.0
 30
0.0
  9
$PUCSYDIR
 10
0.0
 20
1.0
 30
0.0
  9
$PUCSORTHOREF
  2

  9
$PUCSORTHOVIEW
 70
     0
  9
$PUCSORGTOP
 10
0.0
 20
0.0
 30
0.0
  9
$PUCSORGBOTTOM
 10
0.0
 20
0.0
 30
0.0
  9
$PUCSORGLEFT
 10
0.0
 20
0.0
 30
0.0
  9
$PUCSORGRIGHT
 10
0.0
 20
0.0
 30
0.0
  9
$PUCSORGFRONT
 10
0.0
 20
0.0
 30
0.0
  9
$PUCSORGBACK
 10
0.0
 20
0.0
 30
0.0
  9
$USERI1
 70
     0
  9
$USERI2
 70
     0
  9
$USERI3
 70
     0
  9
$USERI4
 70
     0
  9
$USERI5
 70
     0
  9
$USERR1
 40
0.0
  9
$USERR2
 40
0.0
  9
$USERR3
 40
0.0
  9
$USERR4
 40
0.0
  9
$USERR5
 40
0.0
  9
$WORLDVIEW
 70
     1
  9
$SHADEDGE
 70
     3
  9
$SHADEDIF
 70
    70
  9
$TILEMODE
 70
     1
  9
$MAXACTVP
 70
    64
  9
$PINSBASE
 10
0.0
 20
0.0
 30
0.0
  9
$PLIMCHECK
 70
     0
  9
$PEXTMIN
 10
1.0000000000E+20
 20
1.0000000000E+20
 30
1.0000000000E+20
  9
$PEXTMAX
 10
-1.0000000000E+20
 20
-1.0000000000E+20
 30
-1.0000000000E+20
  9
$PLIMMIN
 10
0.0
 20
0.0
  9
$PLIMMAX
 10
420.0
 20
297.0
  9
$UNITMODE
 70
     0
  9
$VISRETAIN
 70
     1
  9
$PLINEGEN
 70
     0
  9
$PSLTSCALE
 70
     1
  9
$TREEDEPTH
 70
  3020
  9
$CMLSTYLE
  2
Standard
  9
$CMLJUST
 70
     0
  9
$CMLSCALE
 40
20.0
  9
$PROXYGRAPHICS
 70
     1
  9
$MEASUREMENT
 70
     1
  9
$CELWEIGHT
370
    -1
  9
$ENDCAPS
280
     0
  9
$JOINSTYLE
280
     0
  9
$LWDISPLAY
290
     1
  9
$INSUNITS
 70
     4
  9
$HYPERLINKBASE
  1

  9
$STYLESHEET
  1

  9
$XEDIT
290
     1
  9
$CEPSNTYPE
380
     0
  9
$PSTYLEMODE
290
     1
  9
$FINGERPRINTGUID
  2
{51074957-B6E2-495D-8E0B-28FD6A086671}
  9
$VERSIONGUID
  2
{FAEB1C32-E019-11D5-929B-00C0DF256EC4}
  9
$EXTNAMES
290
     1
  9
$PSVPSCALE
 40
0.0
  9
$OLESTARTUP
290
     0
  0
ENDSEC
  0
SECTION
  2
CLASSES
  0
CLASS
  1
ACDBDICTIONARYWDFLT
  2
AcDbDictionaryWithDefault
  3
ObjectDBX Classes
 90
        0
280
     0
281
     0
  0
CLASS
  1
VISUALSTYLE
  2
AcDbVisualStyle
  3
ObjectDBX Classes
 90
     4095
280
     0
281
     0
  0
CLASS
  1
MATERIAL
  2
AcDbMaterial
  3
ObjectDBX Classes
 90
     1153
280
     0
281
     0
  0
CLASS
  1
SCALE
  2
AcDbScale
  3
ObjectDBX Classes
 90
     1153
280
     0
281
     0
  0
CLASS
  1
TABLESTYLE
  2
AcDbTableStyle
  3
ObjectDBX Classes
 90
     4095
280
     0
281
     0
  0
CLASS
  1
MLEADERSTYLE
  2
AcDbMLeaderStyle
  3
ACDB_MLEADERSTYLE_CLASS
 90
     4095
280
     0
281
     0
  0
CLASS
  1
SUN
  2
AcDbSun
  3
SCENEOE
 90
     1153
280
     0
281
     0
  0
CLASS
  1
ACDBPLACEHOLDER
  2
AcDbPlaceHolder
  3
ObjectDBX Classes
 90
        0
280
     0
281
     0
  0
CLASS
  1
LAYOUT
  2
AcDbLayout
  3
ObjectDBX Classes
 90
        0
280
     0
281
     0
  0
ENDSEC
  0
SECTION
  2
TABLES
  0
TABLE
  2
VPORT
  5
8
330
0
100
AcDbSymbolTable
 70
     1
  0
VPORT
  5
29
330
8
100
AcDbSymbolTableRecord
100
AcDbViewportTableRecord
  2
*Active
 70
     0
 10
0.0
 20
0.0
 11
1.0
 21
1.0
 12
99.0
 22
70.0
 13
0.0
 23
0.0
 14
10.0
 24
10.0
 15
10.0
 25
10.0
 16
0.0
 26
0.0
 36
1.0
 17
0.0
 27
0.0
 37
0.0
 40
140.0
 41
1.4142857143
 42
50.0
 43
0.0
 44
0.0
 50
0.0
 51
0.0
 71
     0
 72
  2000
 73
     1
 74
     3
 75
     0
 76
     0
 77
     0
 78
     0
281
     0
 65
     1
110
0.0
120
0.0
130
0.0
111
1.0
121
0.0
131
0.0
112
0.0
122
1.0
132
0.0
 79
     0
146
0.0
  0
ENDTAB
  0
TABLE
  2
LTYPE
  5
5
330
0
100
AcDbSymbolTable
 70
     6
  0
LTYPE
  5
14
330
5
100
AcDbSymbolTableRecord
100
AcDbLinetypeTableRecord
  2
ByBlock
 70
     0
  3

 72
    65
 73
     0
 40
0.0
  0
LTYPE
  5
15
330
5
100
AcDbSymbolTableRecord
100
AcDbLinetypeTableRecord
  2
ByLayer
 70
     0
  3

 72
    65
 73
     0
 40
0.0
  0
LTYPE
  5
16
330
5
100
AcDbSymbolTableRecord
100
AcDbLinetypeTableRecord
  2
Continuous
 70
     0
  3
Solid line
 72
    65
 73
     0
 40
0.0
  0
LTYPE
  5
6E
330
5
100
AcDbSymbolTableRecord
100
AcDbLinetypeTableRecord
  2
HIDDEN
 70
     0
  3
Hidden __ __ __ __ __ __ __ __ __ __ __ __ __ __
 72
    65
 73
     2
 40
1.905
 49
1.27
 74
     0
 49
-0.635
 74
     0
  0
LTYPE
  5
6F
330
5
100
AcDbSymbolTableRecord
100
AcDbLinetypeTableRecord
  2
PHANTOM
 70
     0
  3
Phantom ______  __  __  ______  __  __  ______
 72
    65
 73
     6
 40
12.7
 49
6.35
 74
     0
 49
-1.27
 74
     0
 49
1.27
 74
     0
 49
-1.27
 74
     0
 49
1.27
 74
     0
 49
-1.27
 74
     0
  0
LTYPE
  5
70
330
5
100
AcDbSymbolTableRecord
100
AcDbLinetypeTableRecord
  2
CENTER
 70
     0
  3
Center ____ _ ____ _ ____ _ ____ _ ____ _ ____
 72
    65
 73
     4
 40
10.16
 49
6.35
 74
     0
 49
-1.27
 74
     0
 49
1.27
 74
     0
 49
-1.27
 74
     0
  0
LTYPE
  5
71
330
5
100
AcDbSymbolTableRecord
100
AcDbLinetypeTableRecord
  2
CENTERX2
 70
     0
  3
Center (2x) ________  __  ________  __  _____
 72
    65
 73
     4
 40
20.32
 49
12.7
 74
     0
 49
-2.54
 74
     0
 49
2.54
 74
     0
 49
-2.54
 74
     0
  0
LTYPE
  5
72
330
5
100
AcDbSymbolTableRecord
100
AcDbLinetypeTableRecord
  2
DOT2
 70
     0
  3
Dot (.5x) ........................................
 72
    65
 73
     2
 40
0.635
 49
0.0
 74
     0
 49
-0.635
 74
     0
  0
ENDTAB
  0
TABLE
  2
LAYER
  5
2
330
0
100
AcDbSymbolTable
 70
    10
  0
LAYER
  5
10
330
2
100
AcDbSymbolTableRecord
100
AcDbLayerTableRecord
  2
0
 70
     0
 62
     7
  6
Continuous
370
    -3
390
F
  0
LAYER
  5
73
330
2
100
AcDbSymbolTableRecord
100
AcDbLayerTableRecord
  2
SLD-0
 70
     0
 62
     7
  6
Continuous
370
    15
390
F
  0
LAYER
  5
74
330
2
100
AcDbSymbolTableRecord
100
AcDbLayerTableRecord
  2
輪廓線
 70
     0
 62
   219
  6
Continuous
370
    15
390
F
  0
LAYER
  5
75
330
2
100
AcDbSymbolTableRecord
100
AcDbLayerTableRecord
  2
DIM
 70
     0
 62
     7
  6
Continuous
370
    -3
390
F
  0
LAYER
  5
76
330
2
100
AcDbSymbolTableRecord
100
AcDbLayerTableRecord
  2
中心線
 70
     0
 62
     7
  6
CENTERX2
370
    -3
390
F
  0
LAYER
  5
77
330
2
100
AcDbSymbolTableRecord
100
AcDbLayerTableRecord
  2
虛線
 70
     0
 62
     7
  6
HIDDEN
370
    -3
390
F
  0
LAYER
  5
78
330
2
100
AcDbSymbolTableRecord
100
AcDbLayerTableRecord
  2
SECTION
 70
     0
 62
     7
  6
PHANTOM
370
    15
390
F
  0
LAYER
  5
79
330
2
100
AcDbSymbolTableRecord
100
AcDbLayerTableRecord
  2
假想線
 70
     0
 62
     7
  6
PHANTOM
370
    -3
390
F
  0
LAYER
  5
7A
330
2
100
AcDbSymbolTableRecord
100
AcDbLayerTableRecord
  2
圖層_1
 70
     0
 62
   179
  6
Continuous
370
    -3
390
F
  0
LAYER
  5
7B
330
2
100
AcDbSymbolTableRecord
100
AcDbLayerTableRecord
  2
工作區域參考線
 70
     0
 62
   179
  6
Continuous
370
    -3
390
F
  0
ENDTAB
  0
TABLE
  2
STYLE
  5
3
330
0
100
AcDbSymbolTable
 70
     3
  0
STYLE
  5
11
330
3
100
AcDbSymbolTableRecord
100
AcDbTextStyleTableRecord
  2
Standard
 70
     0
 40
0.0
 41
1.0
 50
0.0
 71
     0
 42
2.1166666667
  3
txt
  4

  0
STYLE
  5
CC
330
3
100
AcDbSymbolTableRecord
100
AcDbTextStyleTableRecord
  2
SLDTEXTSTYLE0
 70
     0
 40
0.0
 41
0.605
 50
0.0
 71
     0
 42
2.1166666667
  3
TXT
  4

  0
STYLE
  5
103
330
3
100
AcDbSymbolTableRecord
100
AcDbTextStyleTableRecord
  2
SLDTEXTSTYLE1
 70
     0
 40
0.0
 41
0.7
 50
0.0
 71
     0
 42
2.1166666667
  3
TXT
  4

  0
ENDTAB
  0
TABLE
  2
VIEW
  5
6
330
0
100
AcDbSymbolTable
 70
     0
  0
ENDTAB
  0
TABLE
  2
UCS
  5
7
330
0
100
AcDbSymbolTable
 70
     0
  0
ENDTAB
  0
TABLE
  2
APPID
  5
9
330
0
100
AcDbSymbolTable
 70
     1
  0
APPID
  5
12
330
9
100
AcDbSymbolTableRecord
100
AcDbRegAppTableRecord
  2
ACAD
 70
     0
  0
ENDTAB
  0
TABLE
  2
DIMSTYLE
  5
A
330
0
100
AcDbSymbolTable
 70
     4
100
AcDbDimStyleTable
  0
DIMSTYLE
105
27
330
A
100
AcDbSymbolTableRecord
100
AcDbDimStyleTableRecord
  2
ISO-25
 70
     0
 41
2.5
 42
0.625
 43
3.75
 44
1.25
 73
     0
 74
     0
 77
     1
 78
     8
140
2.5
141
2.5
143
0.0393700787
147
0.625
171
     3
172
     1
178
     0
271
     2
272
     2
274
     3
278
    44
283
     0
284
     8
340
11
  0
DIMSTYLE
105
119
102
{ACAD_REACTORS
330
118
330
123
330
180
330
1B6
330
1C0
102
}
330
A
100
AcDbSymbolTableRecord
100
AcDbDimStyleTableRecord
  2
SLDDIMSTYLE0
 70
     0
 41
1.3333333333
 44
0.0
 45
0.000000001
 73
     0
 74
     0
 77
     1
 78
    12
 79
     3
140
1.6949869792
147
0.4237467448
173
     1
178
     0
271
     2
272
     2
276
     2
284
    12
340
103
  0
DIMSTYLE
105
12E
102
{ACAD_REACTORS
330
12D
330
18A
102
}
330
A
100
AcDbSymbolTableRecord
100
AcDbDimStyleTableRecord
  2
SLDDIMSTYLE1
 70
     0
  3
<>
 41
1.3333333333
 44
0.0
 45
0.000000001
 78
    12
 79
     3
140
1.6949869792
141
0.0
147
0.4237467448
173
     1
178
     0
271
     2
272
     2
276
     2
284
    12
340
103
  0
DIMSTYLE
105
1CB
102
{ACAD_REACTORS
330
1CA
102
}
330
A
100
AcDbSymbolTableRecord
100
AcDbDimStyleTableRecord
  2
SLDDIMSTYLE2
 70
     0
 41
1.3333333333
 44
0.0
 73
     0
 74
     0
 77
     1
 78
    12
 79
     3
140
1.6949869792
144
0.6666666667
147
0.4237467448
173
     1
178
     0
179
     2
272
     2
276
     2
284
    12
340
103
  0
ENDTAB
  0
TABLE
  2
BLOCK_RECORD
  5
1
330
0
100
AcDbSymbolTable
 70
    14
  0
BLOCK_RECORD
  5
1F
330
1
100
AcDbSymbolTableRecord
100
AcDbBlockTableRecord
  2
*Model_Space
340
22
  0
BLOCK_RECORD
  5
1B
330
1
100
AcDbSymbolTableRecord
100
AcDbBlockTableRecord
  2
*Paper_Space
340
1E
  0
BLOCK_RECORD
  5
23
330
1
100
AcDbSymbolTableRecord
100
AcDbBlockTableRecord
  2
*Paper_Space0
340
26
  0
BLOCK_RECORD
  5
7C
330
1
100
AcDbSymbolTableRecord
100
AcDbBlockTableRecord
  2
圖塊6
340
0
102
{BLKREFS
331
CB
102
}
  0
BLOCK_RECORD
  5
CE
330
1
100
AcDbSymbolTableRecord
100
AcDbBlockTableRecord
  2
SW_NOTE_0
340
0
102
{BLKREFS
331
D4
102
}
  0
BLOCK_RECORD
  5
105
330
1
100
AcDbSymbolTableRecord
100
AcDbBlockTableRecord
  2
SW_NOTE_1
340
0
102
{BLKREFS
331
10A
102
}
  0
BLOCK_RECORD
  5
11A
330
1
100
AcDbSymbolTableRecord
100
AcDbBlockTableRecord
  2
_D
340
0
  0
BLOCK_RECORD
  5
124
330
1
100
AcDbSymbolTableRecord
100
AcDbBlockTableRecord
  2
_D_1
340
0
  0
BLOCK_RECORD
  5
12F
330
1
100
AcDbSymbolTableRecord
100
AcDbBlockTableRecord
  2
_D_2
340
0
  0
BLOCK_RECORD
  5
137
330
1
100
AcDbSymbolTableRecord
100
AcDbBlockTableRecord
  2
SW_CENTERMARKSYMBOL_0
340
0
102
{BLKREFS
331
142
102
}
  0
BLOCK_RECORD
  5
181
330
1
100
AcDbSymbolTableRecord
100
AcDbBlockTableRecord
  2
_D_3
340
0
  0
BLOCK_RECORD
  5
18B
330
1
100
AcDbSymbolTableRecord
100
AcDbBlockTableRecord
  2
_D_4
340
0
  0
BLOCK_RECORD
  5
193
330
1
100
AcDbSymbolTableRecord
100
AcDbBlockTableRecord
  2
SW_CENTERMARKSYMBOL_1
340
0
102
{BLKREFS
331
19E
102
}
  0
BLOCK_RECORD
  5
1B7
330
1
100
AcDbSymbolTableRecord
100
AcDbBlockTableRecord
  2
_D_5
340
0
  0
BLOCK_RECORD
  5
1C1
330
1
100
AcDbSymbolTableRecord
100
AcDbBlockTableRecord
  2
_D_6
340
0
  0
BLOCK_RECORD
  5
1CC
330
1
100
AcDbSymbolTableRecord
100
AcDbBlockTableRecord
  2
_D_7
340
0
  0
ENDTAB
  0
ENDSEC
  0
SECTION
  2
BLOCKS
  0
BLOCK
  5
20
330
1F
100
AcDbEntity
  8
0
100
AcDbBlockBegin
  2
*Model_Space
 70
     0
 10
0.0
 20
0.0
 30
0.0
  3
*Model_Space
  1

  0
ENDBLK
  5
21
330
1F
100
AcDbEntity
  8
0
100
AcDbBlockEnd
  0
BLOCK
  5
1C
330
1B
100
AcDbEntity
 67
     1
  8
0
100
AcDbBlockBegin
  2
*Paper_Space
 70
     0
 10
0.0
 20
0.0
 30
0.0
  3
*Paper_Space
  1

  0
ENDBLK
  5
1D
330
1B
100
AcDbEntity
 67
     1
  8
0
100
AcDbBlockEnd
  0
BLOCK
  5
24
330
23
100
AcDbEntity
  8
0
100
AcDbBlockBegin
  2
*Paper_Space0
 70
     0
 10
0.0
 20
0.0
 30
0.0
  3
*Paper_Space0
  1

  0
ENDBLK
  5
25
330
23
100
AcDbEntity
  8
0
100
AcDbBlockEnd
  0
BLOCK
  5
7D
330
7C
100
AcDbEntity
  8
0
100
AcDbBlockBegin
  2
圖塊6
 70
     0
 10
0.0
 20
0.0
 30
0.0
  3
圖塊6
  1

  0
ARC
  5
7F
330
7C
100
AcDbEntity
  8
圖層_1
 62
     7
370
    30
100
AcDbCircle
 10
1.020102956
 20
4.0680455261
 30
0.0
 40
1.020102955962447
100
AcDbArc
 50
130.2115225915
 51
228.588904108
  0
ARC
  5
80
330
7C
100
AcDbEntity
  8
圖層_1
 62
     7
370
    30
100
AcDbCircle
 10
3.2339423987
 20
3.9966302943
 30
0.0
 40
1.718223617878414
100
AcDbArc
 50
140.4331765613
 51
251.0865666567
  0
ARC
  5
81
330
7C
100
AcDbEntity
  8
圖層_1
 62
     7
370
    30
100
AcDbCircle
 10
3.4510027988
 20
4.2078373142
 30
0.0
 40
1.993091105179908
100
AcDbArc
 50
247.1485306747
 51
309.6030773927
  0
LINE
  5
82
330
7C
100
AcDbEntity
  8
圖層_1
 62
     7
370
    30
100
AcDbLine
 10
1.2325984846
 20
5.6881217322
 30
0.0
 11
0.3615129813
 21
4.8470636812
 31
0.0
  0
LINE
  5
83
330
7C
100
AcDbEntity
  8
圖層_1
 62
     7
370
    30
100
AcDbLine
 10
0.3453485933
 20
3.3029856651
 30
0.0
 11
3.0181501334
 21
0.9799164383
 31
0.0
  0
LINE
  5
84
330
7C
100
AcDbEntity
  8
圖層_1
 62
     7
370
    30
100
AcDbLine
 10
3.0181501334
 20
0.9799164383
 30
0.0
 11
2.5974488532
 21
0.569316178
 31
0.0
  0
LINE
  5
85
330
7C
100
AcDbEntity
  8
圖層_1
 62
     7
370
    30
100
AcDbLine
 10
2.5974488532
 20
0.569316178
 30
0.0
 11
3.258701763
 21
0.0
 31
0.0
  0
LINE
  5
86
330
7C
100
AcDbEntity
  8
圖層_1
 62
     7
370
    30
100
AcDbLine
 10
5.3984780526
 20
2.0777186437
 30
0.0
 11
4.7215293648
 21
2.6722024622
 31
0.0
  0
LINE
  5
87
330
7C
100
AcDbEntity
  8
圖層_1
 62
     7
370
    30
100
AcDbLine
 10
1.9093943828
 20
5.091100465
 30
0.0
 11
1.2325984846
 21
5.6881217322
 31
0.0
  0
LINE
  5
88
330
7C
100
AcDbEntity
  8
圖層_1
 62
     7
370
    30
100
AcDbLine
 10
3.258701763
 20
0.0
 30
0.0
 11
5.3984780526
 21
2.0777186437
 31
0.0
  0
ENDBLK
  5
7E
330
7C
100
AcDbEntity
  8
0
100
AcDbBlockEnd
  0
BLOCK
  5
CF
330
CE
100
AcDbEntity
  8
0
100
AcDbBlockBegin
  2
SW_NOTE_0
 70
     0
 10
0.0
 20
0.0
 30
0.0
  3
SW_NOTE_0
  1

  0
MTEXT
  5
D1
330
CE
100
AcDbEntity
  8
0
  6
Continuous
 62
     0
370
     0
100
AcDbMText
 10
0.0
 20
2.2737722632
 30
0.0
 40
1.7638888889
 41
0.0
 71
     1
 72
     1
  1
PROPRIETARY AND CONFIDENTIAL
  7
SLDTEXTSTYLE0
 73
     1
 44
1.0
  0
MTEXT
  5
D2
330
CE
100
AcDbEntity
  8
0
  6
Continuous
 62
     0
370
     0
100
AcDbMText
 10
0.0
 20
-0.0546556533
 30
0.0
 40
1.2347222222
 41
0.0
 71
     1
 72
     1
  1
THE INFORMATION CONTAINED IN THIS DRAWING IS THE SOLE PROPERTY OF UNICE E-O SERVICES INC. ANY REPRODUCTION IN PART OR AS A WHOLE WITHOUT THE WRITTEN PERMISSION OF UNICE E-O SERVICES INC IS
  7
SLDTEXTSTYLE0
 73
     1
 44
1.0
  0
MTEXT
  5
D3
330
CE
100
AcDbEntity
  8
0
  6
Continuous
 62
     0
370
     0
100
AcDbMText
 10
0.0
 20
-1.7009519297
 30
0.0
 40
1.2347222222
 41
0.0
 71
     1
 72
     1
  1
PROHIBITED.
  7
SLDTEXTSTYLE0
 73
     1
 44
1.0
  0
ENDBLK
  5
D0
330
CE
100
AcDbEntity
  8
0
100
AcDbBlockEnd
  0
BLOCK
  5
106
330
105
100
AcDbEntity
  8
0
100
AcDbBlockBegin
  2
SW_NOTE_1
 70
     0
 10
0.0
 20
0.0
 30
0.0
  3
SW_NOTE_1
  1

  0
MTEXT
  5
108
330
105
100
AcDbEntity
  8
SLD-0
 62
     0
100
AcDbMText
 10
0.0
 20
1.3642633579
 30
0.0
 40
1.0583333333
 41
0.0
 71
     1
 72
     1
  1
No.5, Andong Rd., Chung Li District,
  7
SLDTEXTSTYLE0
 73
     1
 44
1.0
  0
MTEXT
  5
109
330
105
100
AcDbEntity
  8
SLD-0
 62
     0
100
AcDbMText
 10
0.0
 20
-0.0468477361
 30
0.0
 40
1.0583333333
 41
0.0
 71
     1
 72
     1
  1
Taoyuan City 32063, Taiwan, R.O.C.
  7
SLDTEXTSTYLE0
 73
     1
 44
1.0
  0
ENDBLK
  5
107
330
105
100
AcDbEntity
  8
0
100
AcDbBlockEnd
  0
BLOCK
  5
11B
330
11A
100
AcDbEntity
  8
0
100
AcDbBlockBegin
  2
_D
 70
     0
 10
0.0
 20
0.0
 30
0.0
  3
_D
  1

  0
SOLID
  5
11D
330
11A
100
AcDbEntity
  8
DIM
100
AcDbTrace
 10
21.7089691773
 20
51.9626326437
 30
0.0
 11
21.5423025107
 21
50.6292993104
 31
0.0
 12
21.875635844
 22
50.6292993104
 32
0.0
 13
21.875635844
 23
50.6292993104
 33
0.0
  0
SOLID
  5
11E
330
11A
100
AcDbEntity
  8
DIM
100
AcDbTrace
 10
21.7089691773
 20
33.9626326437
 30
0.0
 11
21.875635844
 21
35.2959659771
 31
0.0
 12
21.5423025107
 22
35.2959659771
 32
0.0
 13
21.5423025107
 23
35.2959659771
 33
0.0
  0
LINE
  5
11F
330
11A
100
AcDbEntity
  8
DIM
100
AcDbLine
 10
35.6817691773
 20
51.9626326437
 30
0.0
 11
21.0423025107
 21
51.9626326437
 31
0.0
  0
LINE
  5
120
330
11A
100
AcDbEntity
  8
DIM
100
AcDbLine
 10
25.7089691773
 20
33.9626326437
 30
0.0
 11
21.0423025107
 21
33.9626326437
 31
0.0
  0
LINE
  5
121
330
11A
100
AcDbEntity
  8
DIM
100
AcDbLine
 10
21.7089691773
 20
51.9626326437
 30
0.0
 11
21.7089691773
 21
33.9626326437
 31
0.0
  0
MTEXT
  5
122
330
11A
100
AcDbEntity
  8
DIM
100
AcDbMText
 10
19.662574218
 20
41.9689752522
 30
0.0
 40
1.5875
 41
0.0
 71
     1
 72
     1
  1
18
  7
SLDTEXTSTYLE1
 11
-7.044195017643634E-15
 21
1.0
 31
0.0
 73
     1
 44
1.0
  0
ENDBLK
  5
11C
330
11A
100
AcDbEntity
  8
0
100
AcDbBlockEnd
  0
BLOCK
  5
125
330
124
100
AcDbEntity
  8
0
100
AcDbBlockBegin
  2
_D_1
 70
     0
 10
0.0
 20
0.0
 30
0.0
  3
_D_1
  1

  0
SOLID
  5
127
330
124
100
AcDbEntity
  8
DIM
100
AcDbTrace
 10
26.375635844
 20
29.2959659771
 30
0.0
 11
27.7089691773
 21
29.1292993104
 31
0.0
 12
27.7089691773
 22
29.4626326437
 32
0.0
 13
27.7089691773
 23
29.4626326437
 33
0.0
  0
SOLID
  5
128
330
124
100
AcDbEntity
  8
DIM
100
AcDbTrace
 10
51.775635844
 20
29.2959659771
 30
0.0
 11
50.4423025107
 21
29.4626326437
 31
0.0
 12
50.4423025107
 22
29.1292993104
 32
0.0
 13
50.4423025107
 23
29.1292993104
 33
0.0
  0
LINE
  5
129
330
124
100
AcDbEntity
  8
DIM
100
AcDbLine
 10
26.375635844
 20
33.2959659771
 30
0.0
 11
26.375635844
 21
28.6292993104
 31
0.0
  0
LINE
  5
12A
330
124
100
AcDbEntity
  8
DIM
100
AcDbLine
 10
51.775635844
 20
33.2959659771
 30
0.0
 11
51.775635844
 21
28.6292993104
 31
0.0
  0
LINE
  5
12B
330
124
100
AcDbEntity
  8
DIM
100
AcDbLine
 10
26.375635844
 20
29.2959659771
 30
0.0
 11
51.775635844
 21
29.2959659771
 31
0.0
  0
MTEXT
  5
12C
330
124
100
AcDbEntity
  8
DIM
100
AcDbMText
 10
37.3367355252
 20
31.3423609364
 30
0.0
 40
1.5875
 41
0.0
 71
     1
 72
     1
  1
25.4
  7
SLDTEXTSTYLE1
 73
     1
 44
1.0
  0
ENDBLK
  5
126
330
124
100
AcDbEntity
  8
0
100
AcDbBlockEnd
  0
BLOCK
  5
130
330
12F
100
AcDbEntity
  8
0
100
AcDbBlockBegin
  2
_D_2
 70
     0
 10
0.0
 20
0.0
 30
0.0
  3
_D_2
  1

  0
SOLID
  5
132
330
12F
100
AcDbEntity
  8
DIM
100
AcDbTrace
 10
40.2910464849
 20
53.1898232622
 30
0.0
 11
41.3477158288
 21
54.0198867857
 31
0.0
 12
41.1108795971
 22
54.2544495927
 32
0.0
 13
41.1108795971
 23
54.2544495927
 33
0.0
  0
LINE
  5
133
330
12F
100
AcDbEntity
  8
DIM
100
AcDbLine
 10
40.2910464849
 20
53.1898232622
 30
0.0
 11
54.5341425747
 21
67.5709659899
 31
0.0
  0
LINE
  5
134
330
12F
100
AcDbEntity
  8
DIM
100
AcDbLine
 10
54.5341425747
 20
67.5709659899
 30
0.0
 11
62.7052540938
 21
67.5709659899
 31
0.0
  0
MTEXT
  5
135
330
12F
100
AcDbEntity
  8
DIM
100
AcDbMText
 10
55.367475908
 20
71.7340275902
 30
0.0
 40
1.5875
 41
0.0
 71
     1
 72
     1
  1
1 HOLE,
  7
SLDTEXTSTYLE1
 73
     1
 44
1.0
  0
MTEXT
  5
136
330
12F
100
AcDbEntity
  8
DIM
100
AcDbMText
 10
55.367475908
 20
69.6173609492
 30
0.0
 40
1.5875
 41
0.0
 71
     1
 72
     1
  1
8-32
  7
SLDTEXTSTYLE1
 73
     1
 44
1.0
  0
ENDBLK
  5
131
330
12F
100
AcDbEntity
  8
0
100
AcDbBlockEnd
  0
BLOCK
  5
138
330
137
100
AcDbEntity
  8
0
100
AcDbBlockBegin
  2
SW_CENTERMARKSYMBOL_0
 70
     0
 10
0.0
 20
0.0
 30
0.0
  3
SW_CENTERMARKSYMBOL_0
  1

  0
LINE
  5
13A
330
137
100
AcDbEntity
  8
DIM
 62
     0
100
AcDbLine
 10
0.0
 20
0.0
 30
0.0
 11
0.0
 21
1.0
 31
0.0
  0
LINE
  5
13B
330
137
100
AcDbEntity
  8
DIM
 62
     0
100
AcDbLine
 10
0.0
 20
0.0
 30
0.0
 11
-1.0
 21
0.0
 31
0.0
  0
LINE
  5
13C
330
137
100
AcDbEntity
  8
DIM
 62
     0
100
AcDbLine
 10
0.0
 20
0.0
 30
0.0
 11
0.0
 21
-1.0
 31
0.0
  0
LINE
  5
13D
330
137
100
AcDbEntity
  8
DIM
 62
     0
100
AcDbLine
 10
0.0
 20
0.0
 30
0.0
 11
1.0
 21
0.0
 31
0.0
  0
LINE
  5
13E
330
137
100
AcDbEntity
  8
DIM
 62
     0
100
AcDbLine
 10
0.0
 20
2.0
 30
0.0
 11
0.0
 21
2.7272
 31
0.0
  0
LINE
  5
13F
330
137
100
AcDbEntity
  8
DIM
 62
     0
100
AcDbLine
 10
-2.0
 20
0.0
 30
0.0
 11
-2.7272
 21
0.0
 31
0.0
  0
LINE
  5
140
330
137
100
AcDbEntity
  8
DIM
 62
     0
100
AcDbLine
 10
0.0
 20
-2.0
 30
0.0
 11
0.0
 21
-2.7272
 31
0.0
  0
LINE
  5
141
330
137
100
AcDbEntity
  8
DIM
 62
     0
100
AcDbLine
 10
2.0
 20
0.0
 30
0.0
 11
2.7272
 21
0.0
 31
0.0
  0
ENDBLK
  5
139
330
137
100
AcDbEntity
  8
0
100
AcDbBlockEnd
  0
BLOCK
  5
182
330
181
100
AcDbEntity
  8
0
100
AcDbBlockBegin
  2
_D_3
 70
     0
 10
0.0
 20
0.0
 30
0.0
  3
_D_3
  1

  0
SOLID
  5
184
330
181
100
AcDbEntity
  8
DIM
100
AcDbTrace
 10
56.4423025107
 20
92.1220951076
 30
0.0
 11
56.6089691773
 21
93.4554284409
 31
0.0
 12
56.275635844
 22
93.4554284409
 32
0.0
 13
56.275635844
 23
93.4554284409
 33
0.0
  0
SOLID
  5
185
330
181
100
AcDbEntity
  8
DIM
100
AcDbTrace
 10
56.4423025107
 20
119.1220951076
 30
0.0
 11
56.275635844
 21
117.7887617742
 31
0.0
 12
56.6089691773
 22
117.7887617742
 32
0.0
 13
56.6089691773
 23
117.7887617742
 33
0.0
  0
LINE
  5
186
330
181
100
AcDbEntity
  8
DIM
100
AcDbLine
 10
45.1085625107
 20
92.1220951076
 30
0.0
 11
57.1089691773
 21
92.1220951076
 31
0.0
  0
LINE
  5
187
330
181
100
AcDbEntity
  8
DIM
100
AcDbLine
 10
52.4423025107
 20
119.1220951076
 30
0.0
 11
57.1089691773
 21
119.1220951076
 31
0.0
  0
LINE
  5
188
330
181
100
AcDbEntity
  8
DIM
100
AcDbLine
 10
56.4423025107
 20
92.1220951076
 30
0.0
 11
56.4423025107
 21
119.1220951076
 31
0.0
  0
MTEXT
  5
189
330
181
100
AcDbEntity
  8
DIM
100
AcDbMText
 10
54.3959075514
 20
104.628437716
 30
0.0
 40
1.5875
 41
0.0
 71
     1
 72
     1
  1
27
  7
SLDTEXTSTYLE1
 11
6.123233995736766E-17
 21
1.0
 31
0.0
 73
     1
 44
1.0
  0
ENDBLK
  5
183
330
181
100
AcDbEntity
  8
0
100
AcDbBlockEnd
  0
BLOCK
  5
18C
330
18B
100
AcDbEntity
  8
0
100
AcDbBlockBegin
  2
_D_4
 70
     0
 10
0.0
 20
0.0
 30
0.0
  3
_D_4
  1

  0
SOLID
  5
18E
330
18B
100
AcDbEntity
  8
DIM
100
AcDbTrace
 10
36.2444978924
 20
88.7981089032
 30
0.0
 11
35.2530662546
 21
87.8911255168
 31
0.0
 12
35.5068292924
 22
87.6749879871
 32
0.0
 13
35.5068292924
 23
87.6749879871
 33
0.0
  0
LINE
  5
18F
330
18B
100
AcDbEntity
  8
DIM
100
AcDbLine
 10
36.2444978924
 20
88.7981089032
 30
0.0
 11
23.9787259683
 21
74.3970951203
 31
0.0
  0
LINE
  5
190
330
18B
100
AcDbEntity
  8
DIM
100
AcDbLine
 10
23.9787259683
 20
74.3970951203
 30
0.0
 11
15.0844207391
 21
74.3970951203
 31
0.0
  0
MTEXT
  5
191
330
18B
100
AcDbEntity
  8
DIM
100
AcDbMText
 10
15.0844207391
 20
78.5601567207
 30
0.0
 40
1.5875
 41
0.0
 71
     1
 72
     1
  1
1 HOLE,
  7
SLDTEXTSTYLE1
 73
     1
 44
1.0
  0
MTEXT
  5
192
330
18B
100
AcDbEntity
  8
DIM
100
AcDbMText
 10
15.0844207391
 20
76.4434900796
 30
0.0
 40
1.5875
 41
0.0
 71
     1
 72
     1
  1
8-32 CLR
  7
SLDTEXTSTYLE1
 73
     1
 44
1.0
  0
ENDBLK
  5
18D
330
18B
100
AcDbEntity
  8
0
100
AcDbBlockEnd
  0
BLOCK
  5
194
330
193
100
AcDbEntity
  8
0
100
AcDbBlockBegin
  2
SW_CENTERMARKSYMBOL_1
 70
     0
 10
0.0
 20
0.0
 30
0.0
  3
SW_CENTERMARKSYMBOL_1
  1

  0
LINE
  5
196
330
193
100
AcDbEntity
  8
DIM
 62
     0
100
AcDbLine
 10
0.0
 20
0.0
 30
0.0
 11
0.0
 21
1.0
 31
0.0
  0
LINE
  5
197
330
193
100
AcDbEntity
  8
DIM
 62
     0
100
AcDbLine
 10
0.0
 20
0.0
 30
0.0
 11
-1.0
 21
0.0
 31
0.0
  0
LINE
  5
198
330
193
100
AcDbEntity
  8
DIM
 62
     0
100
AcDbLine
 10
0.0
 20
0.0
 30
0.0
 11
0.0
 21
-1.0
 31
0.0
  0
LINE
  5
199
330
193
100
AcDbEntity
  8
DIM
 62
     0
100
AcDbLine
 10
0.0
 20
0.0
 30
0.0
 11
1.0
 21
0.0
 31
0.0
  0
LINE
  5
19A
330
193
100
AcDbEntity
  8
DIM
 62
     0
100
AcDbLine
 10
0.0
 20
2.0
 30
0.0
 11
0.0
 21
5.36626
 31
0.0
  0
LINE
  5
19B
330
193
100
AcDbEntity
  8
DIM
 62
     0
100
AcDbLine
 10
-2.0
 20
0.0
 30
0.0
 11
-5.36626
 21
0.0
 31
0.0
  0
LINE
  5
19C
330
193
100
AcDbEntity
  8
DIM
 62
     0
100
AcDbLine
 10
0.0
 20
-2.0
 30
0.0
 11
0.0
 21
-5.36626
 31
0.0
  0
LINE
  5
19D
330
193
100
AcDbEntity
  8
DIM
 62
     0
100
AcDbLine
 10
2.0
 20
0.0
 30
0.0
 11
5.36626
 21
0.0
 31
0.0
  0
ENDBLK
  5
195
330
193
100
AcDbEntity
  8
0
100
AcDbBlockEnd
  0
BLOCK
  5
1B8
330
1B7
100
AcDbEntity
  8
0
100
AcDbBlockBegin
  2
_D_5
 70
     0
 10
0.0
 20
0.0
 30
0.0
  3
_D_5
  1

  0
SOLID
  5
1BA
330
1B7
100
AcDbEntity
  8
DIM
100
AcDbTrace
 10
73.125067643
 20
29.2959659771
 30
0.0
 11
74.4584009763
 21
29.1292993104
 31
0.0
 12
74.4584009763
 22
29.4626326437
 32
0.0
 13
74.4584009763
 23
29.4626326437
 33
0.0
  0
SOLID
  5
1BB
330
1B7
100
AcDbEntity
  8
DIM
100
AcDbTrace
 10
112.125067643
 20
29.2959659771
 30
0.0
 11
110.7917343096
 21
29.4626326437
 31
0.0
 12
110.7917343096
 22
29.1292993104
 32
0.0
 13
110.7917343096
 23
29.1292993104
 33
0.0
  0
LINE
  5
1BC
330
1B7
100
AcDbEntity
  8
DIM
100
AcDbLine
 10
73.125067643
 20
33.2959659771
 30
0.0
 11
73.125067643
 21
28.6292993104
 31
0.0
  0
LINE
  5
1BD
330
1B7
100
AcDbEntity
  8
DIM
100
AcDbLine
 10
112.125067643
 20
33.2959659771
 30
0.0
 11
112.125067643
 21
28.6292993104
 31
0.0
  0
LINE
  5
1BE
330
1B7
100
AcDbEntity
  8
DIM
100
AcDbLine
 10
73.125067643
 20
29.2959659771
 30
0.0
 11
112.125067643
 21
29.2959659771
 31
0.0
  0
MTEXT
  5
1BF
330
1B7
100
AcDbEntity
  8
DIM
100
AcDbMText
 10
91.6314102515
 20
31.3423609364
 30
0.0
 40
1.5875
 41
0.0
 71
     1
 72
     1
  1
39
  7
SLDTEXTSTYLE1
 73
     1
 44
1.0
  0
ENDBLK
  5
1B9
330
1B7
100
AcDbEntity
  8
0
100
AcDbBlockEnd
  0
BLOCK
  5
1C2
330
1C1
100
AcDbEntity
  8
0
100
AcDbBlockBegin
  2
_D_6
 70
     0
 10
0.0
 20
0.0
 30
0.0
  3
_D_6
  1

  0
SOLID
  5
1C4
330
1C1
100
AcDbEntity
  8
DIM
100
AcDbTrace
 10
116.7917343096
 20
33.9626326437
 30
0.0
 11
116.9584009763
 21
35.2959659771
 31
0.0
 12
116.625067643
 22
35.2959659771
 32
0.0
 13
116.625067643
 23
35.2959659771
 33
0.0
  0
SOLID
  5
1C5
330
1C1
100
AcDbEntity
  8
DIM
100
AcDbTrace
 10
116.7917343096
 20
63.9626326437
 30
0.0
 11
116.625067643
 21
62.6292993104
 31
0.0
 12
116.9584009763
 22
62.6292993104
 32
0.0
 13
116.9584009763
 23
62.6292993104
 33
0.0
  0
LINE
  5
1C6
330
1C1
100
AcDbEntity
  8
DIM
100
AcDbLine
 10
112.7917343096
 20
33.9626326437
 30
0.0
 11
117.4584009763
 21
33.9626326437
 31
0.0
  0
LINE
  5
1C7
330
1C1
100
AcDbEntity
  8
DIM
100
AcDbLine
 10
112.7917343096
 20
63.9626326437
 30
0.0
 11
117.4584009763
 21
63.9626326437
 31
0.0
  0
LINE
  5
1C8
330
1C1
100
AcDbEntity
  8
DIM
100
AcDbLine
 10
116.7917343096
 20
33.9626326437
 30
0.0
 11
116.7917343096
 21
63.9626326437
 31
0.0
  0
MTEXT
  5
1C9
330
1C1
100
AcDbEntity
  8
DIM
100
AcDbMText
 10
114.7453393504
 20
47.9689752522
 30
0.0
 40
1.5875
 41
0.0
 71
     1
 72
     1
  1
30
  7
SLDTEXTSTYLE1
 11
2.832769448823990E-16
 21
1.0
 31
0.0
 73
     1
 44
1.0
  0
ENDBLK
  5
1C3
330
1C1
100
AcDbEntity
  8
0
100
AcDbBlockEnd
  0
BLOCK
  5
1CD
330
1CC
100
AcDbEntity
  8
0
100
AcDbBlockBegin
  2
_D_7
 70
     0
 10
0.0
 20
0.0
 30
0.0
  3
_D_7
  1

  0
ARC
  5
1CF
330
1CC
100
AcDbEntity
  8
DIM
100
AcDbCircle
 10
104.125067643
 20
41.9626326437
 30
0.0
 40
37.71236166328254
100
AcDbArc
 50
90.0
 51
180.0
  0
SOLID
  5
1D0
330
1CC
100
AcDbEntity
  8
DIM
100
AcDbTrace
 10
104.125067643
 20
79.674994307
 30
0.0
 11
102.7889975658
 21
79.818075768
 31
0.0
 12
102.7948873624
 22
79.4847944733
 32
0.0
 13
102.7948873624
 23
79.4847944733
 33
0.0
  0
SOLID
  5
1D1
330
1CC
100
AcDbEntity
  8
DIM
100
AcDbTrace
 10
66.4127059797
 20
41.9626326437
 30
0.0
 11
66.6029058135
 21
43.2928129243
 31
0.0
 12
66.2696245187
 22
43.2987027209
 32
0.0
 13
66.2696245187
 23
43.2987027209
 33
0.0
  0
LINE
  5
1D2
330
1CC
100
AcDbEntity
  8
DIM
100
AcDbLine
 10
104.125067643
 20
64.6292993104
 30
0.0
 11
104.125067643
 21
80.3416609737
 31
0.0
  0
LINE
  5
1D3
330
1CC
100
AcDbEntity
  8
DIM
100
AcDbLine
 10
72.4584009763
 20
41.9626326437
 30
0.0
 11
65.746039313
 21
41.9626326437
 31
0.0
  0
MTEXT
  5
1D4
330
1CC
100
AcDbEntity
  8
DIM
100
AcDbMText
 10
75.1279069974
 20
69.1928448369
 30
0.0
 40
1.5875
 41
0.0
 71
     1
 72
     1
  1
90°
  7
SLDTEXTSTYLE1
 11
0.7071067811865406
 21
0.7071067811865545
 31
0.0
 73
     1
 44
1.0
  0
ENDBLK
  5
1CE
330
1CC
100
AcDbEntity
  8
0
100
AcDbBlockEnd
  0
ENDSEC
  0
SECTION
  2
ENTITIES
  0
HATCH
  5
89
330
1F
100
AcDbEntity
  8
0
  6
Continuous
 62
     7
100
AcDbHatch
 10
0.0
 20
0.0
 30
0.0
210
0.0
220
0.0
230
1.0
  2
SOLID
 70
     1
 71
     0
 91
        1
 92
        0
 93
       10
 72
     2
 10
128.0937310419578
 20
23.83720587325904
 40
1.993091105179906
 50
50.39692260731403
 51
112.8514693252978
 73
     0
 72
     2
 10
127.8766706418747
 20
23.62599885337469
 40
1.718223617878412
 50
108.9134333432863
 51
219.5668234386826
 73
     0
 72
     1
 10
126.5521226259736
 20
24.72046902410007
 11
125.8753267277053
 21
25.31749029131191
 72
     1
 10
125.8753267277053
 20
25.31749029131191
 11
125.0042412244508
 21
24.47643224030691
 72
     2
 10
125.6628311990926
 20
23.69741408514964
 40
1.020102955962441
 50
130.2115225915086
 51
228.5889041080189
 73
     1
 72
     1
 10
124.988076836434
 20
22.93235422419985
 11
127.6608783765644
 21
20.60928499735007
 72
     1
 10
127.6608783765644
 20
20.60928499735007
 11
127.2401770962877
 21
20.19868473703605
 72
     1
 10
127.2401770962877
 20
20.19868473703605
 11
127.9014300061047
 21
19.62936855906683
 72
     1
 10
127.9014300061047
 20
19.62936855906683
 11
130.0412062956815
 21
21.70708720274381
 72
     1
 10
130.0412062956815
 20
21.70708720274381
 11
129.3642576079094
 21
22.30157102123255
 97
        0
 75
     0
 76
     1
 98
        1
 10
0.0
 20
0.0
  0
HATCH
  5
8A
330
1F
100
AcDbEntity
  8
0
  6
Continuous
 62
     1
100
AcDbHatch
 10
0.0
 20
0.0
 30
0.0
210
0.0
220
0.0
230
1.0
  2
SOLID
 70
     1
 71
     0
 91
        1
 92
        0
 93
       10
 72
     2
 10
128.3928303751792
 20
23.77537943754406
 40
1.718378325564166
 50
317.8184992995789
 51
398.0564711573074
 73
     0
 72
     1
 10
129.7458876038775
 20
22.71610600464965
 11
130.4028535325327
 21
22.14364137805665
 72
     1
 10
130.4028535325327
 20
22.14364137805665
 11
131.2306410757286
 21
22.94659667299479
 72
     2
 10
130.6350461919538
 20
23.76522782754207
 40
1.01236862494551
 50
306.0377529468134
 51
403.4396461533869
 73
     1
 72
     1
 10
131.3701261017354
 20
24.46132247556751
 11
128.6189555295065
 21
26.85410665465681
 72
     1
 10
128.6189555295065
 20
26.85410665465681
 11
129.0351230641247
 21
27.26014560854837
 72
     1
 10
129.0351230641247
 20
27.26014560854837
 11
128.4147853906687
 21
27.8136070884447
 72
     1
 10
128.4147853906687
 20
27.8136070884447
 11
126.2577284250621
 21
25.72899359070198
 72
     1
 10
126.2577284250621
 20
25.72899359070198
 11
126.9393336766278
 21
25.13446657262145
 72
     2
 10
128.1810595146962
 20
23.41483156722528
 40
2.121091136351917
 50
234.1674444878511
 51
314.4407074583995
 73
     0
 97
        0
 75
     0
 76
     1
 98
        1
 10
0.0
 20
0.0
  0
LINE
  5
8B
330
1F
100
AcDbEntity
  8
0
  6
Continuous
 62
     7
370
     0
100
AcDbLine
 10
111.906251679
 20
11.8496795008
 30
0.0
 11
112.5729183457
 21
11.8496795008
 31
0.0
  0
LINE
  5
8C
330
1F
100
AcDbEntity
  8
0
  6
Continuous
 62
     7
370
     0
100
AcDbLine
 10
109.906251679
 20
11.8496795008
 30
0.0
 11
111.5729183457
 21
11.8496795008
 31
0.0
  0
LINE
  5
8D
330
1F
100
AcDbEntity
  8
0
  6
Continuous
 62
     7
370
     0
100
AcDbLine
 10
120.906251679
 20
10.1830128342
 30
0.0
 11
120.906251679
 21
13.5163461675
 31
0.0
  0
LINE
  5
8E
330
1F
100
AcDbEntity
  8
0
  6
Continuous
 62
     7
370
     0
100
AcDbLine
 10
116.2395850123
 20
10.8496795008
 30
0.0
 11
120.906251679
 21
10.1830128342
 31
0.0
  0
LINE
  5
8F
330
1F
100
AcDbEntity
  8
0
  6
Continuous
 62
     7
370
     0
100
AcDbLine
 10
112.2395850123
 20
11.1830128342
 30
0.0
 11
112.2395850123
 21
9.5163461675
 31
0.0
  0
LINE
  5
90
330
1F
100
AcDbEntity
  8
0
  6
Continuous
 62
     7
370
     0
100
AcDbLine
 10
120.906251679
 20
13.5163461675
 30
0.0
 11
116.2395850123
 21
12.8496795008
 31
0.0
  0
LINE
  5
91
330
1F
100
AcDbEntity
  8
0
  6
Continuous
 62
     7
370
     0
100
AcDbLine
 10
115.5729183457
 20
11.8496795008
 30
0.0
 11
121.5729183457
 21
11.8496795008
 31
0.0
  0
LINE
  5
92
330
1F
100
AcDbEntity
  8
0
  6
Continuous
 62
     7
370
     0
100
AcDbLine
 10
112.2395850123
 20
12.1830128342
 30
0.0
 11
112.2395850123
 21
11.5163461675
 31
0.0
  0
LINE
  5
93
330
1F
100
AcDbEntity
  8
0
  6
Continuous
 62
     7
370
     0
100
AcDbLine
 10
112.906251679
 20
11.8496795008
 30
0.0
 11
114.5729183457
 21
11.8496795008
 31
0.0
  0
LINE
  5
94
330
1F
100
AcDbEntity
  8
0
  6
Continuous
 62
     7
370
     0
100
AcDbLine
 10
112.2395850123
 20
14.1830128342
 30
0.0
 11
112.2395850123
 21
12.5163461675
 31
0.0
  0
LINE
  5
95
330
1F
100
AcDbEntity
  8
0
  6
Continuous
 62
     7
370
     0
100
AcDbLine
 10
116.2395850123
 20
12.8496795008
 30
0.0
 11
116.2395850123
 21
10.8496795008
 31
0.0
  0
LINE
  5
96
330
1F
100
AcDbEntity
  8
工作區域參考線
 62
     1
370
    30
100
AcDbLine
 10
126.9393336766
 20
25.1344665726
 30
0.0
 11
126.2577284251
 21
25.7289935907
 31
0.0
  0
LINE
  5
97
330
1F
100
AcDbEntity
  8
工作區域參考線
 62
     1
370
    30
100
AcDbLine
 10
126.2577284251
 20
25.7289935907
 30
0.0
 11
128.4147853907
 21
27.8136070884
 31
0.0
  0
LINE
  5
98
330
1F
100
AcDbEntity
  8
工作區域參考線
 62
     1
370
    30
100
AcDbLine
 10
128.4147853907
 20
27.8136070884
 30
0.0
 11
129.0351230641
 21
27.2601456085
 31
0.0
  0
LINE
  5
99
330
1F
100
AcDbEntity
  8
工作區域參考線
 62
     1
370
    30
100
AcDbLine
 10
129.0351230641
 20
27.2601456085
 30
0.0
 11
128.6189555295
 21
26.8541066547
 31
0.0
  0
LINE
  5
9A
330
1F
100
AcDbEntity
  8
工作區域參考線
 62
     1
370
    30
100
AcDbLine
 10
128.6189555295
 20
26.8541066547
 30
0.0
 11
131.3701261017
 21
24.4613224756
 31
0.0
  0
LINE
  5
9B
330
1F
100
AcDbEntity
  8
工作區域參考線
 62
     1
370
    30
100
AcDbLine
 10
129.7458876039
 20
22.7161060046
 30
0.0
 11
130.4028535325
 21
22.1436413781
 31
0.0
  0
LINE
  5
9C
330
1F
100
AcDbEntity
  8
工作區域參考線
 62
     1
370
    30
100
AcDbLine
 10
130.4028535325
 20
22.1436413781
 30
0.0
 11
131.2306410757
 21
22.946596673
 31
0.0
  0
LINE
  5
9D
330
1F
100
AcDbEntity
  8
0
  6
Continuous
 62
     7
370
     0
100
AcDbLine
 10
123.7938643473
 20
8.7434976053
 30
0.0
 11
190.460531014
 21
8.7434976053
 31
0.0
  0
LINE
  5
9E
330
1F
100
AcDbEntity
  8
0
  6
Continuous
 62
     7
370
     0
100
AcDbLine
 10
123.7938643473
 20
12.0768309386
 30
0.0
 11
157.1271976806
 21
12.0768309386
 31
0.0
  0
LINE
  5
9F
330
1F
100
AcDbEntity
  8
0
  6
Continuous
 62
     7
370
     0
100
AcDbLine
 10
123.7938643473
 20
15.4101642719
 30
0.0
 11
157.1271976806
 21
15.4101642719
 31
0.0
  0
LINE
  5
A0
330
1F
100
AcDbEntity
  8
0
  6
Continuous
 62
     7
370
     0
100
AcDbLine
 10
123.7938643473
 20
18.7434976053
 30
0.0
 11
190.460531014
 21
18.7434976053
 31
0.0
  0
LINE
  5
A1
330
1F
100
AcDbEntity
  8
0
  6
Continuous
 62
     7
370
     0
100
AcDbLine
 10
157.1271976806
 20
22.0768309386
 30
0.0
 11
190.460531014
 21
22.0768309386
 31
0.0
  0
LINE
  5
A2
330
1F
100
AcDbEntity
  8
0
  6
Continuous
 62
     7
370
    15
100
AcDbLine
 10
157.1271976806
 20
12.0768309386
 30
0.0
 11
190.460531014
 21
12.0768309386
 31
0.0
  0
LINE
  5
A3
330
1F
100
AcDbEntity
  8
0
  6
Continuous
 62
     7
370
     0
100
AcDbLine
 10
123.7938643473
 20
28.7434976053
 30
0.0
 11
190.460531014
 21
28.7434976053
 31
0.0
  0
LINE
  5
A4
330
1F
100
AcDbEntity
  8
0
  6
Continuous
 62
     7
370
     0
100
AcDbLine
 10
167.49147845
 20
5.4101642719
 30
0.0
 11
167.49147845
 21
12.0768309386
 31
0.0
  0
LINE
  5
A5
330
1F
100
AcDbEntity
  8
0
  6
Continuous
 62
     7
370
     0
100
AcDbLine
 10
157.1271976806
 20
5.4101642719
 30
0.0
 11
157.1271976806
 21
28.7434976053
 31
0.0
  0
LINE
  5
A6
330
1F
100
AcDbEntity
  8
0
  6
Continuous
 62
     7
370
     0
100
AcDbLine
 10
167.49147845
 20
18.7434976053
 30
0.0
 11
167.49147845
 21
22.0768309386
 31
0.0
  0
LINE
  5
A7
330
1F
100
AcDbEntity
  8
0
  6
Continuous
 62
     7
370
     0
100
AcDbLine
 10
142.9442724235
 20
5.4101642719
 30
0.0
 11
142.9442724235
 21
18.7434976053
 31
0.0
  0
LINE
  5
A8
330
1F
100
AcDbEntity
  8
0
  6
Continuous
 62
     7
370
     0
100
AcDbLine
 10
133.1857258337
 20
5.4101642719
 30
0.0
 11
133.1857258337
 21
18.7434976053
 31
0.0
  0
LINE
  5
A9
330
1F
100
AcDbEntity
  8
0
  6
Continuous
 62
     7
370
     0
100
AcDbLine
 10
123.7938643473
 20
5.4101642719
 30
0.0
 11
123.7938643473
 21
28.7434976053
 31
0.0
  0
LINE
  5
AA
330
1F
100
AcDbEntity
  8
0
  6
Continuous
 62
     7
370
    15
100
AcDbLine
 10
28.880531014
 20
134.2480183834
 30
0.0
 11
28.880531014
 21
135.2480183834
 31
0.0
  0
LINE
  5
AB
330
1F
100
AcDbEntity
  8
0
  6
Continuous
 62
     7
370
    15
100
AcDbLine
 10
51.9671976806
 20
134.2480183834
 30
0.0
 11
51.9671976806
 21
135.2480183834
 31
0.0
  0
LINE
  5
AC
330
1F
100
AcDbEntity
  8
0
  6
Continuous
 62
     7
370
    15
100
AcDbLine
 10
75.0538643473
 20
134.2480183834
 30
0.0
 11
75.0538643473
 21
135.2480183834
 31
0.0
  0
LINE
  5
AD
330
1F
100
AcDbEntity
  8
0
  6
Continuous
 62
     7
370
    15
100
AcDbLine
 10
98.140531014
 20
134.2480183834
 30
0.0
 11
98.140531014
 21
135.2480183834
 31
0.0
  0
LINE
  5
AE
330
1F
100
AcDbEntity
  8
0
  6
Continuous
 62
     7
370
    15
100
AcDbLine
 10
121.2271976806
 20
134.2480183834
 30
0.0
 11
121.2271976806
 21
135.2480183834
 31
0.0
  0
LINE
  5
AF
330
1F
100
AcDbEntity
  8
0
  6
Continuous
 62
     7
370
    15
100
AcDbLine
 10
144.3138643473
 20
134.2480183834
 30
0.0
 11
144.3138643473
 21
135.2480183834
 31
0.0
  0
LINE
  5
B0
330
1F
100
AcDbEntity
  8
0
  6
Continuous
 62
     7
370
    15
100
AcDbLine
 10
167.400531014
 20
134.2480183834
 30
0.0
 11
167.400531014
 21
135.2480183834
 31
0.0
  0
LINE
  5
B1
330
1F
100
AcDbEntity
  8
0
  6
Continuous
 62
     7
370
    15
100
AcDbLine
 10
28.8771976806
 20
5.4101642719
 30
0.0
 11
28.8771976806
 21
4.4101642719
 31
0.0
  0
LINE
  5
B2
330
1F
100
AcDbEntity
  8
0
  6
Continuous
 62
     7
370
    15
100
AcDbLine
 10
51.960531014
 20
5.4101642719
 30
0.0
 11
51.960531014
 21
4.4101642719
 31
0.0
  0
LINE
  5
B3
330
1F
100
AcDbEntity
  8
0
  6
Continuous
 62
     7
370
    15
100
AcDbLine
 10
75.0438643473
 20
5.4101642719
 30
0.0
 11
75.0438643473
 21
4.4101642719
 31
0.0
  0
LINE
  5
B4
330
1F
100
AcDbEntity
  8
0
  6
Continuous
 62
     7
370
    15
100
AcDbLine
 10
98.1271976806
 20
5.4101642719
 30
0.0
 11
98.1271976806
 21
4.4101642719
 31
0.0
  0
LINE
  5
B5
330
1F
100
AcDbEntity
  8
0
  6
Continuous
 62
     7
370
    15
100
AcDbLine
 10
121.210531014
 20
5.4101642719
 30
0.0
 11
121.210531014
 21
4.4101642719
 31
0.0
  0
LINE
  5
B6
330
1F
100
AcDbEntity
  8
0
  6
Continuous
 62
     7
370
    15
100
AcDbLine
 10
144.2938643473
 20
5.4101642719
 30
0.0
 11
144.2938643473
 21
4.4101642719
 31
0.0
  0
LINE
  5
B7
330
1F
100
AcDbEntity
  8
0
  6
Continuous
 62
     7
370
     0
100
AcDbLine
 10
190.460531014
 20
134.2480183834
 30
0.0
 11
5.7938643473
 21
134.2480183834
 31
0.0
  0
LINE
  5
B8
330
1F
100
AcDbEntity
  8
0
  6
Continuous
 62
     7
370
     0
100
AcDbLine
 10
190.460531014
 20
5.4101642719
 30
0.0
 11
190.460531014
 21
134.2480183834
 31
0.0
  0
LINE
  5
B9
330
1F
100
AcDbEntity
  8
0
  6
Continuous
 62
     7
370
     0
100
AcDbLine
 10
5.7938643473
 20
134.2480183834
 30
0.0
 11
5.7938643473
 21
5.4101642719
 31
0.0
  0
LINE
  5
BA
330
1F
100
AcDbEntity
  8
0
  6
Continuous
 62
     7
370
     0
100
AcDbLine
 10
5.7938643473
 20
5.4101642719
 30
0.0
 11
190.460531014
 21
5.4101642719
 31
0.0
  0
LINE
  5
BB
330
1F
100
AcDbEntity
  8
0
  6
Continuous
 62
     7
370
    15
100
AcDbLine
 10
167.3771976806
 20
5.4101642719
 30
0.0
 11
167.3771976806
 21
4.4101642719
 31
0.0
  0
LINE
  5
BC
330
1F
100
AcDbEntity
  8
0
  6
Continuous
 62
     7
370
    15
100
AcDbLine
 10
5.7938643473
 20
26.8834976053
 30
0.0
 11
4.7938643473
 21
26.8834976053
 31
0.0
  0
LINE
  5
BD
330
1F
100
AcDbEntity
  8
0
  6
Continuous
 62
     7
370
    15
100
AcDbLine
 10
5.7938643473
 20
48.3568309386
 30
0.0
 11
4.7938643473
 21
48.3568309386
 31
0.0
  0
LINE
  5
BE
330
1F
100
AcDbEntity
  8
0
  6
Continuous
 62
     7
370
    15
100
AcDbLine
 10
5.7938643473
 20
69.8301642719
 30
0.0
 11
4.7938643473
 21
69.8301642719
 31
0.0
  0
LINE
  5
BF
330
1F
100
AcDbEntity
  8
0
  6
Continuous
 62
     7
370
    15
100
AcDbLine
 10
5.7938643473
 20
91.3034976053
 30
0.0
 11
4.7938643473
 21
91.3034976053
 31
0.0
  0
LINE
  5
C0
330
1F
100
AcDbEntity
  8
0
  6
Continuous
 62
     7
370
    15
100
AcDbLine
 10
5.7938643473
 20
112.7768309386
 30
0.0
 11
4.7938643473
 21
112.7768309386
 31
0.0
  0
LINE
  5
C1
330
1F
100
AcDbEntity
  8
0
  6
Continuous
 62
     7
370
    15
100
AcDbLine
 10
190.460531014
 20
26.8834976053
 30
0.0
 11
191.460531014
 21
26.8834976053
 31
0.0
  0
LINE
  5
C2
330
1F
100
AcDbEntity
  8
0
  6
Continuous
 62
     7
370
    15
100
AcDbLine
 10
190.460531014
 20
48.3568309386
 30
0.0
 11
191.460531014
 21
48.3568309386
 31
0.0
  0
LINE
  5
C3
330
1F
100
AcDbEntity
  8
0
  6
Continuous
 62
     7
370
    15
100
AcDbLine
 10
190.460531014
 20
69.8301642719
 30
0.0
 11
191.460531014
 21
69.8301642719
 31
0.0
  0
LINE
  5
C4
330
1F
100
AcDbEntity
  8
0
  6
Continuous
 62
     7
370
    15
100
AcDbLine
 10
190.460531014
 20
91.3034976053
 30
0.0
 11
191.460531014
 21
91.3034976053
 31
0.0
  0
LINE
  5
C5
330
1F
100
AcDbEntity
  8
0
  6
Continuous
 62
     7
370
    15
100
AcDbLine
 10
190.460531014
 20
112.7768309386
 30
0.0
 11
191.460531014
 21
112.7768309386
 31
0.0
  0
CIRCLE
  5
C6
330
1F
100
AcDbEntity
  8
0
  6
Continuous
 62
     7
370
     0
100
AcDbCircle
 10
112.2395850123
 20
11.8496795008
 30
0.0
 40
1.0
  0
CIRCLE
  5
C7
330
1F
100
AcDbEntity
  8
0
  6
Continuous
 62
     7
370
     0
100
AcDbCircle
 10
112.2395850123
 20
11.8496795008
 30
0.0
 40
1.666666666666643
  0
ARC
  5
C8
330
1F
100
AcDbEntity
  8
工作區域參考線
 62
     1
370
    30
100
AcDbCircle
 10
130.635046192
 20
23.7652278275
 30
0.0
 40
1.012368624945523
100
AcDbArc
 50
306.0377529468
 51
43.4396461534
  0
ARC
  5
C9
330
1F
100
AcDbEntity
  8
工作區域參考線
 62
     1
370
    30
100
AcDbCircle
 10
128.1810595147
 20
23.4148315672
 30
0.0
 40
2.121091136351941
100
AcDbArc
 50
45.5592925416
 51
125.8325555121
  0
ARC
  5
CA
330
1F
100
AcDbEntity
  8
工作區域參考線
 62
     1
370
    30
100
AcDbCircle
 10
128.3928303752
 20
23.7753794375
 30
0.0
 40
1.718378325564182
100
AcDbArc
 50
321.9435288427
 51
42.1815007004
  0
INSERT
  5
CB
330
1F
100
AcDbEntity
  8
0
  6
Continuous
 62
     7
100
AcDbBlockReference
  2
圖塊6
 10
124.6427282431
 20
19.6293685591
 30
0.0
  0
MTEXT
  5
CD
330
1F
100
AcDbEntity
  8
0
  6
Continuous
 62
     7
370
     0
100
AcDbMText
 10
110.3617900536
 20
8.8138960246
 30
0.0
 40
1.7638888889
 41
0.0
 71
     1
 72
     1
  1
UNIT:m/m
  7
SLDTEXTSTYLE0
 73
     1
 44
1.0
  0
INSERT
  5
D4
330
1F
100
AcDbEntity
  8
0
  6
Continuous
 62
     7
370
     0
100
AcDbBlockReference
  2
SW_NOTE_0
 10
8.1543384036
 20
129.2602869501
 30
0.0
  0
MTEXT
  5
D5
330
1F
100
AcDbEntity
  8
0
  6
Continuous
 62
     7
370
     0
100
AcDbMText
 10
132.4834595957
 20
26.9604516092
 30
0.0
 40
1.5875
 41
0.0
 71
     1
 72
     1
  1
Unice E-O Services Inc.
  7
SLDTEXTSTYLE0
 73
     1
 44
1.0
  0
MTEXT
  5
D6
330
1F
100
AcDbEntity
  8
0
  6
Continuous
 62
     7
370
     0
100
AcDbMText
 10
145.03936921
 20
14.3911432341
 30
0.0
 40
1.2347222222
 41
0.0
 71
     1
 72
     1
  1
2018/11/8
  7
SLDTEXTSTYLE0
 73
     1
 44
1.0
  0
MTEXT
  5
D7
330
1F
100
AcDbEntity
  8
0
  6
Continuous
 62
     7
370
     0
100
AcDbMText
 10
168.4059321671
 20
11.2474518267
 30
0.0
 40
1.6666666667
 41
0.0
 71
     1
 72
     1
  1
1.5:1
  7
SLDTEXTSTYLE0
 73
     1
 44
1.0
  0
MTEXT
  5
D8
330
1F
100
AcDbEntity
  8
0
  6
Continuous
 62
     7
370
     0
100
AcDbMText
 10
168.205039999
 20
21.4346130292
 30
0.0
 40
1.6666666667
 41
0.0
 71
     1
 72
     1
  1
04FOM-2
  7
SLDTEXTSTYLE0
 73
     1
 44
1.0
  0
MTEXT
  5
D9
330
1F
100
AcDbEntity
  8
0
  6
Continuous
 62
     7
370
     0
100
AcDbMText
 10
168.205039999
 20
25.4054745252
 30
0.0
 40
1.6666666667
 41
0.0
 71
     1
 72
     1
  1
04FOM-2
  7
SLDTEXTSTYLE0
 73
     1
 44
1.0
  0
MTEXT
  5
DA
330
1F
100
AcDbEntity
  8
0
  6
Continuous
 62
     7
370
     0
100
AcDbMText
 10
157.5947911191
 20
11.0043197152
 30
0.0
 40
1.4111111111
 41
0.0
 71
     1
 72
     1
  1
SCALE:
  7
SLDTEXTSTYLE0
 73
     1
 44
1.0
  0
MTEXT
  5
DB
330
1F
100
AcDbEntity
  8
0
  6
Continuous
 62
     7
370
     0
100
AcDbMText
 10
124.222405786
 20
14.3911432341
 30
0.0
 40
1.2347222222
 41
0.0
 71
     1
 72
     1
  1
DRAWN
  7
SLDTEXTSTYLE0
 73
     1
 44
1.0
  0
MTEXT
  5
DC
330
1F
100
AcDbEntity
  8
0
  6
Continuous
 62
     7
370
     0
100
AcDbMText
 10
135.4818911958
 20
17.7888055387
 30
0.0
 40
1.2347222222
 41
0.0
 71
     1
 72
     1
  1
NAME
  7
SLDTEXTSTYLE0
 73
     1
 44
1.0
  0
MTEXT
  5
DD
330
1F
100
AcDbEntity
  8
0
  6
Continuous
 62
     7
370
     0
100
AcDbMText
 10
147.2473437172
 20
17.7888055387
 30
0.0
 40
1.2347222222
 41
0.0
 71
     1
 72
     1
  1
DATE
  7
SLDTEXTSTYLE0
 73
     1
 44
1.0
  0
MTEXT
  5
DE
330
1F
100
AcDbEntity
  8
0
  6
Continuous
 62
     7
370
     0
100
AcDbMText
 10
157.5170877763
 20
21.1914809177
 30
0.0
 40
1.4111111111
 41
0.0
 71
     1
 72
     1
  1
DWG. NO.
  7
SLDTEXTSTYLE0
 73
     1
 44
1.0
  0
MTEXT
  5
DF
330
1F
100
AcDbEntity
  8
0
  6
Continuous
 62
     7
370
     0
100
AcDbMText
 10
157.5753271392
 20
27.9227105495
 30
0.0
 40
1.4111111111
 41
0.0
 71
     1
 72
     1
  1
TITLE:
  7
SLDTEXTSTYLE0
 73
     1
 44
1.0
  0
MTEXT
  5
E0
330
1F
100
AcDbEntity
  8
0
  6
Continuous
 62
     7
370
     0
100
AcDbMText
 10
135.3542806535
 20
10.8269193149
 30
0.0
 40
1.2347222222
 41
0.0
 71
     1
 72
     1
  1
Johnny
  7
SLDTEXTSTYLE0
 73
     1
 44
1.0
  0
MTEXT
  5
E1
330
1F
100
AcDbEntity
  8
0
  6
Continuous
 62
     7
370
     0
100
AcDbMText
 10
145.03936921
 20
10.8269193149
 30
0.0
 40
1.2347222222
 41
0.0
 71
     1
 72
     1
  1
2018/11/8
  7
SLDTEXTSTYLE0
 73
     1
 44
1.0
  0
MTEXT
  5
E2
330
1F
100
AcDbEntity
  8
0
  6
Continuous
 62
     7
370
     0
100
AcDbMText
 10
124.222405786
 20
10.8269193149
 30
0.0
 40
1.2347222222
 41
0.0
 71
     1
 72
     1
  1
ENG APPR.
  7
SLDTEXTSTYLE0
 73
     1
 44
1.0
  0
MTEXT
  5
E3
330
1F
100
AcDbEntity
  8
0
  6
Continuous
 62
     7
370
     0
100
AcDbMText
 10
157.5947911191
 20
7.7902259525
 30
0.0
 40
1.4111111111
 41
0.0
 71
     1
 72
     1
  1
REV
  7
SLDTEXTSTYLE0
 73
     1
 44
1.0
  0
MTEXT
  5
E4
330
1F
100
AcDbEntity
  8
0
  6
Continuous
 62
     7
370
     0
100
AcDbMText
 10
157.5753271392
 20
17.966205939
 30
0.0
 40
1.4111111111
 41
0.0
 71
     1
 72
     1
  1
MATERIAL:
  7
SLDTEXTSTYLE0
 73
     1
 44
1.0
  0
MTEXT
  5
E5
330
1F
100
AcDbEntity
  8
0
  6
Continuous
 62
     7
370
     0
100
AcDbMText
 10
168.4059321671
 20
14.8116757458
 30
0.0
 40
1.6666666667
 41
0.0
 71
     1
 72
     1
  1
N/A
  7
SLDTEXTSTYLE0
 73
     1
 44
1.0
  0
MTEXT
  5
E6
330
1F
100
AcDbEntity
  8
0
  6
Continuous
 62
     7
370
     0
100
AcDbMText
 10
17.7353287689
 20
136.302234438
 30
0.0
 40
1.4111111111
 41
0.0
 71
     1
 72
     1
  1
1
  7
SLDTEXTSTYLE0
 73
     1
 44
1.0
  0
MTEXT
  5
E7
330
1F
100
AcDbEntity
  8
0
  6
Continuous
 62
     7
370
     0
100
AcDbMText
 10
40.4780663816
 20
136.302234438
 30
0.0
 40
1.4111111111
 41
0.0
 71
     1
 72
     1
  1
2
  7
SLDTEXTSTYLE0
 73
     1
 44
1.0
  0
MTEXT
  5
E8
330
1F
100
AcDbEntity
  8
0
  6
Continuous
 62
     7
370
     0
100
AcDbMText
 10
63.2673295937
 20
136.302234438
 30
0.0
 40
1.4111111111
 41
0.0
 71
     1
 72
     1
  1
3
  7
SLDTEXTSTYLE0
 73
     1
 44
1.0
  0
MTEXT
  5
E9
330
1F
100
AcDbEntity
  8
0
  6
Continuous
 62
     7
370
     0
100
AcDbMText
 10
86.1688908567
 20
136.1995056243
 30
0.0
 40
1.4111111111
 41
0.0
 71
     1
 72
     1
  1
4
  7
SLDTEXTSTYLE0
 73
     1
 44
1.0
  0
MTEXT
  5
EA
330
1F
100
AcDbEntity
  8
0
  6
Continuous
 62
     7
370
     0
100
AcDbMText
 10
109.1348823093
 20
136.302234438
 30
0.0
 40
1.4111111111
 41
0.0
 71
     1
 72
     1
  1
5
  7
SLDTEXTSTYLE0
 73
     1
 44
1.0
  0
MTEXT
  5
EB
330
1F
100
AcDbEntity
  8
0
  6
Continuous
 62
     7
370
     0
100
AcDbMText
 10
132.4254780277
 20
136.302234438
 30
0.0
 40
1.4111111111
 41
0.0
 71
     1
 72
     1
  1
6
  7
SLDTEXTSTYLE0
 73
     1
 44
1.0
  0
MTEXT
  5
EC
330
1F
100
AcDbEntity
  8
0
  6
Continuous
 62
     7
370
     0
100
AcDbMText
 10
156.2420438271
 20
136.302234438
 30
0.0
 40
1.4111111111
 41
0.0
 71
     1
 72
     1
  1
7
  7
SLDTEXTSTYLE0
 73
     1
 44
1.0
  0
MTEXT
  5
ED
330
1F
100
AcDbEntity
  8
0
  6
Continuous
 62
     7
370
     0
100
AcDbMText
 10
177.5191880329
 20
136.302234438
 30
0.0
 40
1.4111111111
 41
0.0
 71
     1
 72
     1
  1
8
  7
SLDTEXTSTYLE0
 73
     1
 44
1.0
  0
MTEXT
  5
EE
330
1F
100
AcDbEntity
  8
0
  6
Continuous
 62
     7
370
     0
100
AcDbMText
 10
3.5712157703
 20
123.8742015253
 30
0.0
 40
1.4111111111
 41
0.0
 71
     1
 72
     1
  1
A
  7
SLDTEXTSTYLE0
 73
     1
 44
1.0
  0
MTEXT
  5
EF
330
1F
100
AcDbEntity
  8
0
  6
Continuous
 62
     7
370
     0
100
AcDbMText
 10
3.7273621221
 20
102.8662032159
 30
0.0
 40
1.4111111111
 41
0.0
 71
     1
 72
     1
  1
B
  7
SLDTEXTSTYLE0
 73
     1
 44
1.0
  0
MTEXT
  5
F0
330
1F
100
AcDbEntity
  8
0
  6
Continuous
 62
     7
370
     0
100
AcDbMText
 10
3.7273621221
 20
80.8495676153
 30
0.0
 40
1.4111111111
 41
0.0
 71
     1
 72
     1
  1
C
  7
SLDTEXTSTYLE0
 73
     1
 44
1.0
  0
MTEXT
  5
F1
330
1F
100
AcDbEntity
  8
0
  6
Continuous
 62
     7
370
     0
100
AcDbMText
 10
3.7273621221
 20
59.1635480147
 30
0.0
 40
1.4111111111
 41
0.0
 71
     1
 72
     1
  1
D
  7
SLDTEXTSTYLE0
 73
     1
 44
1.0
  0
MTEXT
  5
F2
330
1F
100
AcDbEntity
  8
0
  6
Continuous
 62
     7
370
     0
100
AcDbMText
 10
3.7273621221
 20
38.3705899465
 30
0.0
 40
1.4111111111
 41
0.0
 71
     1
 72
     1
  1
E
  7
SLDTEXTSTYLE0
 73
     1
 44
1.0
  0
MTEXT
  5
F3
330
1F
100
AcDbEntity
  8
0
  6
Continuous
 62
     7
370
     0
100
AcDbMText
 10
3.7273621221
 20
17.0462808168
 30
0.0
 40
1.4111111111
 41
0.0
 71
     1
 72
     1
  1
F
  7
SLDTEXTSTYLE0
 73
     1
 44
1.0
  0
MTEXT
  5
F4
330
1F
100
AcDbEntity
  8
0
  6
Continuous
 62
     7
370
     0
100
AcDbMText
 10
177.4572411309
 20
4.4157482642
 30
0.0
 40
1.4111111111
 41
0.0
 71
     1
 72
     1
  1
8
  7
SLDTEXTSTYLE0
 73
     1
 44
1.0
  0
MTEXT
  5
F5
330
1F
100
AcDbEntity
  8
0
  6
Continuous
 62
     7
370
     0
100
AcDbMText
 10
156.1800969251
 20
4.4157482642
 30
0.0
 40
1.4111111111
 41
0.0
 71
     1
 72
     1
  1
7
  7
SLDTEXTSTYLE0
 73
     1
 44
1.0
  0
MTEXT
  5
F6
330
1F
100
AcDbEntity
  8
0
  6
Continuous
 62
     7
370
     0
100
AcDbMText
 10
132.3635311257
 20
4.4157482642
 30
0.0
 40
1.4111111111
 41
0.0
 71
     1
 72
     1
  1
6
  7
SLDTEXTSTYLE0
 73
     1
 44
1.0
  0
MTEXT
  5
F7
330
1F
100
AcDbEntity
  8
0
  6
Continuous
 62
     7
370
     0
100
AcDbMText
 10
109.0729354073
 20
4.4157482642
 30
0.0
 40
1.4111111111
 41
0.0
 71
     1
 72
     1
  1
5
  7
SLDTEXTSTYLE0
 73
     1
 44
1.0
  0
MTEXT
  5
F8
330
1F
100
AcDbEntity
  8
0
  6
Continuous
 62
     7
370
     0
100
AcDbMText
 10
86.1069439547
 20
4.3130194505
 30
0.0
 40
1.4111111111
 41
0.0
 71
     1
 72
     1
  1
4
  7
SLDTEXTSTYLE0
 73
     1
 44
1.0
  0
MTEXT
  5
F9
330
1F
100
AcDbEntity
  8
0
  6
Continuous
 62
     7
370
     0
100
AcDbMText
 10
63.2053826917
 20
4.4157482642
 30
0.0
 40
1.4111111111
 41
0.0
 71
     1
 72
     1
  1
3
  7
SLDTEXTSTYLE0
 73
     1
 44
1.0
  0
MTEXT
  5
FA
330
1F
100
AcDbEntity
  8
0
  6
Continuous
 62
     7
370
     0
100
AcDbMText
 10
40.4161194796
 20
4.4157482642
 30
0.0
 40
1.4111111111
 41
0.0
 71
     1
 72
     1
  1
2
  7
SLDTEXTSTYLE0
 73
     1
 44
1.0
  0
MTEXT
  5
FB
330
1F
100
AcDbEntity
  8
0
  6
Continuous
 62
     7
370
     0
100
AcDbMText
 10
17.6733818669
 20
4.4157482642
 30
0.0
 40
1.4111111111
 41
0.0
 71
     1
 72
     1
  1
1
  7
SLDTEXTSTYLE0
 73
     1
 44
1.0
  0
MTEXT
  5
FC
330
1F
100
AcDbEntity
  8
0
  6
Continuous
 62
     7
370
     0
100
AcDbMText
 10
191.401589743
 20
124.4283272728
 30
0.0
 40
1.4111111111
 41
0.0
 71
     1
 72
     1
  1
A
  7
SLDTEXTSTYLE0
 73
     1
 44
1.0
  0
MTEXT
  5
FD
330
1F
100
AcDbEntity
  8
0
  6
Continuous
 62
     7
370
     0
100
AcDbMText
 10
191.5577360947
 20
103.4203289634
 30
0.0
 40
1.4111111111
 41
0.0
 71
     1
 72
     1
  1
B
  7
SLDTEXTSTYLE0
 73
     1
 44
1.0
  0
MTEXT
  5
FE
330
1F
100
AcDbEntity
  8
0
  6
Continuous
 62
     7
370
     0
100
AcDbMText
 10
191.5577360947
 20
81.4036933628
 30
0.0
 40
1.4111111111
 41
0.0
 71
     1
 72
     1
  1
C
  7
SLDTEXTSTYLE0
 73
     1
 44
1.0
  0
MTEXT
  5
FF
330
1F
100
AcDbEntity
  8
0
  6
Continuous
 62
     7
370
     0
100
AcDbMText
 10
191.5577360947
 20
59.7176737622
 30
0.0
 40
1.4111111111
 41
0.0
 71
     1
 72
     1
  1
D
  7
SLDTEXTSTYLE0
 73
     1
 44
1.0
  0
MTEXT
  5
100
330
1F
100
AcDbEntity
  8
0
  6
Continuous
 62
     7
370
     0
100
AcDbMText
 10
191.5577360947
 20
38.924715694
 30
0.0
 40
1.4111111111
 41
0.0
 71
     1
 72
     1
  1
E
  7
SLDTEXTSTYLE0
 73
     1
 44
1.0
  0
MTEXT
  5
101
330
1F
100
AcDbEntity
  8
0
  6
Continuous
 62
     7
370
     0
100
AcDbMText
 10
191.5577360947
 20
17.6004065643
 30
0.0
 40
1.4111111111
 41
0.0
 71
     1
 72
     1
  1
F
  7
SLDTEXTSTYLE0
 73
     1
 44
1.0
  0
MTEXT
  5
102
330
1F
100
AcDbEntity
  8
0
  6
Continuous
 62
     7
370
     0
100
AcDbMText
 10
135.4368752535
 20
14.3911432341
 30
0.0
 40
1.2347222222
 41
0.0
 71
     1
 72
     1
  1
Sky
  7
SLDTEXTSTYLE0
 73
     1
 44
1.0
  0
MTEXT
  5
104
330
1F
100
AcDbEntity
  8
0
  6
Continuous
 62
     7
370
     0
100
AcDbMText
 10
168.565482643
 20
8.1479735545
 30
0.0
 40
1.5875
 41
0.0
 71
     1
 72
     1
  1
0
  7
SLDTEXTSTYLE1
 73
     1
 44
1.0
  0
INSERT
  5
10A
330
1F
100
AcDbEntity
  8
SLD-0
 62
     7
100
AcDbBlockReference
  2
SW_NOTE_1
 10
132.4834595957
 20
22.3653163475
 30
0.0
  0
ARC
  5
10B
330
1F
100
AcDbEntity
  8
0
  6
Continuous
 62
     7
370
    30
100
AcDbCircle
 10
39.075635844
 20
41.6907060465
 30
0.0
 40
1.500000000000007
100
AcDbArc
 50
10.4445813023
 51
169.5554186977
  0
CIRCLE
  5
10C
330
1F
100
AcDbEntity
  8
0
  6
Continuous
 62
     7
370
    30
100
AcDbCircle
 10
39.075635844
 20
51.9626326437
 30
0.0
 40
1.727199999999996
  0
ARC
  5
10D
330
1F
100
AcDbEntity
  8
0
  6
Continuous
 62
     7
370
    30
100
AcDbCircle
 10
39.075635844
 20
51.2626326437
 30
0.0
 40
12.7
100
AcDbArc
 50
0.0
 51
90.0
  0
ARC
  5
10E
330
1F
100
AcDbEntity
  8
0
  6
Continuous
 62
     7
370
    30
100
AcDbCircle
 10
39.075635844
 20
51.2626326437
 30
0.0
 40
12.7
100
AcDbArc
 50
90.0
 51
180.0
  0
LINE
  5
10F
330
1F
100
AcDbEntity
  8
0
  6
Continuous
 62
     7
370
    30
100
AcDbLine
 10
26.3756359975
 20
51.262633058
 30
0.0
 11
26.3756359975
 21
41.9626330237
 31
0.0
  0
LINE
  5
110
330
1F
100
AcDbEntity
  8
0
  6
Continuous
 62
     7
370
    30
100
AcDbLine
 10
51.7756356905
 20
41.9626330237
 30
0.0
 11
51.7756356905
 21
51.262633058
 31
0.0
  0
LINE
  5
111
330
1F
100
AcDbEntity
  8
0
  6
Continuous
 62
     7
370
    30
100
AcDbLine
 10
26.3756359975
 20
33.9626326437
 30
0.0
 11
26.3756359975
 21
41.9626330237
 31
0.0
  0
LINE
  5
112
330
1F
100
AcDbEntity
  8
0
  6
Continuous
 62
     7
370
    30
100
AcDbLine
 10
39.075635844
 20
33.9626326437
 30
0.0
 11
39.075635844
 21
41.9626330237
 31
0.0
  0
LINE
  5
113
330
1F
100
AcDbEntity
  8
0
  6
Continuous
 62
     7
370
    30
100
AcDbLine
 10
39.075635844
 20
33.9626326437
 30
0.0
 11
26.3756359975
 21
33.9626326437
 31
0.0
  0
LINE
  5
114
330
1F
100
AcDbEntity
  8
0
  6
Continuous
 62
     7
370
    30
100
AcDbLine
 10
26.3756359975
 20
41.9626330237
 30
0.0
 11
39.075635844
 21
41.9626330237
 31
0.0
  0
LINE
  5
115
330
1F
100
AcDbEntity
  8
0
  6
Continuous
 62
     7
370
    30
100
AcDbLine
 10
51.7756356905
 20
41.9626330237
 30
0.0
 11
51.7756356905
 21
33.9626326437
 31
0.0
  0
LINE
  5
116
330
1F
100
AcDbEntity
  8
0
  6
Continuous
 62
     7
370
    30
100
AcDbLine
 10
51.7756356905
 20
33.9626326437
 30
0.0
 11
39.075635844
 21
33.9626326437
 31
0.0
  0
LINE
  5
117
330
1F
100
AcDbEntity
  8
0
  6
Continuous
 62
     7
370
    30
100
AcDbLine
 10
39.075635844
 20
41.9626330237
 30
0.0
 11
51.7756356905
 21
41.9626330237
 31
0.0
  0
DIMENSION
  5
118
330
1F
100
AcDbEntity
  8
DIM
100
AcDbDimension
  2
_D
 10
21.7089691773
 20
33.9626326437
 30
0.0
 11
21.7089691773
 21
42.9626326437
 31
0.0
 70
   160
  1
<>
 71
     2
 42
-1.0
  3
SLDDIMSTYLE0
100
AcDbAlignedDimension
 13
36.348435844
 23
51.9626326437
 33
0.0
 14
26.375635844
 24
33.9626326437
 34
0.0
 50
90.0
100
AcDbRotatedDimension
  0
DIMENSION
  5
123
330
1F
100
AcDbEntity
  8
DIM
100
AcDbDimension
  2
_D_1
 10
51.775635844
 20
29.2959659771
 30
0.0
 11
39.075635844
 21
29.2959659771
 31
0.0
 70
   160
  1
<>
 71
     2
 42
-1.0
  3
SLDDIMSTYLE0
100
AcDbAlignedDimension
 13
26.375635844
 23
33.9626326437
 33
0.0
 14
51.775635844
 24
33.9626326437
 34
0.0
 50
0.0
100
AcDbRotatedDimension
  0
DIMENSION
  5
12D
330
1F
100
AcDbEntity
  8
DIM
100
AcDbDimension
  2
_D_2
 10
37.8602252031
 20
50.7354420253
 30
0.0
 11
59.0363650009
 21
69.687632631
 31
0.0
 70
   163
  1
1 HOLE,\P8-32
 71
     1
 42
-1.0
  3
SLDDIMSTYLE1
100
AcDbDiametricDimension
 15
40.2910464849
 25
53.1898232622
 35
0.0
 40
0.0
  0
INSERT
  5
142
330
1F
100
AcDbEntity
  8
DIM
100
AcDbBlockReference
  2
SW_CENTERMARKSYMBOL_0
 10
39.075635844
 20
51.9626326437
 30
0.0
  0
ARC
  5
143
330
1F
100
AcDbEntity
  8
0
  6
Continuous
 62
     7
370
    30
100
AcDbCircle
 10
39.075635844
 20
84.1275126437
 30
0.0
 40
1.5
100
AcDbArc
 50
270.0
 51
359.8964611427
  0
ARC
  5
144
330
1F
100
AcDbEntity
  8
0
  6
Continuous
 62
     7
370
    30
100
AcDbCircle
 10
39.075635844
 20
84.1275126437
 30
0.0
 40
1.5
100
AcDbArc
 50
180.1035388573
 51
270.0
  0
LWPOLYLINE
  5
145
330
1F
100
AcDbEntity
  8
0
  6
Continuous
 62
     7
370
    30
100
AcDbPolyline
 90
        3
 70
   128
 43
0.0
 10
33.9898495051
 20
101.9220945234
 10
33.9851747314
 20
101.9351255889
 10
33.8872680488
 20
102.1498457338
  0
LWPOLYLINE
  5
146
330
1F
100
AcDbEntity
  8
0
  6
Continuous
 62
     7
370
    30
100
AcDbPolyline
 90
        3
 70
   128
 43
0.0
 10
31.2642958063
 20
102.1503709997
 10
31.1660966883
 20
101.9351255889
 10
31.1614223803
 20
101.9220945234
  0
LWPOLYLINE
  5
147
330
1F
100
AcDbEntity
  8
0
  6
Continuous
 62
     7
370
    30
100
AcDbPolyline
 90
        3
 70
   128
 43
0.0
 10
46.9898493076
 20
101.9220945234
 10
46.9851749996
 20
101.9351255889
 10
46.8942443888
 20
102.1371275927
  0
LWPOLYLINE
  5
148
330
1F
100
AcDbEntity
  8
0
  6
Continuous
 62
     7
370
    30
100
AcDbPolyline
 90
        3
 70
   128
 43
0.0
 10
44.2578634295
 20
102.1386680002
 10
44.1660969565
 20
101.9351255889
 10
44.1614221829
 20
101.9220945234
  0
LINE
  5
149
330
1F
100
AcDbEntity
  8
0
  6
Continuous
 62
     7
370
    30
100
AcDbLine
 10
26.3756359975
 20
111.1220947276
 30
0.0
 11
26.3756359975
 21
119.1220951076
 31
0.0
  0
LINE
  5
14A
330
1F
100
AcDbEntity
  8
0
  6
Continuous
 62
     7
370
    30
100
AcDbLine
 10
39.075635844
 20
111.1220947276
 30
0.0
 11
39.075635844
 21
119.1220951076
 31
0.0
  0
LINE
  5
14B
330
1F
100
AcDbEntity
  8
0
  6
Continuous
 62
     7
370
    30
100
AcDbLine
 10
39.075635844
 20
111.1220947276
 30
0.0
 11
26.3756359975
 21
111.1220947276
 31
0.0
  0
LINE
  5
14C
330
1F
100
AcDbEntity
  8
0
  6
Continuous
 62
     7
370
    30
100
AcDbLine
 10
26.3756359975
 20
119.1220951076
 30
0.0
 11
39.075635844
 21
119.1220951076
 31
0.0
  0
LINE
  5
14D
330
1F
100
AcDbEntity
  8
0
  6
Continuous
 62
     7
370
    30
100
AcDbLine
 10
51.7756356905
 20
119.1220951076
 30
0.0
 11
51.7756356905
 21
111.1220947276
 31
0.0
  0
LINE
  5
14E
330
1F
100
AcDbEntity
  8
0
  6
Continuous
 62
     7
370
    30
100
AcDbLine
 10
51.7756356905
 20
111.1220947276
 30
0.0
 11
39.075635844
 21
111.1220947276
 31
0.0
  0
LINE
  5
14F
330
1F
100
AcDbEntity
  8
0
  6
Continuous
 62
     7
370
    30
100
AcDbLine
 10
39.075635844
 20
119.1220951076
 30
0.0
 11
51.7756356905
 21
119.1220951076
 31
0.0
  0
LINE
  5
150
330
1F
100
AcDbEntity
  8
0
  6
Continuous
 62
     7
370
    30
100
AcDbLine
 10
30.3756357218
 20
106.1220948393
 30
0.0
 11
31.1614223803
 21
106.1220948393
 31
0.0
  0
LINE
  5
151
330
1F
100
AcDbEntity
  8
0
  6
Continuous
 62
     7
370
    30
100
AcDbLine
 10
30.3756357218
 20
106.1220948393
 30
0.0
 11
30.3756357218
 21
111.1220947276
 31
0.0
  0
LINE
  5
152
330
1F
100
AcDbEntity
  8
0
  6
Continuous
 62
     7
370
    30
100
AcDbLine
 10
47.7756359662
 20
106.1220948393
 30
0.0
 11
47.7756359662
 21
111.1220947276
 31
0.0
  0
LINE
  5
153
330
1F
100
AcDbEntity
  8
0
  6
Continuous
 62
     7
370
    30
100
AcDbLine
 10
46.9898493076
 20
106.1220948393
 30
0.0
 11
47.7756359662
 21
106.1220948393
 31
0.0
  0
ARC
  5
154
330
1F
100
AcDbEntity
  8
0
  6
Continuous
 62
     7
370
    30
100
AcDbCircle
 10
45.575635844
 20
106.1220951076
 30
0.0
 40
1.414213562373092
100
AcDbArc
 50
0.0
 51
180.0
  0
LINE
  5
155
330
1F
100
AcDbEntity
  8
0
  6
Continuous
 62
     7
370
    30
100
AcDbLine
 10
33.9898495051
 20
106.1220948393
 30
0.0
 11
44.1614221829
 21
106.1220948393
 31
0.0
  0
ARC
  5
156
330
1F
100
AcDbEntity
  8
0
  6
Continuous
 62
     7
370
    30
100
AcDbCircle
 10
32.575635844
 20
106.1220951076
 30
0.0
 40
1.414213562373099
100
AcDbArc
 50
0.0
 51
180.0
  0
SPLINE
  5
157
330
1F
100
AcDbEntity
  8
0
  6
Continuous
 62
     7
370
    30
100
AcDbSpline
210
0.0
220
0.0
230
1.0
 70
     8
 71
     3
 72
    26
 73
    22
 74
     0
 42
0.000000001
 43
0.00000001
 40
0.0
 40
0.0
 40
0.0
 40
0.0
 40
0.0624999999999993
 40
0.0624999999999993
 40
0.1249999999999986
 40
0.1249999999999986
 40
0.2499999999999991
 40
0.2499999999999991
 40
0.3749999999999996
 40
0.3749999999999996
 40
0.5
 40
0.5
 40
0.6250000000000004
 40
0.6250000000000004
 40
0.7500000000000008
 40
0.7500000000000008
 40
0.8125000000000007
 40
0.8125000000000007
 40
0.8750000000000004
 40
0.8750000000000004
 40
1.0
 40
1.0
 40
1.0
 40
1.0
 10
46.98984940635858
 20
106.1220951075577
 30
0.0
 10
46.98984940635858
 20
106.0310780867821
 30
0.0
 10
46.98007967910377
 20
105.9418557626044
 30
0.0
 10
46.94193269620565
 20
105.7668107844547
 30
0.0
 10
46.91300711952682
 20
105.6801403125228
 30
0.0
 10
46.80172391850603
 20
105.4364148964774
 30
0.0
 10
46.69260530715449
 20
105.2903519498574
 30
0.0
 10
46.42839906195859
 20
105.0538476468826
 30
0.0
 10
46.27179857405523
 20
104.9615480964578
 30
0.0
 10
45.93550648362503
 20
104.8385637669606
 30
0.0
 10
45.75611904454397
 20
104.8073758870653
 30
0.0
 10
45.39454882067676
 20
104.8074455937665
 30
0.0
 10
45.21661354605141
 20
104.8381880416573
 30
0.0
 10
44.8776735032478
 20
104.9622718913833
 30
0.0
 10
44.72374750080674
 20
105.0530313419279
 30
0.0
 10
44.52407316974321
 20
105.231819648391
 30
0.0
 10
44.46443512857424
 20
105.2970879003318
 30
0.0
 10
44.35894709829647
 20
105.4392557326609
 30
0.0
 10
44.31265383656726
 20
105.5172771692447
 30
0.0
 10
44.20120524859838
 20
105.7611865984764
 30
0.0
 10
44.1614222816124
 20
105.9399924167825
 30
0.0
 10
44.1614222816124
 20
106.1220951075577
 30
0.0
  0
SPLINE
  5
158
330
1F
100
AcDbEntity
  8
0
  6
Continuous
 62
     7
370
    30
100
AcDbSpline
210
0.0
220
0.0
230
1.0
 70
     8
 71
     3
 72
    26
 73
    22
 74
     0
 42
0.000000001
 43
0.00000001
 40
0.0
 40
0.0
 40
0.0
 40
0.0
 40
0.0624999999999998
 40
0.0624999999999998
 40
0.1249999999999996
 40
0.1249999999999996
 40
0.25
 40
0.25
 40
0.3750000000000004
 40
0.3750000000000004
 40
0.5000000000000008
 40
0.5000000000000008
 40
0.6250000000000011
 40
0.6250000000000011
 40
0.7500000000000014
 40
0.7500000000000014
 40
0.8125000000000012
 40
0.8125000000000012
 40
0.8750000000000009
 40
0.8750000000000009
 40
1.0
 40
1.0
 40
1.0
 40
1.0
 10
33.98984940635859
 20
106.1220951075577
 30
0.0
 10
33.98984940635859
 20
106.0310780867821
 30
0.0
 10
33.98007967910377
 20
105.9418557626044
 30
0.0
 10
33.94193269620566
 20
105.7668107844547
 30
0.0
 10
33.91300711952682
 20
105.6801403125228
 30
0.0
 10
33.80172391850604
 20
105.4364148964774
 30
0.0
 10
33.69260530715449
 20
105.2903519498574
 30
0.0
 10
33.42839906195859
 20
105.0538476468826
 30
0.0
 10
33.27179857405523
 20
104.9615480964578
 30
0.0
 10
32.93550648362503
 20
104.8385637669606
 30
0.0
 10
32.75611904454397
 20
104.8073758870653
 30
0.0
 10
32.39454882067677
 20
104.8074455937665
 30
0.0
 10
32.2166135460514
 20
104.8381880416573
 30
0.0
 10
31.8776735032478
 20
104.9622718913833
 30
0.0
 10
31.72374750080674
 20
105.0530313419279
 30
0.0
 10
31.52407316974321
 20
105.231819648391
 30
0.0
 10
31.46443512857424
 20
105.2970879003318
 30
0.0
 10
31.35894709829647
 20
105.4392557326609
 30
0.0
 10
31.31265383656725
 20
105.5172771692447
 30
0.0
 10
31.20120524859838
 20
105.7611865984764
 30
0.0
 10
31.1614222816124
 20
105.9399924167825
 30
0.0
 10
31.1614222816124
 20
106.1220951075577
 30
0.0
  0
SPLINE
  5
159
330
1F
100
AcDbEntity
  8
0
  6
Continuous
 62
     7
370
    30
100
AcDbSpline
210
0.0
220
0.0
230
1.0
 70
    11
 71
     3
 72
    52
 73
    48
 74
     0
 42
0.000000001
 43
0.00000001
 40
0.0
 40
0.0
 40
0.0
 40
0.0
 40
0.0625000000000007
 40
0.0625000000000007
 40
0.0937500000000008
 40
0.0937500000000008
 40
0.1250000000000009
 40
0.1250000000000009
 40
0.1562500000000009
 40
0.1562500000000009
 40
0.187500000000001
 40
0.187500000000001
 40
0.2500000000000012
 40
0.2500000000000012
 40
0.2812500000000017
 40
0.2812500000000017
 40
0.3125000000000017
 40
0.3125000000000017
 40
0.3750000000000015
 40
0.3750000000000015
 40
0.4375000000000014
 40
0.4375000000000014
 40
0.5000000000000012
 40
0.5000000000000012
 40
0.5625000000000011
 40
0.5625000000000011
 40
0.6250000000000011
 40
0.6250000000000011
 40
0.6562500000000012
 40
0.6562500000000012
 40
0.6875000000000013
 40
0.6875000000000013
 40
0.7187500000000014
 40
0.7187500000000014
 40
0.7500000000000016
 40
0.7500000000000016
 40
0.7812500000000018
 40
0.7812500000000018
 40
0.8125000000000019
 40
0.8125000000000019
 40
0.8750000000000012
 40
0.8750000000000012
 40
0.9062500000000008
 40
0.9062500000000008
 40
0.9375000000000004
 40
0.9375000000000004
 40
1.0
 40
1.0
 40
1.0
 40
1.0
 10
32.57563584398549
 20
102.5211807751848
 30
0.0
 10
32.39397376115382
 20
102.5211807751848
 30
0.0
 10
32.21616913475028
 20
102.5351699320066
 30
0.0
 10
31.96303440655879
 20
102.5796483159695
 30
0.0
 10
31.8827329560353
 20
102.5981685982667
 30
0.0
 10
31.73021304636575
 20
102.6436861347128
 30
0.0
 10
31.65724674546491
 20
102.6710771546172
 30
0.0
 10
31.52483009521461
 20
102.7343603461679
 30
0.0
 10
31.46519399748422
 20
102.7701301672725
 30
0.0
 10
31.35933274978998
 20
102.8515052060182
 30
0.0
 10
31.3129512121514
 20
102.8976250322297
 30
0.0
 10
31.2017641594954
 20
103.0466504347579
 30
0.0
 10
31.16179210558821
 20
103.16514003533
 30
0.0
 10
31.16124132329764
 20
103.3552024304399
 30
0.0
 10
31.17084625760597
 20
103.421690843589
 30
0.0
 10
31.20894236010419
 20
103.5544275117099
 30
0.0
 10
31.23708281837589
 20
103.6204758527073
 30
0.0
 10
31.34842952586922
 20
103.8166982899199
 30
0.0
 10
31.4570095441082
 20
103.9407698703975
 30
0.0
 10
31.72235376897236
 20
104.1502017064297
 30
0.0
 10
31.87892300535354
 20
104.2352521070886
 30
0.0
 10
32.21407919302861
 20
104.3500037745385
 30
0.0
 10
32.39535860772974
 20
104.3803104199596
 30
0.0
 10
32.75381719917238
 20
104.3805390611757
 30
0.0
 10
32.93523702977342
 20
104.3503999639429
 30
0.0
 10
33.26987161025352
 20
104.2363699440128
 30
0.0
 10
33.42704905192905
 20
104.1511967031666
 30
0.0
 10
33.62508573153752
 20
103.9956029049669
 30
0.0
 10
33.68626125510731
 20
103.9379848385687
 30
0.0
 10
33.79227162258223
 20
103.8176615691223
 30
0.0
 10
33.83752770296195
 20
103.7548824595084
 30
0.0
 10
33.91209453762071
 20
103.6248164685995
 30
0.0
 10
33.94118026996908
 20
103.5573353210992
 30
0.0
 10
33.97966004472532
 20
103.4253998321668
 30
0.0
 10
33.98965325334703
 20
103.359934566676
 30
0.0
 10
33.99003988420474
 20
103.2311799929449
 30
0.0
 10
33.98046659617768
 20
103.1701746485129
 30
0.0
 10
33.94259366599915
 20
103.0543654244767
 30
0.0
 10
33.91379228728097
 20
102.9991974681534
 30
0.0
 10
33.80290013901822
 20
102.8493413662501
 30
0.0
 10
33.69393208282438
 20
102.7668477038133
 30
0.0
 10
33.49573259988065
 20
102.6717788159652
 30
0.0
 10
33.42274697816708
 20
102.6442563826736
 30
0.0
 10
33.26956935494012
 20
102.5984109550489
 30
0.0
 10
33.18911736209121
 20
102.5798375650744
 30
0.0
 10
32.93627013557379
 20
102.5353064661157
 30
0.0
 10
32.75729792681716
 20
102.5211807751848
 30
0.0
 10
32.57563584398549
 20
102.5211807751848
 30
0.0
  0
SPLINE
  5
15A
330
1F
100
AcDbEntity
  8
0
  6
Continuous
 62
     7
370
    30
100
AcDbSpline
210
0.0
220
0.0
230
1.0
 70
    11
 71
     3
 72
    52
 73
    48
 74
     0
 42
0.000000001
 43
0.00000001
 40
0.0
 40
0.0
 40
0.0
 40
0.0
 40
0.0625000000000008
 40
0.0625000000000008
 40
0.0937500000000009
 40
0.0937500000000009
 40
0.125000000000001
 40
0.125000000000001
 40
0.1562500000000011
 40
0.1562500000000011
 40
0.1875000000000012
 40
0.1875000000000012
 40
0.2500000000000014
 40
0.2500000000000014
 40
0.2812500000000019
 40
0.2812500000000019
 40
0.3125000000000019
 40
0.3125000000000019
 40
0.3750000000000021
 40
0.3750000000000021
 40
0.4375000000000023
 40
0.4375000000000023
 40
0.5000000000000026
 40
0.5000000000000026
 40
0.5625000000000028
 40
0.5625000000000028
 40
0.625000000000003
 40
0.625000000000003
 40
0.6562500000000028
 40
0.6562500000000028
 40
0.6875000000000027
 40
0.6875000000000027
 40
0.7187500000000026
 40
0.7187500000000026
 40
0.7500000000000024
 40
0.7500000000000024
 40
0.7812500000000024
 40
0.7812500000000024
 40
0.8125000000000023
 40
0.8125000000000023
 40
0.8750000000000017
 40
0.8750000000000017
 40
0.9062500000000012
 40
0.9062500000000012
 40
0.9375000000000007
 40
0.9375000000000007
 40
1.0
 40
1.0
 40
1.0
 40
1.0
 10
45.57563584398548
 20
102.5211807751848
 30
0.0
 10
45.39397376115382
 20
102.5211807751848
 30
0.0
 10
45.21616913475028
 20
102.5351699320066
 30
0.0
 10
44.96303440655878
 20
102.5796483159695
 30
0.0
 10
44.88273295603529
 20
102.5981685982667
 30
0.0
 10
44.73021304636574
 20
102.6436861347128
 30
0.0
 10
44.6572467454649
 20
102.6710771546172
 30
0.0
 10
44.52483009521461
 20
102.7343603461679
 30
0.0
 10
44.46519399748422
 20
102.7701301672725
 30
0.0
 10
44.35933274978998
 20
102.8515052060182
 30
0.0
 10
44.3129512121514
 20
102.8976250322297
 30
0.0
 10
44.2017641594954
 20
103.0466504347579
 30
0.0
 10
44.16179210558821
 20
103.16514003533
 30
0.0
 10
44.16124132329764
 20
103.3552024304399
 30
0.0
 10
44.17084625760596
 20
103.421690843589
 30
0.0
 10
44.2089423601042
 20
103.55442751171
 30
0.0
 10
44.23708281837588
 20
103.6204758527073
 30
0.0
 10
44.34842952586922
 20
103.8166982899199
 30
0.0
 10
44.45700954410819
 20
103.9407698703975
 30
0.0
 10
44.72235376897235
 20
104.1502017064297
 30
0.0
 10
44.87892300535353
 20
104.2352521070886
 30
0.0
 10
45.21407919302861
 20
104.3500037745385
 30
0.0
 10
45.39535860772975
 20
104.3803104199596
 30
0.0
 10
45.75381719917238
 20
104.3805390611757
 30
0.0
 10
45.93523702977341
 20
104.3503999639429
 30
0.0
 10
46.26987161025352
 20
104.2363699440128
 30
0.0
 10
46.42704905192905
 20
104.1511967031666
 30
0.0
 10
46.62508573153752
 20
103.9956029049669
 30
0.0
 10
46.6862612551073
 20
103.9379848385687
 30
0.0
 10
46.79227162258222
 20
103.8176615691223
 30
0.0
 10
46.83752770296196
 20
103.7548824595084
 30
0.0
 10
46.91209453762071
 20
103.6248164685995
 30
0.0
 10
46.94118026996907
 20
103.5573353210992
 30
0.0
 10
46.97966004472533
 20
103.4253998321668
 30
0.0
 10
46.98965325334703
 20
103.359934566676
 30
0.0
 10
46.99003988420475
 20
103.2311799929449
 30
0.0
 10
46.98046659617768
 20
103.1701746485129
 30
0.0
 10
46.94259366599915
 20
103.0543654244767
 30
0.0
 10
46.91379228728096
 20
102.9991974681534
 30
0.0
 10
46.80290013901822
 20
102.8493413662501
 30
0.0
 10
46.69393208282438
 20
102.7668477038133
 30
0.0
 10
46.49573259988065
 20
102.6717788159652
 30
0.0
 10
46.42274697816708
 20
102.6442563826736
 30
0.0
 10
46.26956935494012
 20
102.5984109550489
 30
0.0
 10
46.18911736209121
 20
102.5798375650744
 30
0.0
 10
45.93627013557379
 20
102.5353064661157
 30
0.0
 10
45.75729792681716
 20
102.5211807751848
 30
0.0
 10
45.57563584398549
 20
102.5211807751848
 30
0.0
  0
LINE
  5
15B
330
1F
100
AcDbEntity
  8
0
  6
Continuous
 62
     7
370
    30
100
AcDbLine
 10
38.2756358642
 20
102.1220941837
 30
0.0
 11
33.97563566
 21
102.1220941837
 31
0.0
  0
SPLINE
  5
15C
330
1F
100
AcDbEntity
  8
0
  6
Continuous
 62
     7
370
    30
100
AcDbSpline
210
0.0
220
0.0
230
1.0
 70
     8
 71
     3
 72
     9
 73
     5
 74
     0
 42
0.000000001
 43
0.00000001
 40
0.0
 40
0.0
 40
0.0
 40
0.0
 40
0.7351952863621197
 40
1.0
 40
1.0
 40
1.0
 40
1.0
 10
31.17563622545523
 20
102.1220941836857
 30
0.0
 10
31.20382929994656
 20
102.1254210239397
 30
0.0
 10
31.24217703559492
 20
102.1299461349077
 30
0.0
 10
31.36395639608701
 20
102.1539338103099
 30
0.0
 10
31.39620414476913
 20
102.1602858598256
 30
0.0
  0
SPLINE
  5
15D
330
1F
100
AcDbEntity
  8
0
  6
Continuous
 62
     7
370
    30
100
AcDbSpline
210
0.0
220
0.0
230
1.0
 70
     8
 71
     3
 72
    10
 73
     6
 74
     0
 42
0.000000001
 43
0.00000001
 40
0.0
 40
0.0
 40
0.0
 40
0.0
 40
0.17963457436129
 40
0.5892348597732846
 40
1.0
 40
1.0
 40
1.0
 40
1.0
 10
33.76355115797442
 20
102.158918678286
 30
0.0
 10
33.78381451965582
 20
102.154901659077
 30
0.0
 10
33.85028211990109
 20
102.1417250879256
 30
0.0
 10
33.92782532233797
 20
102.1263648099182
 30
0.0
 10
33.95968380189939
 20
102.1235190726714
 30
0.0
 10
33.97563565995615
 20
102.1220941836857
 30
0.0
  0
LINE
  5
15E
330
1F
100
AcDbEntity
  8
0
  6
Continuous
 62
     7
370
    30
100
AcDbLine
 10
31.1756362255
 20
102.1220941837
 30
0.0
 11
30.3756357218
 21
102.1220941837
 31
0.0
  0
LINE
  5
15F
330
1F
100
AcDbEntity
  8
0
  6
Continuous
 62
     7
370
    30
100
AcDbLine
 10
47.7756359662
 20
102.1220941837
 30
0.0
 11
46.9756354625
 21
102.1220941837
 31
0.0
  0
SPLINE
  5
160
330
1F
100
AcDbEntity
  8
0
  6
Continuous
 62
     7
370
    30
100
AcDbSpline
210
0.0
220
0.0
230
1.0
 70
     8
 71
     3
 72
     9
 73
     5
 74
     0
 42
0.000000001
 43
0.00000001
 40
0.0
 40
0.0
 40
0.0
 40
0.0
 40
0.7351952863621197
 40
1.0
 40
1.0
 40
1.0
 40
1.0
 10
44.17563602801484
 20
102.1220941836857
 30
0.0
 10
44.20382910250617
 20
102.1254210239397
 30
0.0
 10
44.24217683815453
 20
102.1299461349077
 30
0.0
 10
44.36395619864663
 20
102.1539338103099
 30
0.0
 10
44.39620394732874
 20
102.1602858598256
 30
0.0
  0
SPLINE
  5
161
330
1F
100
AcDbEntity
  8
0
  6
Continuous
 62
     7
370
    30
100
AcDbSpline
210
0.0
220
0.0
230
1.0
 70
     8
 71
     3
 72
    10
 73
     6
 74
     0
 42
0.000000001
 43
0.00000001
 40
0.0
 40
0.0
 40
0.0
 40
0.0
 40
0.1796342029834715
 40
0.5892346738207116
 40
1.0
 40
1.0
 40
1.0
 40
1.0
 10
46.76355142619532
 20
102.158918678286
 30
0.0
 10
46.78381461229812
 20
102.1549016579778
 30
0.0
 10
46.85028175305167
 20
102.1417250601375
 30
0.0
 10
46.92782519185442
 20
102.1263648167394
 30
0.0
 10
46.95968362679908
 20
102.1235190749473
 30
0.0
 10
46.97563546251577
 20
102.1220941836857
 30
0.0
  0
LINE
  5
162
330
1F
100
AcDbEntity
  8
0
  6
Continuous
 62
     7
370
    30
100
AcDbLine
 10
44.175636028
 20
102.1220941837
 30
0.0
 11
39.8756358238
 21
102.1220941837
 31
0.0
  0
SPLINE
  5
163
330
1F
100
AcDbEntity
  8
0
  6
Continuous
 62
     7
370
    30
100
AcDbSpline
210
0.0
220
0.0
230
1.0
 70
     8
 71
     3
 72
    20
 73
    16
 74
     0
 42
0.000000001
 43
0.00000001
 40
0.0
 40
0.0
 40
0.0
 40
0.0
 40
0.125
 40
0.125
 40
0.25
 40
0.25
 40
0.375
 40
0.375
 40
0.5
 40
0.5
 40
0.625
 40
0.625
 40
0.7500000000000001
 40
0.7500000000000001
 40
1.0
 40
1.0
 40
1.0
 40
1.0
 10
39.87563584398548
 20
102.1220951075577
 30
0.0
 10
39.87563584398548
 20
102.1220951075577
 30
0.0
 10
39.85467992897338
 20
102.1264287370931
 30
0.0
 10
39.7742962619754
 20
102.1413205048739
 30
0.0
 10
39.71488318990142
 20
102.1517887083216
 30
0.0
 10
39.56771305797318
 20
102.1728121702284
 30
0.0
 10
39.47870218116231
 20
102.1834063889217
 30
0.0
 10
39.28634811761709
 20
102.1984225916099
 30
0.0
 10
39.18091075053092
 20
102.2028940456206
 30
0.0
 10
38.97166599085696
 20
102.2029288839458
 30
0.0
 10
38.86670425299972
 20
102.1985383461332
 30
0.0
 10
38.6726758342331
 20
102.1834377195805
 30
0.0
 10
38.58465081089653
 20
102.1729628312132
 30
0.0
 10
38.3614909378417
 20
102.1411001715693
 30
0.0
 10
38.27563584398549
 20
102.1220951075577
 30
0.0
 10
38.27563584398549
 20
102.1220951075577
 30
0.0
  0
LINE
  5
164
330
1F
100
AcDbEntity
  8
0
  6
Continuous
 62
     7
370
    30
100
AcDbLine
 10
30.3756357218
 20
105.6500465418
 30
0.0
 11
30.3756357218
 21
106.1220948393
 31
0.0
  0
LINE
  5
165
330
1F
100
AcDbEntity
  8
0
  6
Continuous
 62
     7
370
    30
100
AcDbLine
 10
47.7756359662
 20
106.1220948393
 30
0.0
 11
47.7756359662
 21
105.6500465418
 31
0.0
  0
LINE
  5
166
330
1F
100
AcDbEntity
  8
0
  6
Continuous
 62
     7
370
    30
100
AcDbLine
 10
50.7756355266
 20
111.1220947276
 30
0.0
 11
50.7756355266
 21
110.122095495
 31
0.0
  0
LINE
  5
167
330
1F
100
AcDbEntity
  8
0
  6
Continuous
 62
     7
370
    30
100
AcDbLine
 10
48.5395682092
 20
110.122095495
 30
0.0
 11
47.7756359662
 21
110.122095495
 31
0.0
  0
LINE
  5
168
330
1F
100
AcDbEntity
  8
0
  6
Continuous
 62
     7
370
    30
100
AcDbLine
 10
27.3756361614
 20
110.122095495
 30
0.0
 11
27.3756361614
 21
111.1220947276
 31
0.0
  0
LINE
  5
169
330
1F
100
AcDbEntity
  8
0
  6
Continuous
 62
     7
370
    30
100
AcDbLine
 10
30.3756357218
 20
110.122095495
 30
0.0
 11
29.6117034788
 21
110.122095495
 31
0.0
  0
LINE
  5
16A
330
1F
100
AcDbEntity
  8
0
  6
Continuous
 62
     7
370
    30
100
AcDbLine
 10
38.2756358642
 20
102.1220941837
 30
0.0
 11
38.2868677891
 21
102.1242827917
 31
0.0
  0
LINE
  5
16B
330
1F
100
AcDbEntity
  8
0
  6
Continuous
 62
     7
370
    30
100
AcDbLine
 10
51.7756356905
 20
110.122095495
 30
0.0
 11
51.7756356905
 21
111.1220947276
 31
0.0
  0
LINE
  5
16C
330
1F
100
AcDbEntity
  8
0
  6
Continuous
 62
     7
370
    30
100
AcDbLine
 10
26.3756359975
 20
110.122095495
 30
0.0
 11
26.3756359975
 21
111.1220947276
 31
0.0
  0
LINE
  5
16D
330
1F
100
AcDbEntity
  8
0
  6
Continuous
 62
     7
370
    30
100
AcDbLine
 10
48.5395682092
 20
110.122095495
 30
0.0
 11
51.7756356905
 21
110.122095495
 31
0.0
  0
LINE
  5
16E
330
1F
100
AcDbEntity
  8
0
  6
Continuous
 62
     7
370
    30
100
AcDbLine
 10
51.7756356905
 20
110.122095495
 30
0.0
 11
51.7756356905
 21
105.1220946754
 31
0.0
  0
LINE
  5
16F
330
1F
100
AcDbEntity
  8
0
  6
Continuous
 62
     7
370
    30
100
AcDbLine
 10
51.7756356905
 20
105.1220946754
 30
0.0
 11
47.7756359662
 21
105.1220946754
 31
0.0
  0
LINE
  5
170
330
1F
100
AcDbEntity
  8
0
  6
Continuous
 62
     7
370
    30
100
AcDbLine
 10
47.7756359662
 20
105.1220946754
 30
0.0
 11
47.7756359662
 21
105.6500465418
 31
0.0
  0
LINE
  5
171
330
1F
100
AcDbEntity
  8
0
  6
Continuous
 62
     7
370
    30
100
AcDbLine
 10
26.3756359975
 20
110.122095495
 30
0.0
 11
29.6117034788
 21
110.122095495
 31
0.0
  0
LINE
  5
172
330
1F
100
AcDbEntity
  8
0
  6
Continuous
 62
     7
370
    30
100
AcDbLine
 10
30.3756357218
 20
105.6500465418
 30
0.0
 11
30.3756357218
 21
105.1220946754
 31
0.0
  0
LINE
  5
173
330
1F
100
AcDbEntity
  8
0
  6
Continuous
 62
     7
370
    30
100
AcDbLine
 10
30.3756357218
 20
105.1220946754
 30
0.0
 11
26.3756359975
 21
105.1220946754
 31
0.0
  0
LINE
  5
174
330
1F
100
AcDbEntity
  8
0
  6
Continuous
 62
     7
370
    30
100
AcDbLine
 10
26.3756359975
 20
105.1220946754
 30
0.0
 11
26.3756359975
 21
110.122095495
 31
0.0
  0
LINE
  5
175
330
1F
100
AcDbEntity
  8
0
  6
Continuous
 62
     7
370
    30
100
AcDbLine
 10
47.7756359662
 20
101.9220945234
 30
0.0
 11
30.3756357218
 21
101.9220945234
 31
0.0
  0
ARC
  5
176
330
1F
100
AcDbEntity
  8
0
  6
Continuous
 62
     7
370
    30
100
AcDbCircle
 10
39.075635844
 20
92.8220951076
 30
0.0
 40
12.7
100
AcDbArc
 50
270.0
 51
0.0
  0
ARC
  5
177
330
1F
100
AcDbEntity
  8
0
  6
Continuous
 62
     7
370
    30
100
AcDbCircle
 10
39.075635844
 20
92.8220951076
 30
0.0
 40
12.7
100
AcDbArc
 50
180.0
 51
270.0
  0
CIRCLE
  5
178
330
1F
100
AcDbEntity
  8
0
  6
Continuous
 62
     7
370
    30
100
AcDbCircle
 10
39.075635844
 20
92.1220951076
 30
0.0
 40
4.366259999999983
  0
CIRCLE
  5
179
330
1F
100
AcDbEntity
  8
0
  6
Continuous
 62
     7
370
    30
100
AcDbCircle
 10
39.075635844
 20
84.1220951076
 30
0.0
 40
1.5
  0
LINE
  5
17A
330
1F
100
AcDbEntity
  8
0
  6
Continuous
 62
     7
370
    30
100
AcDbLine
 10
30.3756357218
 20
101.9220945234
 30
0.0
 11
30.3756357218
 21
105.1220946754
 31
0.0
  0
LINE
  5
17B
330
1F
100
AcDbEntity
  8
0
  6
Continuous
 62
     7
370
    30
100
AcDbLine
 10
26.3756359975
 20
92.8220950807
 30
0.0
 11
26.3756359975
 21
105.1220946754
 31
0.0
  0
LINE
  5
17C
330
1F
100
AcDbEntity
  8
0
  6
Continuous
 62
     7
370
    30
100
AcDbLine
 10
47.7756359662
 20
105.1220946754
 30
0.0
 11
47.7756359662
 21
101.9220945234
 31
0.0
  0
LINE
  5
17D
330
1F
100
AcDbEntity
  8
0
  6
Continuous
 62
     7
370
    30
100
AcDbLine
 10
51.7756356905
 20
105.1220946754
 30
0.0
 11
51.7756356905
 21
92.8220950807
 31
0.0
  0
ARC
  5
17E
330
1F
100
AcDbEntity
  8
0
  6
Continuous
 62
     7
370
    30
100
AcDbCircle
 10
39.075635844
 20
84.1220951076
 30
0.0
 40
1.499866660740218
100
AcDbArc
 50
181.3069143457
 51
358.6930856543
  0
CIRCLE
  5
17F
330
1F
100
AcDbEntity
  8
0
  6
Continuous
 62
     7
370
    30
100
AcDbCircle
 10
39.075635844
 20
92.1220951076
 30
0.0
 40
2.247899999999987
  0
DIMENSION
  5
180
330
1F
100
AcDbEntity
  8
DIM
100
AcDbDimension
  2
_D_3
 10
56.4423025107
 20
119.1220951076
 30
0.0
 11
56.4423025107
 21
105.6220951076
 31
0.0
 70
   160
  1
<>
 71
     2
 42
-1.0
  3
SLDDIMSTYLE0
100
AcDbAlignedDimension
 13
44.441895844
 23
92.1220951076
 33
0.0
 14
51.775635844
 24
119.1220951076
 34
0.0
 50
90.0
100
AcDbRotatedDimension
  0
DIMENSION
  5
18A
330
1F
100
AcDbEntity
  8
DIM
100
AcDbDimension
  2
_D_4
 10
41.9067737956
 20
95.4460813119
 30
0.0
 11
19.1149066871
 21
76.5137617614
 31
0.0
 70
   163
  1
1 HOLE,\P8-32 CLR
 71
     1
 42
-1.0
  3
SLDDIMSTYLE1
100
AcDbDiametricDimension
 15
36.2444978924
 25
88.7981089032
 35
0.0
 40
0.0
  0
INSERT
  5
19E
330
1F
100
AcDbEntity
  8
DIM
100
AcDbBlockReference
  2
SW_CENTERMARKSYMBOL_1
 10
39.075635844
 20
92.1220951076
 30
0.0
  0
ARC
  5
19F
330
1F
100
AcDbEntity
  8
0
  6
Continuous
 62
     7
370
    30
100
AcDbCircle
 10
77.1304851791
 20
41.6907060465
 30
0.0
 40
1.500000000000007
100
AcDbArc
 50
10.4445813023
 51
169.5554186977
  0
CIRCLE
  5
1A0
330
1F
100
AcDbEntity
  8
0
  6
Continuous
 62
     7
370
    30
100
AcDbCircle
 10
99.125067643
 20
37.9626326437
 30
0.0
 40
2.0
  0
LINE
  5
1A1
330
1F
100
AcDbEntity
  8
0
  6
Continuous
 62
     7
370
    30
100
AcDbLine
 10
103.1250680304
 20
33.9626326437
 30
0.0
 11
112.125067643
 21
33.9626326437
 31
0.0
  0
LINE
  5
1A2
330
1F
100
AcDbEntity
  8
0
  6
Continuous
 62
     7
370
    30
100
AcDbLine
 10
103.1250680304
 20
33.9626326437
 30
0.0
 11
103.1250680304
 21
35.9626327387
 31
0.0
  0
LINE
  5
1A3
330
1F
100
AcDbEntity
  8
0
  6
Continuous
 62
     7
370
    30
100
AcDbLine
 10
103.1250680304
 20
35.9626327387
 30
0.0
 11
104.125067263
 21
35.9626327387
 31
0.0
  0
LINE
  5
1A4
330
1F
100
AcDbEntity
  8
0
  6
Continuous
 62
     7
370
    30
100
AcDbLine
 10
104.125067263
 20
35.9626327387
 30
0.0
 11
104.125067263
 21
51.262633058
 31
0.0
  0
LINE
  5
1A5
330
1F
100
AcDbEntity
  8
0
  6
Continuous
 62
     7
370
    30
100
AcDbLine
 10
112.125067643
 20
51.262633058
 30
0.0
 11
104.125067263
 21
51.262633058
 31
0.0
  0
LINE
  5
1A6
330
1F
100
AcDbEntity
  8
0
  6
Continuous
 62
     7
370
    30
100
AcDbLine
 10
112.125067643
 20
33.9626326437
 30
0.0
 11
112.125067643
 21
51.262633058
 31
0.0
  0
LINE
  5
1A7
330
1F
100
AcDbEntity
  8
0
  6
Continuous
 62
     7
370
    30
100
AcDbLine
 10
104.125067263
 20
51.262633058
 30
0.0
 11
104.125067263
 21
63.9626319732
 31
0.0
  0
LINE
  5
1A8
330
1F
100
AcDbEntity
  8
0
  6
Continuous
 62
     7
370
    30
100
AcDbLine
 10
104.125067263
 20
63.9626319732
 30
0.0
 11
112.125067643
 21
63.9626319732
 31
0.0
  0
LINE
  5
1A9
330
1F
100
AcDbEntity
  8
0
  6
Continuous
 62
     7
370
    30
100
AcDbLine
 10
112.125067643
 20
63.9626319732
 30
0.0
 11
112.125067643
 21
51.262633058
 31
0.0
  0
LINE
  5
1AA
330
1F
100
AcDbEntity
  8
0
  6
Continuous
 62
     7
370
    30
100
AcDbLine
 10
103.1250680304
 20
38.962632532
 30
0.0
 11
104.125067263
 21
38.962632532
 31
0.0
  0
LINE
  5
1AB
330
1F
100
AcDbEntity
  8
0
  6
Continuous
 62
     7
370
    30
100
AcDbLine
 10
103.1250680304
 20
36.9626326698
 30
0.0
 11
103.1250680304
 21
38.962632532
 31
0.0
  0
LINE
  5
1AC
330
1F
100
AcDbEntity
  8
0
  6
Continuous
 62
     7
370
    30
100
AcDbLine
 10
99.1250673748
 20
41.9626330237
 30
0.0
 11
104.125067263
 21
41.9626330237
 31
0.0
  0
LWPOLYLINE
  5
1AD
330
1F
100
AcDbEntity
  8
0
  6
Continuous
 62
     7
370
    30
100
AcDbPolyline
 90
        3
 70
   128
 43
0.0
 10
99.1250673748
 20
41.9626330237
 10
98.6772101811
 20
41.9374817263
 10
98.6530190772
 20
41.9346812393
  0
ARC
  5
1AE
330
1F
100
AcDbEntity
  8
0
  6
Continuous
 62
     7
370
    30
100
AcDbCircle
 10
98.125067643
 20
36.9626326437
 30
0.0
 40
5.000000000000014
100
AcDbArc
 50
0.0
 51
90.0
  0
LINE
  5
1AF
330
1F
100
AcDbEntity
  8
0
  6
Continuous
 62
     7
370
    30
100
AcDbLine
 10
103.1250680304
 20
33.9626326437
 30
0.0
 11
103.1250680304
 21
36.9626326698
 31
0.0
  0
LINE
  5
1B0
330
1F
100
AcDbEntity
  8
0
  6
Continuous
 62
     7
370
    30
100
AcDbLine
 10
103.1250680304
 20
33.9626326437
 30
0.0
 11
85.8250676162
 21
33.9626326437
 31
0.0
  0
LINE
  5
1B1
330
1F
100
AcDbEntity
  8
0
  6
Continuous
 62
     7
370
    30
100
AcDbLine
 10
85.8250676162
 20
41.9626330237
 30
0.0
 11
85.8250676162
 21
33.9626326437
 31
0.0
  0
LINE
  5
1B2
330
1F
100
AcDbEntity
  8
0
  6
Continuous
 62
     7
370
    30
100
AcDbLine
 10
98.1250672108
 20
41.9626330237
 30
0.0
 11
85.8250676162
 21
41.9626330237
 31
0.0
  0
LINE
  5
1B3
330
1F
100
AcDbEntity
  8
0
  6
Continuous
 62
     7
370
    30
100
AcDbLine
 10
73.1250668383
 20
33.9626326437
 30
0.0
 11
73.1250668383
 21
41.9626330237
 31
0.0
  0
LINE
  5
1B4
330
1F
100
AcDbEntity
  8
0
  6
Continuous
 62
     7
370
    30
100
AcDbLine
 10
73.1250668383
 20
41.9626330237
 30
0.0
 11
85.8250676162
 21
41.9626330237
 31
0.0
  0
LINE
  5
1B5
330
1F
100
AcDbEntity
  8
0
  6
Continuous
 62
     7
370
    30
100
AcDbLine
 10
85.8250676162
 20
33.9626326437
 30
0.0
 11
73.1250668383
 21
33.9626326437
 31
0.0
  0
DIMENSION
  5
1B6
330
1F
100
AcDbEntity
  8
DIM
100
AcDbDimension
  2
_D_5
 10
112.125067643
 20
29.2959659771
 30
0.0
 11
92.625067643
 21
29.2959659771
 31
0.0
 70
   160
  1
<>
 71
     2
 42
-1.0
  3
SLDDIMSTYLE0
100
AcDbAlignedDimension
 13
73.125067643
 23
33.9626326437
 33
0.0
 14
112.125067643
 24
33.9626326437
 34
0.0
 50
0.0
100
AcDbRotatedDimension
  0
DIMENSION
  5
1C0
330
1F
100
AcDbEntity
  8
DIM
100
AcDbDimension
  2
_D_6
 10
116.7917343096
 20
63.9626326437
 30
0.0
 11
116.7917343096
 21
48.9626326437
 31
0.0
 70
   160
  1
<>
 71
     2
 42
-1.0
  3
SLDDIMSTYLE0
100
AcDbAlignedDimension
 13
112.125067643
 23
33.9626326437
 33
0.0
 14
112.125067643
 24
63.9626326437
 34
0.0
 50
90.0
100
AcDbRotatedDimension
  0
DIMENSION
  5
1CA
330
1F
100
AcDbEntity
  8
DIM
100
AcDbDimension
  2
_D_7
 10
104.125067643
 20
63.9626326437
 30
0.0
 11
77.4584009763
 21
68.6292993104
 31
0.0
 70
   162
  1
<>
 71
     1
 42
-1.0
  3
SLDDIMSTYLE2
100
AcDb2LineAngularDimension
 13
73.125067643
 23
41.9626326437
 33
0.0
 14
98.125067643
 24
41.9626326437
 34
0.0
 15
104.125067643
 25
35.9626326437
 35
0.0
 16
77.4584009763
 26
68.6292993104
 36
0.0
  0
ARC
  5
1D5
330
1F
100
AcDbEntity
  8
0
  6
Continuous
 62
     7
370
    30
100
AcDbCircle
 10
145.5880650775
 20
82.9393657526
 30
0.0
 40
1.50000000000002
100
AcDbArc
 50
5.9328585607
 51
175.2235517394
  0
LINE
  5
1D6
330
1F
100
AcDbEntity
  8
0
  6
Continuous
 62
     7
370
    30
100
AcDbLine
 10
163.9834876903
 20
116.0389855165
 30
0.0
 11
158.3266334408
 21
112.7733530692
 31
0.0
  0
LINE
  5
1D7
330
1F
100
AcDbEntity
  8
0
  6
Continuous
 62
     7
370
    30
100
AcDbLine
 10
139.0360632973
 20
86.7105687433
 30
0.0
 11
139.0360632973
 21
80.1782422482
 31
0.0
  0
LINE
  5
1D8
330
1F
100
AcDbEntity
  8
0
  6
Continuous
 62
     7
370
    30
100
AcDbLine
 10
171.9135296586
 20
86.7948273734
 30
0.0
 11
169.0851025338
 21
88.427643597
 31
0.0
  0
LINE
  5
1D9
330
1F
100
AcDbEntity
  8
0
  6
Continuous
 62
     7
370
    30
100
AcDbLine
 10
155.7459455031
 20
96.1281750405
 30
0.0
 11
153.9530174164
 21
97.1632103935
 31
0.0
  0
LWPOLYLINE
  5
1DA
330
1F
100
AcDbEntity
  8
0
  6
Continuous
 62
     7
370
    30
100
AcDbPolyline
 90
       34
 70
   128
 43
0.0
 10
171.5350531705
 20
84.5057360411
 10
171.5094964891
 20
84.1819197535
 10
171.4337501299
 20
83.840299914
 10
171.3105517637
 20
83.4932235536
 10
171.1443541004
 20
83.1532349162
 10
170.9411639566
 20
82.8326220771
 10
170.7083251536
 20
82.5429728197
 10
170.4542530922
 20
82.2947558227
 10
170.1881305989
 20
82.0969422951
 10
169.9195760338
 20
81.9566817333
 10
169.6582956586
 20
81.8790435194
 10
169.413732827
 20
81.8668337007
 10
169.1947266768
 20
81.9204935719
 10
169.0091926608
 20
82.0380837255
 10
168.863836462
 20
82.2153541468
 10
168.7639116319
 20
82.445897821
 10
168.7130297143
 20
82.7213822991
 10
168.7130297143
 20
83.0318508542
 10
168.7639116319
 20
83.3660823438
 10
168.863836462
 20
83.7119967711
 10
169.0091926608
 20
84.0570918874
 10
169.1947266768
 20
84.388895056
 10
169.413732827
 20
84.695414046
 10
169.6582956586
 20
84.9655704624
 10
169.9195760338
 20
85.1896001484
 10
170.1881305989
 20
85.3594060876
 10
170.4542530922
 20
85.4688510507
 10
170.7083251536
 20
85.5139794117
 10
170.9411639566
 20
85.493160114
 10
171.1443541004
 20
85.4071456214
 10
171.3105517637
 20
85.2590447216
 10
171.4337501299
 20
85.0542101671
 10
171.5094964891
 20
84.8000452124
 10
171.5350531705
 20
84.5057360411
  0
LINE
  5
1DB
330
1F
100
AcDbEntity
  8
0
  6
Continuous
 62
     7
370
    30
100
AcDbLine
 10
173.6563735141
 20
84.0972665851
 30
0.0
 11
173.6563735141
 21
96.5903410069
 31
0.0
  0
LINE
  5
1DC
330
1F
100
AcDbEntity
  8
0
  6
Continuous
 62
     7
370
    30
100
AcDbLine
 10
173.6563735141
 20
84.0972665851
 30
0.0
 11
172.9492667329
 21
84.505470641
 31
0.0
  0
ARC
  5
1DD
330
1F
100
AcDbEntity
  8
0
  6
Continuous
 62
     7
370
    30
100
AcDbCircle
 10
174.4335954797
 20
88.2228873562
 30
0.0
 40
3.60590766066105
100
AcDbArc
 50
180.6861550907
 51
193.8224137518
  0
LINE
  5
1DE
330
1F
100
AcDbEntity
  8
0
  6
Continuous
 62
     7
370
    30
100
AcDbLine
 10
170.8279463894
 20
88.1797052444
 30
0.0
 11
170.8279463894
 21
90.62932768
 31
0.0
  0
LINE
  5
1DF
330
1F
100
AcDbEntity
  8
0
  6
Continuous
 62
     7
370
    30
100
AcDbLine
 10
170.8279463894
 20
90.62932768
 30
0.0
 11
158.5242883967
 21
97.7320782529
 31
0.0
  0
LINE
  5
1E0
330
1F
100
AcDbEntity
  8
0
  6
Continuous
 62
     7
370
    30
100
AcDbLine
 10
155.695861272
 20
106.9587240271
 30
0.0
 11
155.695861272
 21
96.1570880517
 31
0.0
  0
LWPOLYLINE
  5
1E1
330
1F
100
AcDbEntity
  8
0
  6
Continuous
 62
     7
370
    30
100
AcDbPolyline
 90
       22
 70
   128
 43
0.0
 10
164.676117393
 20
112.144600828
 10
164.0050220127
 20
112.5030191304
 10
163.3376796699
 20
112.8014393839
 10
162.6778224138
 20
113.0381927012
 10
162.0291404338
 20
113.2119550618
 10
161.3952614227
 20
113.3217547161
 10
160.779730289
 20
113.3669776199
 10
160.1859893325
 20
113.3473708683
 10
159.6173589935
 20
113.2630441103
 10
159.0770192835
 20
113.1144689353
 10
158.5679920013
 20
112.9024762359
 10
158.093123834
 20
112.6282515613
 10
157.655070437
 20
112.2933284872
 10
157.2562815825
 20
111.8995800392
 10
156.8989874597
 20
111.4492082183
 10
156.5851862022
 20
110.9447316865
 10
156.3166327138
 20
110.3889716812
 10
156.0948288547
 20
109.7850362377
 10
155.9210150421
 20
109.136302808
 10
155.7961633131
 20
108.4463993727
 10
155.7209718894
 20
107.7191841515
 10
155.695861272
 20
106.9587240271
  0
ARC
  5
1E2
330
1F
100
AcDbEntity
  8
0
  6
Continuous
 62
     7
370
    30
100
AcDbCircle
 10
154.1915950177
 20
95.7218524319
 30
0.0
 40
19.48414417720744
100
AcDbArc
 50
2.5547553986
 51
57.4452447471
  0
LWPOLYLINE
  5
1E3
330
1F
100
AcDbEntity
  8
0
  6
Continuous
 62
     7
370
    30
100
AcDbPolyline
 90
       32
 70
   128
 43
0.0
 10
164.676117393
 20
100.935781795
 10
164.9219662614
 20
100.8227257877
 10
165.1577500482
 20
100.7720373535
 10
165.3738157374
 20
100.7857916828
 10
165.5613175745
 20
100.8634256718
 10
165.7125792122
 20
101.0017609758
 10
165.8214079812
 20
101.1951341313
 10
165.883348419
 20
101.4356284184
 10
165.8958646767
 20
101.713397973
 10
165.8584443373
 20
102.0170708767
 10
165.7726193939
 20
102.3342147252
 10
165.6419035297
 20
102.6518456121
 10
165.4716482676
 20
102.9569596915
 10
165.2688238781
 20
103.2370655572
 10
165.0417340154
 20
103.4806956422
 10
164.7996757653
 20
103.6778757021
 10
164.5525590208
 20
103.8205331621
 10
164.3105007707
 20
103.9028276091
 10
164.083410908
 20
103.9213898986
 10
163.8805865184
 20
103.8754600885
 10
163.7103312564
 20
103.7669185505
 10
163.5796153922
 20
103.6002089879
 10
163.4937904488
 20
103.3821565098
 10
163.4563701094
 20
103.1216882104
 10
163.4688863671
 20
102.8294676923
 10
163.5308268049
 20
102.5174584979
 10
163.6396555739
 20
102.1984343203
 10
163.7909172115
 20
101.8854560468
 10
163.9784190486
 20
101.5913370448
 10
164.1944847379
 20
101.3281185806
 10
164.4302685247
 20
101.1065768492
 10
164.676117393
 20
100.935781795
  0
ARC
  5
1E4
330
1F
100
AcDbEntity
  8
0
  6
Continuous
 62
     7
370
    30
100
AcDbCircle
 10
159.8484235435
 20
98.9874700276
 30
0.0
 40
19.48417053733119
100
AcDbArc
 50
2.5547956564
 51
57.4452044892
  0
LINE
  5
1E5
330
1F
100
AcDbEntity
  8
0
  6
Continuous
 62
     7
370
    30
100
AcDbLine
 10
179.3132277636
 20
99.8559734542
 30
0.0
 11
173.6563735141
 21
96.5903410069
 31
0.0
  0
LINE
  5
1E6
330
1F
100
AcDbEntity
  8
0
  6
Continuous
 62
     7
370
    30
100
AcDbLine
 10
164.676117393
 20
112.144600828
 30
0.0
 11
170.3329716425
 21
115.4102332752
 31
0.0
  0
LINE
  5
1E7
330
1F
100
AcDbEntity
  8
0
  6
Continuous
 62
     7
370
    30
100
AcDbLine
 10
172.9492667329
 20
82.0559809054
 30
0.0
 11
179.3132277636
 21
85.7298174086
 31
0.0
  0
LINE
  5
1E8
330
1F
100
AcDbEntity
  8
0
  6
Continuous
 62
     7
370
    30
100
AcDbLine
 10
172.9492667329
 20
82.0559809054
 30
0.0
 11
172.9492667329
 21
83.6890625292
 31
0.0
  0
LINE
  5
1E9
330
1F
100
AcDbEntity
  8
0
  6
Continuous
 62
     7
370
    30
100
AcDbLine
 10
172.9492667329
 20
83.6890625292
 30
0.0
 11
173.6563735141
 21
84.0972665851
 31
0.0
  0
LINE
  5
1EA
330
1F
100
AcDbEntity
  8
0
  6
Continuous
 62
     7
370
    30
100
AcDbLine
 10
179.3132277636
 20
85.7298174086
 30
0.0
 11
179.3132277636
 21
99.8559734542
 31
0.0
  0
ARC
  5
1EB
330
1F
100
AcDbEntity
  8
0
  6
Continuous
 62
     7
370
    30
100
AcDbCircle
 10
166.6053539675
 20
110.1413682601
 30
0.0
 40
6.454151538232288
100
AcDbArc
 50
54.7213492773
 51
113.9681922936
  0
LINE
  5
1EC
330
1F
100
AcDbEntity
  8
0
  6
Continuous
 62
     7
370
    30
100
AcDbLine
 10
167.2924124834
 20
88.5883074005
 30
0.0
 11
170.8279463894
 21
90.62932768
 31
0.0
  0
LINE
  5
1ED
330
1F
100
AcDbEntity
  8
0
  6
Continuous
 62
     7
370
    30
100
AcDbLine
 10
170.1208396082
 20
87.7715011885
 30
0.0
 11
170.8279463894
 21
88.1797052444
 31
0.0
  0
LINE
  5
1EE
330
1F
100
AcDbEntity
  8
0
  6
Continuous
 62
     7
370
    30
100
AcDbLine
 10
170.1208396082
 20
87.7715011885
 30
0.0
 11
170.1208396082
 21
86.1384195647
 31
0.0
  0
LINE
  5
1EF
330
1F
100
AcDbEntity
  8
0
  6
Continuous
 62
     7
370
    30
100
AcDbLine
 10
167.2924124834
 20
88.5883074005
 30
0.0
 11
166.9586237143
 21
88.3727917903
 31
0.0
  0
SPLINE
  5
1F0
330
1F
100
AcDbEntity
  8
0
  6
Continuous
 62
     7
370
    30
100
AcDbSpline
210
0.0
220
0.0
230
1.0
 70
     8
 71
     3
 72
    18
 73
    14
 74
     0
 42
0.000000001
 43
0.00000001
 40
0.0
 40
0.0
 40
0.0
 40
0.0
 40
0.0713980968558715
 40
0.1593618260922354
 40
0.2494357140556191
 40
0.3454044428035279
 40
0.4480096328964118
 40
0.5549129184520174
 40
0.6630840184422927
 40
0.770005563406431
 40
0.8720913652696624
 40
0.9665520749882136
 40
1.0
 40
1.0
 40
1.0
 40
1.0
 10
153.4909719812848
 20
93.12679534179509
 30
0.0
 10
153.5381868983307
 20
93.22630282234365
 30
0.0
 10
153.6435714356024
 20
93.44840529437549
 30
0.0
 10
153.940097038753
 20
93.70359480940228
 30
0.0
 10
154.3159041316386
 20
93.87846384397756
 30
0.0
 10
154.7365161167629
 20
93.93308306500545
 30
0.0
 10
155.1506447879755
 20
93.85842017989313
 30
0.0
 10
155.4993112656204
 20
93.6546881994787
 30
0.0
 10
155.7273811732557
 20
93.3401753944106
 30
0.0
 10
155.8078464983863
 20
92.9447153581992
 30
0.0
 10
155.7389125368409
 20
92.52098299656743
 30
0.0
 10
155.6083337940116
 20
92.1850002753193
 30
0.0
 10
155.4912833952276
 20
92.03019216052407
 30
0.0
 10
155.4606748833833
 20
91.98971005995435
 30
0.0
  0
SPLINE
  5
1F1
330
1F
100
AcDbEntity
  8
0
  6
Continuous
 62
     7
370
    30
100
AcDbSpline
210
0.0
220
0.0
230
1.0
 70
     8
 71
     3
 72
    16
 73
    12
 74
     0
 42
0.000000001
 43
0.00000001
 40
0.0
 40
0.0
 40
0.0
 40
0.0
 40
0.0822077712419804
 40
0.1834892121920391
 40
0.2872002899749297
 40
0.3976986876453571
 40
0.5158383071428211
 40
0.6389267539078928
 40
0.7634749622578282
 40
0.8865844329065293
 40
1.0
 40
1.0
 40
1.0
 40
1.0
 10
162.6833601367099
 20
87.82014261494747
 30
0.0
 10
162.7305749568573
 20
87.91965007613408
 30
0.0
 10
162.8359592778498
 20
88.14175250494965
 30
0.0
 10
163.1324868092497
 20
88.39694240527336
 30
0.0
 10
163.5082859406135
 20
88.57180984900158
 30
0.0
 10
163.9289304113495
 20
88.62643556120547
 30
0.0
 10
164.3429262211279
 20
88.55174612812601
 30
0.0
 10
164.6921174067296
 20
88.34811899325743
 30
0.0
 10
164.918198939064
 20
88.0332088770926
 30
0.0
 10
165.0049158781789
 20
87.64364758818459
 30
0.0
 10
164.9432924982826
 20
87.35401306440448
 30
0.0
 10
164.9137436156616
 20
87.21513109200129
 30
0.0
  0
ARC
  5
1F2
330
1F
100
AcDbEntity
  8
0
  6
Continuous
 62
     7
370
    30
100
AcDbCircle
 10
158.0887676868
 20
90.7443531723
 30
0.0
 40
5.837805255761413
100
AcDbArc
 50
122.0746511233
 51
152.3136709443
  0
LINE
  5
1F3
330
1F
100
AcDbEntity
  8
0
  6
Continuous
 62
     7
370
    30
100
AcDbLine
 10
154.9887544908
 20
95.6910579733
 30
0.0
 11
155.5443894094
 21
95.3702967624
 31
0.0
  0
SPLINE
  5
1F4
330
1F
100
AcDbEntity
  8
0
  6
Continuous
 62
     7
370
    30
100
AcDbSpline
210
0.0
220
0.0
230
1.0
 70
     8
 71
     3
 72
    26
 73
    22
 74
     0
 42
0.000000001
 43
0.00000001
 40
0.0
 40
0.0
 40
0.0
 40
0.0
 40
0.0624999999999998
 40
0.0624999999999998
 40
0.1249999999999996
 40
0.1249999999999996
 40
0.25
 40
0.25
 40
0.3750000000000004
 40
0.3750000000000004
 40
0.5000000000000008
 40
0.5000000000000008
 40
0.6250000000000011
 40
0.6250000000000011
 40
0.7500000000000014
 40
0.7500000000000014
 40
0.8125000000000012
 40
0.8125000000000012
 40
0.8750000000000009
 40
0.8750000000000009
 40
1.0
 40
1.0
 40
1.0
 40
1.0
 10
157.5443894093926
 20
94.21572133825039
 30
0.0
 10
157.4800306567988
 20
94.17856782121281
 30
0.0
 10
157.4100327059473
 20
94.1436035533391
 30
0.0
 10
157.2592832245959
 20
94.07813183578894
 30
0.0
 10
157.1775444747449
 20
94.04737300152175
 30
0.0
 10
156.9265154742377
 20
93.96705341510834
 30
0.0
 10
156.7460748641623
 20
93.92769243431462
 30
0.0
 10
156.3920190401392
 20
93.89178485299992
 30
0.0
 10
156.2160201351997
 20
93.89504401010639
 30
0.0
 10
155.89126266423
 20
93.94989679573513
 30
0.0
 10
155.7423634282314
 20
94.00119794824283
 30
0.0
 10
155.4867439611408
 20
94.14884064253849
 30
0.0
 10
155.3826629152148
 20
94.24310255031955
 30
0.0
 10
155.2307366441096
 20
94.46461404277687
 30
0.0
 10
155.1860711469195
 20
94.58713763156486
 30
0.0
 10
155.1713024972925
 20
94.77731591541406
 30
0.0
 10
155.1752836575088
 20
94.84015489993402
 30
0.0
 10
155.2012201942719
 20
94.96352829584637
 30
0.0
 10
155.2236554018662
 20
95.02481595478645
 30
0.0
 10
155.3173193609648
 20
95.19616675799796
 30
0.0
 10
155.4156233618732
 20
95.29596170545466
 30
0.0
 10
155.5443894093926
 20
95.37029676242149
 30
0.0
  0
LINE
  5
1F5
330
1F
100
AcDbEntity
  8
0
  6
Continuous
 62
     7
370
    30
100
AcDbLine
 10
157.5443894094
 20
94.2157213383
 30
0.0
 11
164.7367775648
 21
90.0636440356
 31
0.0
  0
SPLINE
  5
1F6
330
1F
100
AcDbEntity
  8
0
  6
Continuous
 62
     7
370
    30
100
AcDbSpline
210
0.0
220
0.0
230
1.0
 70
     8
 71
     3
 72
    26
 73
    22
 74
     0
 42
0.000000001
 43
0.00000001
 40
0.0
 40
0.0
 40
0.0
 40
0.0
 40
0.0624999999999993
 40
0.0624999999999993
 40
0.1249999999999986
 40
0.1249999999999986
 40
0.2499999999999991
 40
0.2499999999999991
 40
0.3749999999999996
 40
0.3749999999999996
 40
0.5
 40
0.5
 40
0.6250000000000004
 40
0.6250000000000004
 40
0.7500000000000008
 40
0.7500000000000008
 40
0.8125000000000007
 40
0.8125000000000007
 40
0.8750000000000004
 40
0.8750000000000004
 40
1.0
 40
1.0
 40
1.0
 40
1.0
 10
166.7367775648177
 20
88.90906861140279
 30
0.0
 10
166.6724188122239
 20
88.8719150943652
 30
0.0
 10
166.6024208613724
 20
88.83695082649149
 30
0.0
 10
166.4516713800211
 20
88.77147910894134
 30
0.0
 10
166.36993263017
 20
88.74072027467415
 30
0.0
 10
166.1189036296628
 20
88.66040068826071
 30
0.0
 10
165.9384630195874
 20
88.62103970746702
 30
0.0
 10
165.5844071955643
 20
88.5851321261523
 30
0.0
 10
165.4084082906248
 20
88.58839128325879
 30
0.0
 10
165.0836508196551
 20
88.64324406888751
 30
0.0
 10
164.9347515836565
 20
88.69454522139523
 30
0.0
 10
164.6791321165659
 20
88.84218791569087
 30
0.0
 10
164.5750510706399
 20
88.93644982347193
 30
0.0
 10
164.4231247995347
 20
89.15796131592924
 30
0.0
 10
164.3784593023446
 20
89.28048490471723
 30
0.0
 10
164.3636906527176
 20
89.47066318856645
 30
0.0
 10
164.3676718129339
 20
89.5335021730864
 30
0.0
 10
164.393608349697
 20
89.65687556899877
 30
0.0
 10
164.4160435572913
 20
89.71816322793883
 30
0.0
 10
164.5097075163899
 20
89.88951403115036
 30
0.0
 10
164.6080115172983
 20
89.98930897860706
 30
0.0
 10
164.7367775648178
 20
90.06364403557387
 30
0.0
  0
LINE
  5
1F7
330
1F
100
AcDbEntity
  8
0
  6
Continuous
 62
     7
370
    30
100
AcDbLine
 10
166.7367775648
 20
88.9090686114
 30
0.0
 11
167.2924124834
 21
88.5883074005
 31
0.0
  0
LWPOLYLINE
  5
1F8
330
1F
100
AcDbEntity
  8
0
  6
Continuous
 62
     7
370
    30
100
AcDbPolyline
 90
       15
 70
   128
 43
0.0
 10
166.7367775648
 20
88.9090686114
 10
166.934226411
 20
89.0520010205
 10
167.0716301718
 20
89.2167138181
 10
167.1420988491
 20
89.394947617
 10
167.1420988491
 20
89.57776503
 10
167.0716301718
 20
89.7559988288
 10
166.934226411
 20
89.9207116265
 10
166.7367775648
 20
90.0636440356
 10
166.489184543
 20
90.1776288282
 10
166.2038626936
 20
90.256950331
 10
165.8951192454
 20
90.2976310325
 10
165.5784358842
 20
90.2976310325
 10
165.269692436
 20
90.256950331
 10
164.9843705866
 20
90.1776288282
 10
164.7367775648
 20
90.0636440356
  0
LINE
  5
1F9
330
1F
100
AcDbEntity
  8
0
  6
Continuous
 62
     7
370
    30
100
AcDbLine
 10
154.9887544908
 20
95.6910579733
 30
0.0
 11
158.5242883967
 21
97.7320782529
 31
0.0
  0
LWPOLYLINE
  5
1FA
330
1F
100
AcDbEntity
  8
0
  6
Continuous
 62
     7
370
    30
100
AcDbPolyline
 90
       15
 70
   128
 43
0.0
 10
157.5443894094
 20
94.2157213383
 10
157.7418382555
 20
94.3586537473
 10
157.8792420164
 20
94.523366545
 10
157.9497106937
 20
94.7016003438
 10
157.9497106937
 20
94.8844177569
 10
157.8792420164
 20
95.0626515557
 10
157.7418382555
 20
95.2273643534
 10
157.5443894094
 20
95.3702967624
 10
157.2967963876
 20
95.4842815551
 10
157.0114745382
 20
95.5636030578
 10
156.70273109
 20
95.6042837593
 10
156.3860477288
 20
95.6042837593
 10
156.0773042806
 20
95.5636030578
 10
155.7919824312
 20
95.4842815551
 10
155.5443894094
 20
95.3702967624
  0
ARC
  5
1FB
330
1F
100
AcDbEntity
  8
0
  6
Continuous
 62
     7
370
    30
100
AcDbCircle
 10
174.3610129759
 20
87.9016888823
 30
0.0
 40
4.242171498621317
100
AcDbArc
 50
181.7586221482
 51
209.2855229133
  0
LINE
  5
1FC
330
1F
100
AcDbEntity
  8
0
  6
Continuous
 62
     7
370
    30
100
AcDbLine
 10
154.2816477096
 20
95.2828539174
 30
0.0
 11
151.4532205848
 21
96.9156701411
 31
0.0
  0
LINE
  5
1FD
330
1F
100
AcDbEntity
  8
0
  6
Continuous
 62
     7
370
    30
100
AcDbLine
 10
152.0189060098
 20
93.9766009385
 30
0.0
 11
154.2816477096
 21
95.2828539174
 31
0.0
  0
LINE
  5
1FE
330
1F
100
AcDbEntity
  8
0
  6
Continuous
 62
     7
370
    30
100
AcDbLine
 10
164.3225640024
 20
86.8738503657
 30
0.0
 11
152.0189060098
 21
93.9766009385
 31
0.0
  0
LINE
  5
1FF
330
1F
100
AcDbEntity
  8
0
  6
Continuous
 62
     7
370
    30
100
AcDbLine
 10
166.5853057022
 20
88.1801033446
 30
0.0
 11
164.3225640024
 21
86.8738503657
 31
0.0
  0
LINE
  5
200
330
1F
100
AcDbEntity
  8
0
  6
Continuous
 62
     7
370
    30
100
AcDbLine
 10
169.413732827
 20
86.5472871209
 30
0.0
 11
166.5853057022
 21
88.1801033446
 31
0.0
  0
LINE
  5
201
330
1F
100
AcDbEntity
  8
0
  6
Continuous
 62
     7
370
    30
100
AcDbLine
 10
169.413732827
 20
86.5472871209
 30
0.0
 11
160.7163194184
 21
81.5263772332
 31
0.0
  0
ARC
  5
202
330
1F
100
AcDbEntity
  8
0
  6
Continuous
 62
     7
370
    30
100
AcDbCircle
 10
151.7360632973
 20
98.8207221833
 30
0.0
 40
19.48690245404678
100
AcDbArc
 50
242.558967102
 51
297.441032898
  0
LWPOLYLINE
  5
203
330
1F
100
AcDbEntity
  8
0
  6
Continuous
 62
     7
370
    30
100
AcDbPolyline
 90
       22
 70
   128
 43
0.0
 10
142.7558071763
 20
91.8947602534
 10
142.1098224134
 20
91.4928490857
 10
141.5176714943
 20
91.0641934666
 10
140.9826659671
 20
90.6111906119
 10
140.5077977998
 20
90.1363738976
 10
140.0957226478
 20
89.6423986912
 10
139.7487450024
 20
89.1320275024
 10
139.4688053035
 20
88.6081145341
 10
139.2574690873
 20
88.0735897199
 10
139.1159182317
 20
87.5314423396
 10
139.0449443465
 20
86.9847043011
 10
139.0449443465
 20
86.4364331854
 10
139.1159182317
 20
85.889695147
 10
139.2574690873
 20
85.3475477667
 10
139.4688053035
 20
84.8130229525
 10
139.7487450024
 20
84.2891099842
 10
140.0957226478
 20
83.7787387954
 10
140.5077977998
 20
83.284763589
 10
140.9826659671
 20
82.8099468747
 10
141.5176714943
 20
82.35694402
 10
142.1098224134
 20
81.9282884008
 10
142.7558071763
 20
81.5263772332
  0
LINE
  5
204
330
1F
100
AcDbEntity
  8
0
  6
Continuous
 62
     7
370
    30
100
AcDbLine
 10
142.7558071763
 20
91.8947602534
 30
0.0
 11
151.4532205848
 21
96.9156701411
 31
0.0
  0
LWPOLYLINE
  5
205
330
1F
100
AcDbEntity
  8
0
  6
Continuous
 62
     7
370
    30
100
AcDbPolyline
 90
       50
 70
   128
 43
0.0
 10
148.1536764961
 20
84.642500863
 10
148.5738335968
 20
84.4292150595
 10
149.0377869502
 20
84.2486971309
 10
149.5379184549
 20
84.1039111765
 10
150.0660159655
 20
83.9972345779
 10
150.6134081355
 20
83.9304189617
 10
151.1711068005
 20
83.9045614385
 10
151.7299545639
 20
83.9200865882
 10
152.2807751609
 20
83.9767394882
 10
152.8145241325
 20
84.0735898995
 10
153.3224373354
 20
84.209047541
 10
153.7961748487
 20
84.3808882019
 10
154.2279579157
 20
84.5862902634
 10
154.6106966702
 20
84.8218810293
 10
154.9381065526
 20
85.0837921057
 10
155.2048115016
 20
85.36772292
 10
155.4064322294
 20
85.6690113361
 10
155.539658129
 20
85.9827102065
 10
155.6023016351
 20
86.3036686045
 10
155.5933341428
 20
86.6266164019
 10
155.5129028983
 20
86.9462508049
 10
155.3623285803
 20
87.2573234255
 10
155.1440836149
 20
87.5547264599
 10
154.8617515785
 20
87.8335765583
 10
154.5199683552
 20
88.0892950099
 10
154.1243460162
 20
88.3176829248
 10
153.6813806694
 20
88.5149901798
 10
153.1983457934
 20
88.6779769952
 10
152.6831728075
 20
88.8039671319
 10
152.1443208381
 20
88.8908918355
 10
151.5906378195
 20
88.9373238046
 10
151.0312152115
 20
88.9425006277
 10
150.4752387179
 20
88.9063373014
 10
149.9318374575
 20
88.8294276266
 10
149.4099340638
 20
88.713034458
 10
148.9180981761
 20
88.5590689681
 10
148.4644057261
 20
88.3700592662
 10
148.0563063314
 20
88.1491088863
 10
147.7005009727
 20
87.8998458274
 10
147.4028319641
 20
87.6263629822
 10
147.1681870225
 20
87.3331509314
 10
147.0004190114
 20
87.0250242088
 10
146.9022826769
 20
86.7070422466
 10
146.8753894149
 20
86.3844262998
 10
146.920180812
 20
86.0624737134
 10
147.0359213948
 20
85.74647094
 10
147.2207107059
 20
85.4416067364
 10
147.4715145101
 20
85.1528869643
 10
147.7842146159
 20
84.8850523944
 10
148.1536764961
 20
84.642500863
  0
LWPOLYLINE
  5
206
330
1F
100
AcDbEntity
  8
0
  6
Continuous
 62
     7
370
    30
100
AcDbPolyline
 90
       13
 70
   128
 43
0.0
 10
144.5235741292
 20
82.546887373
 10
144.7861861862
 20
82.4259882433
 10
145.0888157081
 20
82.3418550845
 10
145.4162875868
 20
82.2987066847
 10
145.7521810152
 20
82.2987066847
 10
146.0796528939
 20
82.3418550845
 10
146.3822824158
 20
82.4259882433
 10
146.6448944728
 20
82.546887373
 10
146.8543205998
 20
82.6984900866
 10
147.0000592965
 20
82.8731943908
 10
147.0748026158
 20
83.0622398825
 10
147.0748026158
 20
83.2561470312
 10
147.0004158589
 20
83.444603588
  0
LWPOLYLINE
  5
207
330
1F
100
AcDbEntity
  8
0
  6
Continuous
 62
     7
370
    30
100
AcDbPolyline
 90
        7
 70
   128
 43
0.0
 10
144.1861985616
 20
83.4730044613
 10
144.1684093055
 20
83.4451925229
 10
144.0936659862
 20
83.2561470312
 10
144.0936659862
 20
83.0622398825
 10
144.1684093055
 20
82.8731943908
 10
144.3141480022
 20
82.6984900866
 10
144.5235741292
 20
82.546887373
  0
LINE
  5
208
330
1F
100
AcDbEntity
  8
0
  6
Continuous
 62
     7
370
    30
100
AcDbLine
 10
160.7163194184
 20
81.5263772332
 30
0.0
 11
160.7163194184
 21
74.9940507381
 31
0.0
  0
ARC
  5
209
330
1F
100
AcDbEntity
  8
0
  6
Continuous
 62
     7
370
    30
100
AcDbCircle
 10
151.7360632973
 20
92.2883956882
 30
0.0
 40
19.48690245404682
100
AcDbArc
 50
242.558967102
 51
297.441032898
  0
LINE
  5
20A
330
1F
100
AcDbEntity
  8
0
  6
Continuous
 62
     7
370
    30
100
AcDbLine
 10
142.7558071763
 20
74.9940507381
 30
0.0
 11
142.7558071763
 21
81.5263772332
 31
0.0
  0
ARC
  5
20B
330
1F
100
AcDbEntity
  8
0
  6
Continuous
 62
     7
370
    30
100
AcDbCircle
 10
170.7867346743
 20
84.8428401449
 30
0.0
 40
2.188669359810176
100
AcDbArc
 50
351.1363811896
 51
128.8528670557
  0
LINE
  5
20C
330
1F
100
AcDbEntity
  8
0
  6
Continuous
 62
     7
370
    30
100
AcDbLine
 10
172.9492667329
 20
82.0559809054
 30
0.0
 11
172.9492667329
 21
84.5056033411
 31
0.0
  0
LWPOLYLINE
  5
20D
330
1F
100
AcDbEntity
  8
0
  6
Continuous
 62
     7
370
    30
100
AcDbPolyline
 90
       34
 70
   128
 43
0.0
 10
171.5350531705
 20
84.5057360411
 10
171.5094964891
 20
84.1819197535
 10
171.4337501299
 20
83.840299914
 10
171.3105517637
 20
83.4932235536
 10
171.1443541004
 20
83.1532349162
 10
170.9411639566
 20
82.8326220771
 10
170.7083251536
 20
82.5429728197
 10
170.4542530922
 20
82.2947558227
 10
170.1881305989
 20
82.0969422951
 10
169.9195760338
 20
81.9566817333
 10
169.6582956586
 20
81.8790435194
 10
169.413732827
 20
81.8668337007
 10
169.1947266768
 20
81.9204935719
 10
169.0091926608
 20
82.0380837255
 10
168.863836462
 20
82.2153541468
 10
168.7639116319
 20
82.445897821
 10
168.7130297143
 20
82.7213822991
 10
168.7130297143
 20
83.0318508542
 10
168.7639116319
 20
83.3660823438
 10
168.863836462
 20
83.7119967711
 10
169.0091926608
 20
84.0570918874
 10
169.1947266768
 20
84.388895056
 10
169.413732827
 20
84.695414046
 10
169.6582956586
 20
84.9655704624
 10
169.9195760338
 20
85.1896001484
 10
170.1881305989
 20
85.3594060876
 10
170.4542530922
 20
85.4688510507
 10
170.7083251536
 20
85.5139794117
 10
170.9411639566
 20
85.493160114
 10
171.1443541004
 20
85.4071456214
 10
171.3105517637
 20
85.2590447216
 10
171.4337501299
 20
85.0542101671
 10
171.5094964891
 20
84.8000452124
 10
171.5350531705
 20
84.5057360411
  0
LINE
  5
20E
330
1F
100
AcDbEntity
  8
0
  6
Continuous
 62
     7
370
    30
100
AcDbLine
 10
172.9492667329
 20
82.0559809054
 30
0.0
 11
160.7163194184
 21
74.9940507381
 31
0.0
  0
ARC
  5
20F
330
1F
100
AcDbEntity
  8
0
  6
Continuous
 62
     7
370
    30
100
AcDbCircle
 10
145.2544561777
 20
80.7134579669
 30
0.0
 40
6.241383330687326
100
AcDbArc
 50
184.9193117152
 51
246.4008292424
  0
ARC
  5
210
330
1F
100
AcDbEntity
  8
0
  6
Continuous
 62
     7
370
    30
100
AcDbCircle
 10
151.2410885505
 20
78.7817414855
 30
0.0
 40
6.656956193661028
100
AcDbArc
 50
62.0445704651
 51
117.9554295349
  0
ARC
  5
211
330
1F
100
AcDbEntity
  8
0
  6
Continuous
 62
     7
370
    30
100
AcDbCircle
 10
151.2410885505
 20
80.5552903959
 30
0.0
 40
3.644397526797985
100
AcDbArc
 50
70.9329799916
 51
109.0670200084
  0
ARC
  5
212
330
1F
100
AcDbEntity
  8
0
  6
Continuous
 62
     7
370
    30
100
AcDbCircle
 10
168.0395876237
 20
86.2398970677
 30
0.0
 40
2.424734274894679
100
AcDbArc
 50
64.457059734
 51
126.8533986951
  0
LINE
  5
213
330
1F
100
AcDbEntity
  8
0
  6
Continuous
 62
     7
370
    30
100
AcDbLine
 10
154.6549657217
 20
95.4755423632
 30
0.0
 11
154.2816477096
 21
95.2828539174
 31
0.0
  0
ARC
  5
214
330
1F
100
AcDbEntity
  8
0
  6
Continuous
 62
     7
370
    30
100
AcDbCircle
 10
152.9075025063
 20
94.9754638642
 30
0.0
 40
2.424734274894429
100
AcDbArc
 50
64.457059734
 51
126.8533986951
  0
ENDSEC
  0
SECTION
  2
OBJECTS
  0
DICTIONARY
  5
C
330
0
100
AcDbDictionary
281
     1
  3
ACAD_GROUP
350
D
  3
ACAD_LAYOUT
350
1A
  3
ACAD_MLINESTYLE
350
17
  3
ACAD_PLOTSETTINGS
350
19
  3
ACAD_PLOTSTYLENAME
350
E
  3
ACAD_SCALELIST
350
47
  0
DICTIONARY
  5
D
102
{ACAD_REACTORS
330
C
102
}
330
C
100
AcDbDictionary
281
     1
  0
DICTIONARY
  5
1A
102
{ACAD_REACTORS
330
C
102
}
330
C
100
AcDbDictionary
281
     1
  3
Layout1
350
1E
  3
Layout2
350
26
  3
Model
350
22
  0
DICTIONARY
  5
17
102
{ACAD_REACTORS
330
C
102
}
330
C
100
AcDbDictionary
281
     1
  3
Standard
350
18
  0
DICTIONARY
  5
19
102
{ACAD_REACTORS
330
C
102
}
330
C
100
AcDbDictionary
281
     1
  0
ACDBDICTIONARYWDFLT
  5
E
102
{ACAD_REACTORS
330
C
102
}
330
C
100
AcDbDictionary
281
     1
  3
Normal
350
F
100
AcDbDictionaryWithDefault
340
F
  0
DICTIONARY
  5
47
102
{ACAD_REACTORS
330
C
102
}
330
C
100
AcDbDictionary
281
     1
  3
A0
350
48
  3
A1
350
49
  3
A2
350
4A
  3
A3
350
4B
  3
A4
350
4C
  3
A5
350
4D
  3
A6
350
4E
  3
A7
350
4F
  3
A8
350
50
  3
A9
350
51
  3
B0
350
52
  3
B1
350
53
  3
B2
350
54
  3
B3
350
55
  3
B4
350
56
  3
B5
350
57
  3
B6
350
58
  3
B7
350
59
  3
B8
350
5A
  3
B9
350
5B
  3
C0
350
5C
  3
C1
350
5D
  3
C2
350
5E
  3
C3
350
5F
  3
C4
350
60
  3
C5
350
61
  3
C6
350
62
  3
C7
350
63
  3
C8
350
64
  3
C9
350
65
  3
D0
350
66
  3
D1
350
67
  3
D2
350
68
  0
LAYOUT
  5
1E
102
{ACAD_REACTORS
330
1A
102
}
330
1A
100
AcDbPlotSettings
  1

  2
none_device
  4

  6

 40
0.0
 41
0.0
 42
0.0
 43
0.0
 44
0.0
 45
0.0
 46
0.0
 47
0.0
 48
0.0
 49
0.0
140
0.0
141
0.0
142
1.0
143
1.0
 70
   688
 72
     1
 73
     0
 74
     5
  7

 75
    16
147
1.0
148
0.0
149
0.0
100
AcDbLayout
  1
Layout1
 70
     1
 71
     1
 10
0.0
 20
0.0
 11
420.0
 21
297.0
 12
0.0
 22
0.0
 32
0.0
 14
1.0000000000E+20
 24
1.0000000000E+20
 34
1.0000000000E+20
 15
-1.0000000000E+20
 25
-1.0000000000E+20
 35
-1.0000000000E+20
146
0.0
 13
0.0
 23
0.0
 33
0.0
 16
1.0
 26
0.0
 36
0.0
 17
0.0
 27
1.0
 37
0.0
 76
     0
330
1B
  0
LAYOUT
  5
26
102
{ACAD_REACTORS
330
1A
102
}
330
1A
100
AcDbPlotSettings
  1

  2
none_device
  4

  6

 40
0.0
 41
0.0
 42
0.0
 43
0.0
 44
0.0
 45
0.0
 46
0.0
 47
0.0
 48
0.0
 49
0.0
140
0.0
141
0.0
142
1.0
143
1.0
 70
   688
 72
     1
 73
     0
 74
     5
  7

 75
    16
147
1.0
148
0.0
149
0.0
100
AcDbLayout
  1
Layout2
 70
     1
 71
     2
 10
0.0
 20
0.0
 11
0.0
 21
0.0
 12
0.0
 22
0.0
 32
0.0
 14
0.0
 24
0.0
 34
0.0
 15
0.0
 25
0.0
 35
0.0
146
0.0
 13
0.0
 23
0.0
 33
0.0
 16
1.0
 26
0.0
 36
0.0
 17
0.0
 27
1.0
 37
0.0
 76
     0
330
23
  0
LAYOUT
  5
22
102
{ACAD_REACTORS
330
1A
102
}
330
1A
100
AcDbPlotSettings
  1

  2
none_device
  4
Letter_(8.50_x_11.00_Inches)
  6

 40
6.35
 41
6.35
 42
6.35000508
 43
6.35000508
 44
215.9
 45
279.4
 46
0.0
 47
0.0
 48
0.0
 49
0.0
140
0.0
141
0.0
142
1.0
143
1.0
 70
  1712
 72
     1
 73
     0
 74
     0
  7

 75
     0
147
1.0
148
0.0
149
0.0
100
AcDbLayout
  1
Model
 70
     1
 71
     0
 10
0.0
 20
0.0
 11
198.0
 21
140.0
 12
0.0
 22
0.0
 32
0.0
 14
0.0
 24
0.0
 34
0.0
 15
198.0
 25
140.0
 35
0.0
146
0.0
 13
0.0
 23
0.0
 33
0.0
 16
1.0
 26
0.0
 36
0.0
 17
0.0
 27
1.0
 37
0.0
 76
     0
330
1F
331
29
  0
MLINESTYLE
  5
18
102
{ACAD_REACTORS
330
17
102
}
330
17
100
AcDbMlineStyle
  2
Standard
 70
     0
  3

 62
   256
 51
90.0
 52
90.0
 71
     2
 49
0.5
 62
   256
  6
BYLAYER
 49
-0.5
 62
   256
  6
BYLAYER
  0
ACDBPLACEHOLDER
  5
F
102
{ACAD_REACTORS
330
E
102
}
330
E
  0
SCALE
  5
48
102
{ACAD_REACTORS
330
47
102
}
330
47
100
AcDbScale
 70
     0
300
1:1
140
1.0
141
1.0
290
     1
  0
SCALE
  5
49
102
{ACAD_REACTORS
330
47
102
}
330
47
100
AcDbScale
 70
     0
300
1:2
140
1.0
141
2.0
290
     0
  0
SCALE
  5
4A
102
{ACAD_REACTORS
330
47
102
}
330
47
100
AcDbScale
 70
     0
300
1:4
140
1.0
141
4.0
290
     0
  0
SCALE
  5
4B
102
{ACAD_REACTORS
330
47
102
}
330
47
100
AcDbScale
 70
     0
300
1:5
140
1.0
141
5.0
290
     0
  0
SCALE
  5
4C
102
{ACAD_REACTORS
330
47
102
}
330
47
100
AcDbScale
 70
     0
300
1:8
140
1.0
141
8.0
290
     0
  0
SCALE
  5
4D
102
{ACAD_REACTORS
330
47
102
}
330
47
100
AcDbScale
 70
     0
300
1:10
140
1.0
141
10.0
290
     0
  0
SCALE
  5
4E
102
{ACAD_REACTORS
330
47
102
}
330
47
100
AcDbScale
 70
     0
300
1:16
140
1.0
141
16.0
290
     0
  0
SCALE
  5
4F
102
{ACAD_REACTORS
330
47
102
}
330
47
100
AcDbScale
 70
     0
300
1:20
140
1.0
141
20.0
290
     0
  0
SCALE
  5
50
102
{ACAD_REACTORS
330
47
102
}
330
47
100
AcDbScale
 70
     0
300
1:30
140
1.0
141
30.0
290
     0
  0
SCALE
  5
51
102
{ACAD_REACTORS
330
47
102
}
330
47
100
AcDbScale
 70
     0
300
1:40
140
1.0
141
40.0
290
     0
  0
SCALE
  5
52
102
{ACAD_REACTORS
330
47
102
}
330
47
100
AcDbScale
 70
     0
300
1:50
140
1.0
141
50.0
290
     0
  0
SCALE
  5
53
102
{ACAD_REACTORS
330
47
102
}
330
47
100
AcDbScale
 70
     0
300
1:100
140
1.0
141
100.0
290
     0
  0
SCALE
  5
54
102
{ACAD_REACTORS
330
47
102
}
330
47
100
AcDbScale
 70
     0
300
2:1
140
2.0
141
1.0
290
     0
  0
SCALE
  5
55
102
{ACAD_REACTORS
330
47
102
}
330
47
100
AcDbScale
 70
     0
300
4:1
140
4.0
141
1.0
290
     0
  0
SCALE
  5
56
102
{ACAD_REACTORS
330
47
102
}
330
47
100
AcDbScale
 70
     0
300
8:1
140
8.0
141
1.0
290
     0
  0
SCALE
  5
57
102
{ACAD_REACTORS
330
47
102
}
330
47
100
AcDbScale
 70
     0
300
10:1
140
10.0
141
1.0
290
     0
  0
SCALE
  5
58
102
{ACAD_REACTORS
330
47
102
}
330
47
100
AcDbScale
 70
     0
300
100:1
140
100.0
141
1.0
290
     0
  0
SCALE
  5
59
102
{ACAD_REACTORS
330
47
102
}
330
47
100
AcDbScale
 70
     0
300
1/128" = 1'-0"
140
0.0078125
141
12.0
290
     0
  0
SCALE
  5
5A
102
{ACAD_REACTORS
330
47
102
}
330
47
100
AcDbScale
 70
     0
300
1/64" = 1'-0"
140
0.015625
141
12.0
290
     0
  0
SCALE
  5
5B
102
{ACAD_REACTORS
330
47
102
}
330
47
100
AcDbScale
 70
     0
300
1/32" = 1'-0"
140
0.03125
141
12.0
290
     0
  0
SCALE
  5
5C
102
{ACAD_REACTORS
330
47
102
}
330
47
100
AcDbScale
 70
     0
300
1/16" = 1'-0"
140
0.0625
141
12.0
290
     0
  0
SCALE
  5
5D
102
{ACAD_REACTORS
330
47
102
}
330
47
100
AcDbScale
 70
     0
300
3/32" = 1'-0"
140
0.09375
141
12.0
290
     0
  0
SCALE
  5
5E
102
{ACAD_REACTORS
330
47
102
}
330
47
100
AcDbScale
 70
     0
300
1/8" = 1'-0"
140
0.125
141
12.0
290
     0
  0
SCALE
  5
5F
102
{ACAD_REACTORS
330
47
102
}
330
47
100
AcDbScale
 70
     0
300
3/16" = 1'-0"
140
0.1875
141
12.0
290
     0
  0
SCALE
  5
60
102
{ACAD_REACTORS
330
47
102
}
330
47
100
AcDbScale
 70
     0
300
1/4" = 1'-0"
140
0.25
141
12.0
290
     0
  0
SCALE
  5
61
102
{ACAD_REACTORS
330
47
102
}
330
47
100
AcDbScale
 70
     0
300
3/8" = 1'-0"
140
0.375
141
12.0
290
     0
  0
SCALE
  5
62
102
{ACAD_REACTORS
330
47
102
}
330
47
100
AcDbScale
 70
     0
300
1/2" = 1'-0"
140
0.5
141
12.0
290
     0
  0
SCALE
  5
63
102
{ACAD_REACTORS
330
47
102
}
330
47
100
AcDbScale
 70
     0
300
3/4" = 1'-0"
140
0.75
141
12.0
290
     0
  0
SCALE
  5
64
102
{ACAD_REACTORS
330
47
102
}
330
47
100
AcDbScale
 70
     0
300
1" = 1'-0"
140
1.0
141
12.0
290
     0
  0
SCALE
  5
65
102
{ACAD_REACTORS
330
47
102
}
330
47
100
AcDbScale
 70
     0
300
1-1/2" = 1'-0"
140
1.5
141
12.0
290
     0
  0
SCALE
  5
66
102
{ACAD_REACTORS
330
47
102
}
330
47
100
AcDbScale
 70
     0
300
3" = 1'-0"
140
3.0
141
12.0
290
     0
  0
SCALE
  5
67
102
{ACAD_REACTORS
330
47
102
}
330
47
100
AcDbScale
 70
     0
300
6" = 1'-0"
140
6.0
141
12.0
290
     0
  0
SCALE
  5
68
102
{ACAD_REACTORS
330
47
102
}
330
47
100
AcDbScale
 70
     0
300
1'-0" = 1'-0"
140
12.0
141
12.0
290
     0
  0
ENDSEC
  0
EOF
