  0
SECTION
  2
HEADER
  9
$ACADVER
  1
AC1015
  9
$ACADMAINTVER
 70
     6
  9
$DWGCODEPAGE
  3
ANSI_950
  9
$INSBASE
 10
0.0
 20
0.0
 30
0.0
  9
$EXTMIN
 10
0.0
 20
0.0
 30
0.0
  9
$EXTMAX
 10
297.0
 20
210.0
 30
0.0
  9
$LIMMIN
 10
0.0
 20
0.0
  9
$LIMMAX
 10
297.0
 20
210.0
  9
$ORTHOMODE
 70
     0
  9
$REGENMODE
 70
     1
  9
$FILLMODE
 70
     1
  9
$QTEXTMODE
 70
     0
  9
$MIRRTEXT
 70
     1
  9
$LTSCALE
 40
1.0
  9
$ATTMODE
 70
     1
  9
$TEXTSIZE
 40
2.5
  9
$TRACEWID
 40
1.0
  9
$TEXTSTYLE
  7
Standard
  9
$CLAYER
  8
0
  9
$CELTYPE
  6
ByLayer
  9
$CECOLOR
 62
   256
  9
$CELTSCALE
 40
1.0
  9
$DISPSILH
 70
     0
  9
$DIMSCALE
 40
1.0
  9
$DIMASZ
 40
2.0
  9
$DIMEXO
 40
1.0
  9
$DIMDLI
 40
3.75
  9
$DIMRND
 40
0.0
  9
$DIMDLE
 40
0.0
  9
$DIMEXE
 40
1.0
  9
$DIMTP
 40
0.0
  9
$DIMTM
 40
0.0
  9
$DIMTXT
 40
2.5
  9
$DIMCEN
 40
2.5
  9
$DIMTSZ
 40
0.0
  9
$DIMTOL
 70
     0
  9
$DIMLIM
 70
     0
  9
$DIMTIH
 70
     1
  9
$DIMTOH
 70
     1
  9
$DIMSE1
 70
     0
  9
$DIMSE2
 70
     0
  9
$DIMTAD
 70
     1
  9
$DIMZIN
 70
     0
  9
$DIMBLK
  1

  9
$DIMASO
 70
     1
  9
$DIMSHO
 70
     1
  9
$DIMPOST
  1

  9
$DIMAPOST
  1

  9
$DIMALT
 70
     0
  9
$DIMALTD
 70
     3
  9
$DIMALTF
 40
0.0393700787
  9
$DIMLFAC
 40
1.0
  9
$DIMTOFL
 70
     1
  9
$DIMTVP
 40
0.0
  9
$DIMTIX
 70
     0
  9
$DIMSOXD
 70
     0
  9
$DIMSAH
 70
     0
  9
$DIMBLK1
  1

  9
$DIMBLK2
  1

  9
$DIMSTYLE
  2
ISO-25
  9
$DIMCLRD
 70
     0
  9
$DIMCLRE
 70
     0
  9
$DIMCLRT
 70
     0
  9
$DIMTFAC
 40
1.0
  9
$DIMGAP
 40
1.0
  9
$DIMJUST
 70
     0
  9
$DIMSD1
 70
     0
  9
$DIMSD2
 70
     0
  9
$DIMTOLJ
 70
     0
  9
$DIMTZIN
 70
     0
  9
$DIMALTZ
 70
     0
  9
$DIMALTTZ
 70
     0
  9
$DIMUPT
 70
     0
  9
$DIMDEC
 70
     2
  9
$DIMTDEC
 70
     2
  9
$DIMALTU
 70
     2
  9
$DIMALTTD
 70
     3
  9
$DIMTXSTY
  7
Standard
  9
$DIMAUNIT
 70
     0
  9
$DIMADEC
 70
     1
  9
$DIMALTRND
 40
0.0
  9
$DIMAZIN
 70
     0
  9
$DIMDSEP
 70
    44
  9
$DIMATFIT
 70
     3
  9
$DIMFRAC
 70
     0
  9
$DIMLDRBLK
  1

  9
$DIMLUNIT
 70
     2
  9
$DIMLWD
 70
    -2
  9
$DIMLWE
 70
    -2
  9
$DIMTMOVE
 70
     0
  9
$LUNITS
 70
     2
  9
$LUPREC
 70
     2
  9
$SKETCHINC
 40
1.0
  9
$FILLETRAD
 40
10.0
  9
$AUNITS
 70
     0
  9
$AUPREC
 70
     1
  9
$MENU
  1
.
  9
$ELEVATION
 40
0.0
  9
$PELEVATION
 40
0.0
  9
$THICKNESS
 40
0.0
  9
$LIMCHECK
 70
     0
  9
$CHAMFERA
 40
0.0
  9
$CHAMFERB
 40
0.0
  9
$CHAMFERC
 40
0.0
  9
$CHAMFERD
 40
0.0
  9
$SKPOLY
 70
     0
  9
$TDCREATE
 40
2457836.499020197
  9
$TDUCREATE
 40
2457836.165686863
  9
$TDUPDATE
 40
2457836.499031053
  9
$TDUUPDATE
 40
2457836.16569772
  9
$TDINDWG
 40
0.0000000116
  9
$TDUSRTIMER
 40
0.0000000116
  9
$USRTIMER
 70
     1
  9
$ANGBASE
 50
0.0
  9
$ANGDIR
 70
     0
  9
$PDMODE
 70
     0
  9
$PDSIZE
 40
-1.0
  9
$PLINEWID
 40
0.0
  9
$SPLFRAME
 70
     0
  9
$SPLINETYPE
 70
     6
  9
$SPLINESEGS
 70
     8
  9
$HANDSEED
  5
213
  9
$SURFTAB1
 70
     6
  9
$SURFTAB2
 70
     6
  9
$SURFTYPE
 70
     6
  9
$SURFU
 70
     6
  9
$SURFV
 70
     6
  9
$UCSBASE
  2

  9
$UCSNAME
  2

  9
$UCSORG
 10
0.0
 20
0.0
 30
0.0
  9
$UCSXDIR
 10
1.0
 20
0.0
 30
0.0
  9
$UCSYDIR
 10
0.0
 20
1.0
 30
0.0
  9
$UCSORTHOREF
  2

  9
$UCSORTHOVIEW
 70
     0
  9
$UCSORGTOP
 10
0.0
 20
0.0
 30
0.0
  9
$UCSORGBOTTOM
 10
0.0
 20
0.0
 30
0.0
  9
$UCSORGLEFT
 10
0.0
 20
0.0
 30
0.0
  9
$UCSORGRIGHT
 10
0.0
 20
0.0
 30
0.0
  9
$UCSORGFRONT
 10
0.0
 20
0.0
 30
0.0
  9
$UCSORGBACK
 10
0.0
 20
0.0
 30
0.0
  9
$PUCSBASE
  2

  9
$PUCSNAME
  2

  9
$PUCSORG
 10
0.0
 20
0.0
 30
0.0
  9
$PUCSXDIR
 10
1.0
 20
0.0
 30
0.0
  9
$PUCSYDIR
 10
0.0
 20
1.0
 30
0.0
  9
$PUCSORTHOREF
  2

  9
$PUCSORTHOVIEW
 70
     0
  9
$PUCSORGTOP
 10
0.0
 20
0.0
 30
0.0
  9
$PUCSORGBOTTOM
 10
0.0
 20
0.0
 30
0.0
  9
$PUCSORGLEFT
 10
0.0
 20
0.0
 30
0.0
  9
$PUCSORGRIGHT
 10
0.0
 20
0.0
 30
0.0
  9
$PUCSORGFRONT
 10
0.0
 20
0.0
 30
0.0
  9
$PUCSORGBACK
 10
0.0
 20
0.0
 30
0.0
  9
$USERI1
 70
     0
  9
$USERI2
 70
     0
  9
$USERI3
 70
     0
  9
$USERI4
 70
     0
  9
$USERI5
 70
     0
  9
$USERR1
 40
0.0
  9
$USERR2
 40
0.0
  9
$USERR3
 40
0.0
  9
$USERR4
 40
0.0
  9
$USERR5
 40
0.0
  9
$WORLDVIEW
 70
     1
  9
$SHADEDGE
 70
     3
  9
$SHADEDIF
 70
    70
  9
$TILEMODE
 70
     1
  9
$MAXACTVP
 70
    64
  9
$PINSBASE
 10
0.0
 20
0.0
 30
0.0
  9
$PLIMCHECK
 70
     0
  9
$PEXTMIN
 10
1.0000000000E+20
 20
1.0000000000E+20
 30
1.0000000000E+20
  9
$PEXTMAX
 10
-1.0000000000E+20
 20
-1.0000000000E+20
 30
-1.0000000000E+20
  9
$PLIMMIN
 10
0.0
 20
0.0
  9
$PLIMMAX
 10
420.0
 20
297.0
  9
$UNITMODE
 70
     0
  9
$VISRETAIN
 70
     1
  9
$PLINEGEN
 70
     0
  9
$PSLTSCALE
 70
     1
  9
$TREEDEPTH
 70
  3020
  9
$CMLSTYLE
  2
Standard
  9
$CMLJUST
 70
     0
  9
$CMLSCALE
 40
20.0
  9
$PROXYGRAPHICS
 70
     1
  9
$MEASUREMENT
 70
     1
  9
$CELWEIGHT
370
    -1
  9
$ENDCAPS
280
     0
  9
$JOINSTYLE
280
     0
  9
$LWDISPLAY
290
     1
  9
$INSUNITS
 70
     4
  9
$HYPERLINKBASE
  1

  9
$STYLESHEET
  1

  9
$XEDIT
290
     1
  9
$CEPSNTYPE
380
     0
  9
$PSTYLEMODE
290
     1
  9
$FINGERPRINTGUID
  2
{522A4B8F-E649-4089-88FD-5777774750BB}
  9
$VERSIONGUID
  2
{FAEB1C32-E019-11D5-929B-00C0DF256EC4}
  9
$EXTNAMES
290
     1
  9
$PSVPSCALE
 40
0.0
  9
$OLESTARTUP
290
     0
  0
ENDSEC
  0
SECTION
  2
CLASSES
  0
CLASS
  1
ACDBDICTIONARYWDFLT
  2
AcDbDictionaryWithDefault
  3
ObjectDBX Classes
 90
        0
280
     0
281
     0
  0
CLASS
  1
VISUALSTYLE
  2
AcDbVisualStyle
  3
ObjectDBX Classes
 90
     4095
280
     0
281
     0
  0
CLASS
  1
MATERIAL
  2
AcDbMaterial
  3
ObjectDBX Classes
 90
     1153
280
     0
281
     0
  0
CLASS
  1
SCALE
  2
AcDbScale
  3
ObjectDBX Classes
 90
     1153
280
     0
281
     0
  0
CLASS
  1
TABLESTYLE
  2
AcDbTableStyle
  3
ObjectDBX Classes
 90
     4095
280
     0
281
     0
  0
CLASS
  1
MLEADERSTYLE
  2
AcDbMLeaderStyle
  3
ACDB_MLEADERSTYLE_CLASS
 90
     4095
280
     0
281
     0
  0
CLASS
  1
SUN
  2
AcDbSun
  3
SCENEOE
 90
     1153
280
     0
281
     0
  0
CLASS
  1
ACDBPLACEHOLDER
  2
AcDbPlaceHolder
  3
ObjectDBX Classes
 90
        0
280
     0
281
     0
  0
CLASS
  1
LAYOUT
  2
AcDbLayout
  3
ObjectDBX Classes
 90
        0
280
     0
281
     0
  0
ENDSEC
  0
SECTION
  2
TABLES
  0
TABLE
  2
VPORT
  5
8
330
0
100
AcDbSymbolTable
 70
     1
  0
VPORT
  5
29
330
8
100
AcDbSymbolTableRecord
100
AcDbViewportTableRecord
  2
*Active
 70
     0
 10
0.0
 20
0.0
 11
1.0
 21
1.0
 12
148.5
 22
105.0
 13
0.0
 23
0.0
 14
10.0
 24
10.0
 15
10.0
 25
10.0
 16
0.0
 26
0.0
 36
1.0
 17
0.0
 27
0.0
 37
0.0
 40
210.0
 41
1.4142857143
 42
50.0
 43
0.0
 44
0.0
 50
0.0
 51
0.0
 71
     0
 72
  2000
 73
     1
 74
     3
 75
     0
 76
     0
 77
     0
 78
     0
281
     0
 65
     1
110
0.0
120
0.0
130
0.0
111
1.0
121
0.0
131
0.0
112
0.0
122
1.0
132
0.0
 79
     0
146
0.0
  0
ENDTAB
  0
TABLE
  2
LTYPE
  5
5
330
0
100
AcDbSymbolTable
 70
     6
  0
LTYPE
  5
14
330
5
100
AcDbSymbolTableRecord
100
AcDbLinetypeTableRecord
  2
ByBlock
 70
     0
  3

 72
    65
 73
     0
 40
0.0
  0
LTYPE
  5
15
330
5
100
AcDbSymbolTableRecord
100
AcDbLinetypeTableRecord
  2
ByLayer
 70
     0
  3

 72
    65
 73
     0
 40
0.0
  0
LTYPE
  5
16
330
5
100
AcDbSymbolTableRecord
100
AcDbLinetypeTableRecord
  2
Continuous
 70
     0
  3
Solid line
 72
    65
 73
     0
 40
0.0
  0
LTYPE
  5
6E
330
5
100
AcDbSymbolTableRecord
100
AcDbLinetypeTableRecord
  2
HIDDEN
 70
     0
  3
Hidden __ __ __ __ __ __ __ __ __ __ __ __ __ __
 72
    65
 73
     2
 40
1.905
 49
1.27
 74
     0
 49
-0.635
 74
     0
  0
LTYPE
  5
6F
330
5
100
AcDbSymbolTableRecord
100
AcDbLinetypeTableRecord
  2
PHANTOM
 70
     0
  3
Phantom ______  __  __  ______  __  __  ______
 72
    65
 73
     6
 40
12.7
 49
6.35
 74
     0
 49
-1.27
 74
     0
 49
1.27
 74
     0
 49
-1.27
 74
     0
 49
1.27
 74
     0
 49
-1.27
 74
     0
  0
LTYPE
  5
70
330
5
100
AcDbSymbolTableRecord
100
AcDbLinetypeTableRecord
  2
CENTER
 70
     0
  3
Center ____ _ ____ _ ____ _ ____ _ ____ _ ____
 72
    65
 73
     4
 40
10.16
 49
6.35
 74
     0
 49
-1.27
 74
     0
 49
1.27
 74
     0
 49
-1.27
 74
     0
  0
LTYPE
  5
71
330
5
100
AcDbSymbolTableRecord
100
AcDbLinetypeTableRecord
  2
CENTERX2
 70
     0
  3
Center (2x) ________  __  ________  __  _____
 72
    65
 73
     4
 40
20.32
 49
12.7
 74
     0
 49
-2.54
 74
     0
 49
2.54
 74
     0
 49
-2.54
 74
     0
  0
LTYPE
  5
72
330
5
100
AcDbSymbolTableRecord
100
AcDbLinetypeTableRecord
  2
DOT2
 70
     0
  3
Dot (.5x) ........................................
 72
    65
 73
     2
 40
0.635
 49
0.0
 74
     0
 49
-0.635
 74
     0
  0
ENDTAB
  0
TABLE
  2
LAYER
  5
2
330
0
100
AcDbSymbolTable
 70
     3
  0
LAYER
  5
10
330
2
100
AcDbSymbolTableRecord
100
AcDbLayerTableRecord
  2
0
 70
     0
 62
     7
  6
Continuous
370
    -3
390
F
  0
LAYER
  5
73
330
2
100
AcDbSymbolTableRecord
100
AcDbLayerTableRecord
  2
SLD-0
 70
     0
 62
   179
  6
Continuous
370
    15
390
F
  0
LAYER
  5
74
330
2
100
AcDbSymbolTableRecord
100
AcDbLayerTableRecord
  2
DIM
 70
     0
 62
     7
  6
Continuous
370
    -3
390
F
  0
ENDTAB
  0
TABLE
  2
STYLE
  5
3
330
0
100
AcDbSymbolTable
 70
     3
  0
STYLE
  5
11
330
3
100
AcDbSymbolTableRecord
100
AcDbTextStyleTableRecord
  2
Standard
 70
     0
 40
0.0
 41
1.0
 50
0.0
 71
     0
 42
2.5
  3
txt
  4

  0
STYLE
  5
C5
330
3
100
AcDbSymbolTableRecord
100
AcDbTextStyleTableRecord
  2
SLDTEXTSTYLE0
 70
     0
 40
0.0
 41
0.605
 50
0.0
 71
     0
 42
2.5
  3
TXT
  4

  0
STYLE
  5
CE
330
3
100
AcDbSymbolTableRecord
100
AcDbTextStyleTableRecord
  2
SLDTEXTSTYLE1
 70
     0
 40
0.0
 41
0.7
 50
0.0
 71
     0
 42
2.5
  3
TXT
  4

  0
ENDTAB
  0
TABLE
  2
VIEW
  5
6
330
0
100
AcDbSymbolTable
 70
     0
  0
ENDTAB
  0
TABLE
  2
UCS
  5
7
330
0
100
AcDbSymbolTable
 70
     0
  0
ENDTAB
  0
TABLE
  2
APPID
  5
9
330
0
100
AcDbSymbolTable
 70
     1
  0
APPID
  5
12
330
9
100
AcDbSymbolTableRecord
100
AcDbRegAppTableRecord
  2
ACAD
 70
     0
  0
ENDTAB
  0
TABLE
  2
DIMSTYLE
  5
A
330
0
100
AcDbSymbolTable
 70
     5
100
AcDbDimStyleTable
  0
DIMSTYLE
105
27
330
A
100
AcDbSymbolTableRecord
100
AcDbDimStyleTableRecord
  2
ISO-25
 70
     0
 41
2.5
 42
0.625
 43
3.75
 44
1.25
 73
     0
 74
     0
 77
     1
 78
     8
140
2.5
141
2.5
143
0.0393700787
147
0.625
171
     3
172
     1
178
     0
271
     2
272
     2
274
     3
278
    44
283
     0
284
     8
340
11
  0
DIMSTYLE
105
130
102
{ACAD_REACTORS
330
12F
330
13B
330
145
330
15A
330
195
330
1A9
102
}
330
A
100
AcDbSymbolTableRecord
100
AcDbDimStyleTableRecord
  2
SLDDIMSTYLE0
 70
     0
 41
2.0
 44
0.0
 45
0.000000001
 73
     0
 74
     0
 77
     1
 78
    12
 79
     3
140
2.5
147
0.625
173
     1
178
     0
271
     2
272
     2
276
     2
284
    12
340
C5
  0
DIMSTYLE
105
150
102
{ACAD_REACTORS
330
14F
102
}
330
A
100
AcDbSymbolTableRecord
100
AcDbDimStyleTableRecord
  2
SLDDIMSTYLE1
 70
     0
 41
2.0
 44
0.0
 45
0.000000001
 78
    12
 79
     3
140
2.5
141
0.0
147
0.625
173
     1
178
     0
271
     2
272
     2
276
     2
284
    12
340
C5
  0
DIMSTYLE
105
16B
330
A
100
AcDbSymbolTableRecord
100
AcDbDimStyleTableRecord
  2
SLDDIMSTYLE2
 70
     0
 41
2.0
 44
0.0
 45
0.000000001
146
2.0
147
0.0
173
     1
178
     0
271
     0
272
     0
276
     2
340
11
  0
DIMSTYLE
105
1A0
102
{ACAD_REACTORS
330
19F
102
}
330
A
100
AcDbSymbolTableRecord
100
AcDbDimStyleTableRecord
  2
SLDDIMSTYLE3
 70
     0
 41
2.0
 44
0.0
 73
     0
 74
     0
 77
     1
 78
    12
 79
     3
140
2.5
147
0.625
173
     1
178
     0
179
     1
272
     1
276
     2
284
    12
340
C5
  0
ENDTAB
  0
TABLE
  2
BLOCK_RECORD
  5
1
330
0
100
AcDbSymbolTable
 70
    14
  0
BLOCK_RECORD
  5
1F
330
1
100
AcDbSymbolTableRecord
100
AcDbBlockTableRecord
  2
*Model_Space
340
22
  0
BLOCK_RECORD
  5
1B
330
1
100
AcDbSymbolTableRecord
100
AcDbBlockTableRecord
  2
*Paper_Space
340
1E
  0
BLOCK_RECORD
  5
23
330
1
100
AcDbSymbolTableRecord
100
AcDbBlockTableRecord
  2
*Paper_Space0
340
26
  0
BLOCK_RECORD
  5
C7
330
1
100
AcDbSymbolTableRecord
100
AcDbBlockTableRecord
  2
SW_NOTE_0
340
0
102
{BLKREFS
331
CD
102
}
  0
BLOCK_RECORD
  5
FE
330
1
100
AcDbSymbolTableRecord
100
AcDbBlockTableRecord
  2
SW_NOTE_1
340
0
102
{BLKREFS
331
103
102
}
  0
BLOCK_RECORD
  5
131
330
1
100
AcDbSymbolTableRecord
100
AcDbBlockTableRecord
  2
_D
340
0
  0
BLOCK_RECORD
  5
13C
330
1
100
AcDbSymbolTableRecord
100
AcDbBlockTableRecord
  2
_D_1
340
0
  0
BLOCK_RECORD
  5
146
330
1
100
AcDbSymbolTableRecord
100
AcDbBlockTableRecord
  2
_D_2
340
0
  0
BLOCK_RECORD
  5
151
330
1
100
AcDbSymbolTableRecord
100
AcDbBlockTableRecord
  2
_D_3
340
0
  0
BLOCK_RECORD
  5
15B
330
1
100
AcDbSymbolTableRecord
100
AcDbBlockTableRecord
  2
_D_4
340
0
  0
BLOCK_RECORD
  5
164
330
1
100
AcDbSymbolTableRecord
100
AcDbBlockTableRecord
  2
SW_NOTE_2
340
0
102
{BLKREFS
331
16A
102
}
  0
BLOCK_RECORD
  5
16D
330
1
100
AcDbSymbolTableRecord
100
AcDbBlockTableRecord
  2
SW_CENTERMARKSYMBOL_0
340
0
102
{BLKREFS
331
178
102
}
  0
BLOCK_RECORD
  5
196
330
1
100
AcDbSymbolTableRecord
100
AcDbBlockTableRecord
  2
_D_5
340
0
  0
BLOCK_RECORD
  5
1A1
330
1
100
AcDbSymbolTableRecord
100
AcDbBlockTableRecord
  2
_D_6
340
0
  0
BLOCK_RECORD
  5
1AA
330
1
100
AcDbSymbolTableRecord
100
AcDbBlockTableRecord
  2
_D_7
340
0
  0
BLOCK_RECORD
  5
1B3
330
1
100
AcDbSymbolTableRecord
100
AcDbBlockTableRecord
  2
SW_CENTERMARKSYMBOL_1
340
0
102
{BLKREFS
331
1BE
102
}
  0
ENDTAB
  0
ENDSEC
  0
SECTION
  2
BLOCKS
  0
BLOCK
  5
20
330
1F
100
AcDbEntity
  8
0
100
AcDbBlockBegin
  2
*Model_Space
 70
     0
 10
0.0
 20
0.0
 30
0.0
  3
*Model_Space
  1

  0
ENDBLK
  5
21
330
1F
100
AcDbEntity
  8
0
100
AcDbBlockEnd
  0
BLOCK
  5
1C
330
1B
100
AcDbEntity
 67
     1
  8
0
100
AcDbBlockBegin
  2
*Paper_Space
 70
     0
 10
0.0
 20
0.0
 30
0.0
  3
*Paper_Space
  1

  0
ENDBLK
  5
1D
330
1B
100
AcDbEntity
 67
     1
  8
0
100
AcDbBlockEnd
  0
BLOCK
  5
24
330
23
100
AcDbEntity
  8
0
100
AcDbBlockBegin
  2
*Paper_Space0
 70
     0
 10
0.0
 20
0.0
 30
0.0
  3
*Paper_Space0
  1

  0
ENDBLK
  5
25
330
23
100
AcDbEntity
  8
0
100
AcDbBlockEnd
  0
BLOCK
  5
C8
330
C7
100
AcDbEntity
  8
0
100
AcDbBlockBegin
  2
SW_NOTE_0
 70
     0
 10
0.0
 20
0.0
 30
0.0
  3
SW_NOTE_0
  1

  0
MTEXT
  5
CA
330
C7
100
AcDbEntity
  8
0
  6
Continuous
 62
     0
370
     0
100
AcDbMText
 10
0.0
 20
3.4106583948
 30
0.0
 40
2.6458333333
 41
0.0
 71
     1
 72
     1
  1
PROPRIETARY AND CONFIDENTIAL
  7
SLDTEXTSTYLE0
 73
     1
 44
1.0
  0
MTEXT
  5
CB
330
C7
100
AcDbEntity
  8
0
  6
Continuous
 62
     0
370
     0
100
AcDbMText
 10
0.0
 20
-0.08198348
 30
0.0
 40
1.8520833333
 41
0.0
 71
     1
 72
     1
  1
THE INFORMATION CONTAINED IN THIS DRAWING IS THE SOLE PROPERTY OF UNICE E-O SERVICES INC. ANY REPRODUCTION IN PART OR AS A WHOLE WITHOUT THE WRITTEN PERMISSION OF UNICE E-O SERVICES INC IS
  7
SLDTEXTSTYLE0
 73
     1
 44
1.0
  0
MTEXT
  5
CC
330
C7
100
AcDbEntity
  8
0
  6
Continuous
 62
     0
370
     0
100
AcDbMText
 10
0.0
 20
-2.5514278946
 30
0.0
 40
1.8520833333
 41
0.0
 71
     1
 72
     1
  1
PROHIBITED.
  7
SLDTEXTSTYLE0
 73
     1
 44
1.0
  0
ENDBLK
  5
C9
330
C7
100
AcDbEntity
  8
0
100
AcDbBlockEnd
  0
BLOCK
  5
FF
330
FE
100
AcDbEntity
  8
0
100
AcDbBlockBegin
  2
SW_NOTE_1
 70
     0
 10
0.0
 20
0.0
 30
0.0
  3
SW_NOTE_1
  1

  0
MTEXT
  5
101
330
FE
100
AcDbEntity
  8
SLD-0
 62
     0
100
AcDbMText
 10
0.0
 20
2.3874608764
 30
0.0
 40
1.8520833333
 41
0.0
 71
     1
 72
     1
  1
No.5, Andong Rd., Chung Li District,
  7
SLDTEXTSTYLE1
 73
     1
 44
1.0
  0
MTEXT
  5
102
330
FE
100
AcDbEntity
  8
SLD-0
 62
     0
100
AcDbMText
 10
0.0
 20
-0.0819835382
 30
0.0
 40
1.8520833333
 41
0.0
 71
     1
 72
     1
  1
Taoyuan City 32063, Taiwan, R.O.C.
  7
SLDTEXTSTYLE1
 73
     1
 44
1.0
  0
ENDBLK
  5
100
330
FE
100
AcDbEntity
  8
0
100
AcDbBlockEnd
  0
BLOCK
  5
132
330
131
100
AcDbEntity
  8
0
100
AcDbBlockBegin
  2
_D
 70
     0
 10
0.0
 20
0.0
 30
0.0
  3
_D
  1

  0
SOLID
  5
134
330
131
100
AcDbEntity
  8
SLD-0
 62
     7
100
AcDbTrace
 10
89.9705155846
 20
62.2205109573
 30
0.0
 11
87.9705155846
 21
62.4705109573
 31
0.0
 12
87.9705155846
 22
61.9705109573
 32
0.0
 13
87.9705155846
 23
61.9705109573
 33
0.0
  0
SOLID
  5
135
330
131
100
AcDbEntity
  8
SLD-0
 62
     7
100
AcDbTrace
 10
74.9705155846
 20
62.2205109573
 30
0.0
 11
76.9705155846
 21
61.9705109573
 31
0.0
 12
76.9705155846
 22
62.4705109573
 32
0.0
 13
76.9705155846
 23
62.4705109573
 33
0.0
  0
LINE
  5
136
330
131
100
AcDbEntity
  8
SLD-0
 62
     7
100
AcDbLine
 10
89.9705155846
 20
77.2318827294
 30
0.0
 11
89.9705155846
 21
61.2205109573
 31
0.0
  0
LINE
  5
137
330
131
100
AcDbEntity
  8
SLD-0
 62
     7
100
AcDbLine
 10
74.9705155846
 20
77.2318827294
 30
0.0
 11
74.9705155846
 21
61.2205109573
 31
0.0
  0
LINE
  5
138
330
131
100
AcDbEntity
  8
SLD-0
 62
     7
100
AcDbLine
 10
89.9705155846
 20
62.2205109573
 30
0.0
 11
74.9705155846
 21
62.2205109573
 31
0.0
  0
MTEXT
  5
139
330
131
100
AcDbEntity
  8
SLD-0
 62
     7
100
AcDbMText
 10
78.7383106817
 20
65.4431800739
 30
0.0
 40
2.5
 41
0.0
 71
     1
 72
     1
  1
%%c
  7
SLDTEXTSTYLE0
 73
     1
 44
1.0
  0
MTEXT
  5
13A
330
131
100
AcDbEntity
  8
SLD-0
 62
     7
100
AcDbMText
 10
82.3832760379
 20
65.4501245389
 30
0.0
 40
2.5
 41
0.0
 71
     1
 72
     1
  1
15
  7
SLDTEXTSTYLE0
 73
     1
 44
1.0
  0
ENDBLK
  5
133
330
131
100
AcDbEntity
  8
0
100
AcDbBlockEnd
  0
BLOCK
  5
13D
330
13C
100
AcDbEntity
  8
0
100
AcDbBlockBegin
  2
_D_1
 70
     0
 10
0.0
 20
0.0
 30
0.0
  3
_D_1
  1

  0
SOLID
  5
13F
330
13C
100
AcDbEntity
  8
SLD-0
 62
     7
100
AcDbTrace
 10
56.8111785287
 20
115.7318827294
 30
0.0
 11
56.5611785287
 21
113.7318827294
 31
0.0
 12
57.0611785287
 22
113.7318827294
 32
0.0
 13
57.0611785287
 23
113.7318827294
 33
0.0
  0
SOLID
  5
140
330
13C
100
AcDbEntity
  8
SLD-0
 62
     7
100
AcDbTrace
 10
56.8111785287
 20
78.2318827294
 30
0.0
 11
57.0611785287
 21
80.2318827294
 31
0.0
 12
56.5611785287
 22
80.2318827294
 32
0.0
 13
56.5611785287
 23
80.2318827294
 33
0.0
  0
LINE
  5
141
330
13C
100
AcDbEntity
  8
SLD-0
 62
     7
100
AcDbLine
 10
69.4705155846
 20
115.7318827294
 30
0.0
 11
55.8111785287
 21
115.7318827294
 31
0.0
  0
LINE
  5
142
330
13C
100
AcDbEntity
  8
SLD-0
 62
     7
100
AcDbLine
 10
73.9705155846
 20
78.2318827294
 30
0.0
 11
55.8111785287
 21
78.2318827294
 31
0.0
  0
LINE
  5
143
330
13C
100
AcDbEntity
  8
SLD-0
 62
     7
100
AcDbLine
 10
56.8111785287
 20
115.7318827294
 30
0.0
 11
56.8111785287
 21
78.2318827294
 31
0.0
  0
MTEXT
  5
144
330
13C
100
AcDbEntity
  8
SLD-0
 62
     7
100
AcDbMText
 10
53.5885093539
 20
93.6398689233
 30
0.0
 40
2.5
 41
0.0
 71
     1
 72
     1
  1
37.5
  7
SLDTEXTSTYLE0
 11
-7.044195017643634E-15
 21
1.0
 31
0.0
 73
     1
 44
1.0
  0
ENDBLK
  5
13E
330
13C
100
AcDbEntity
  8
0
100
AcDbBlockEnd
  0
BLOCK
  5
147
330
146
100
AcDbEntity
  8
0
100
AcDbBlockBegin
  2
_D_2
 70
     0
 10
0.0
 20
0.0
 30
0.0
  3
_D_2
  1

  0
SOLID
  5
149
330
146
100
AcDbEntity
  8
SLD-0
 62
     7
100
AcDbTrace
 10
99.9705155846
 20
142.0645067936
 30
0.0
 11
97.9705155846
 21
142.3145067936
 31
0.0
 12
97.9705155846
 22
141.8145067936
 32
0.0
 13
97.9705155846
 23
141.8145067936
 33
0.0
  0
SOLID
  5
14A
330
146
100
AcDbEntity
  8
SLD-0
 62
     7
100
AcDbTrace
 10
64.9705155846
 20
142.0645067936
 30
0.0
 11
66.9705155846
 21
141.8145067936
 31
0.0
 12
66.9705155846
 22
142.3145067936
 32
0.0
 13
66.9705155846
 23
142.3145067936
 33
0.0
  0
LINE
  5
14B
330
146
100
AcDbEntity
  8
SLD-0
 62
     7
100
AcDbLine
 10
99.9705155846
 20
116.7318827294
 30
0.0
 11
99.9705155846
 21
143.0645067936
 31
0.0
  0
LINE
  5
14C
330
146
100
AcDbEntity
  8
SLD-0
 62
     7
100
AcDbLine
 10
64.9705155846
 20
116.7318827294
 30
0.0
 11
64.9705155846
 21
143.0645067936
 31
0.0
  0
LINE
  5
14D
330
146
100
AcDbEntity
  8
SLD-0
 62
     7
100
AcDbLine
 10
99.9705155846
 20
142.0645067936
 30
0.0
 11
64.9705155846
 21
142.0645067936
 31
0.0
  0
MTEXT
  5
14E
330
146
100
AcDbEntity
  8
SLD-0
 62
     7
100
AcDbMText
 10
80.5607933598
 20
145.2871759684
 30
0.0
 40
2.5
 41
0.0
 71
     1
 72
     1
  1
35
  7
SLDTEXTSTYLE0
 73
     1
 44
1.0
  0
ENDBLK
  5
148
330
146
100
AcDbEntity
  8
0
100
AcDbBlockEnd
  0
BLOCK
  5
152
330
151
100
AcDbEntity
  8
0
100
AcDbBlockBegin
  2
_D_3
 70
     0
 10
0.0
 20
0.0
 30
0.0
  3
_D_3
  1

  0
SOLID
  5
154
330
151
100
AcDbEntity
  8
SLD-0
100
AcDbTrace
 10
72.1570074986
 20
124.4428844491
 30
0.0
 11
70.7903952214
 21
125.9243941129
 31
0.0
 12
70.4677655281
 22
125.5424123319
 32
0.0
 13
70.4677655281
 23
125.5424123319
 33
0.0
  0
LINE
  5
155
330
151
100
AcDbEntity
  8
SLD-0
100
AcDbLine
 10
72.1570074986
 20
124.4428844491
 30
0.0
 11
54.8934138278
 21
139.0240718492
 31
0.0
  0
LINE
  5
156
330
151
100
AcDbEntity
  8
SLD-0
100
AcDbLine
 10
54.8934138278
 20
139.0240718492
 30
0.0
 11
33.1303915093
 21
139.0240718492
 31
0.0
  0
MTEXT
  5
157
330
151
100
AcDbEntity
  8
SLD-0
100
AcDbMText
 10
33.1303915093
 20
146.090491363
 30
0.0
 40
2.5
 41
0.0
 71
     1
 72
     1
  1
ACCEPTS
  7
SLDTEXTSTYLE0
 73
     1
 44
1.0
  0
MTEXT
  5
158
330
151
100
AcDbEntity
  8
SLD-0
100
AcDbMText
 10
33.1303915093
 20
142.2467414314
 30
0.0
 40
2.5
 41
0.0
 71
     1
 72
     1
  1
%%c
  7
SLDTEXTSTYLE0
 73
     1
 44
1.0
  0
MTEXT
  5
159
330
151
100
AcDbEntity
  8
SLD-0
100
AcDbMText
 10
36.7753568655
 20
142.2536858964
 30
0.0
 40
2.5
 41
0.0
 71
     1
 72
     1
  1
1" OPTICS
  7
SLDTEXTSTYLE0
 73
     1
 44
1.0
  0
ENDBLK
  5
153
330
151
100
AcDbEntity
  8
0
100
AcDbBlockEnd
  0
BLOCK
  5
15C
330
15B
100
AcDbEntity
  8
0
100
AcDbBlockBegin
  2
_D_4
 70
     0
 10
0.0
 20
0.0
 30
0.0
  3
_D_4
  1

  0
SOLID
  5
15E
330
15B
100
AcDbEntity
  8
SLD-0
100
AcDbTrace
 10
47.9032374045
 20
78.2318827294
 30
0.0
 11
48.1532374045
 21
80.2318827294
 31
0.0
 12
47.6532374045
 22
80.2318827294
 32
0.0
 13
47.6532374045
 23
80.2318827294
 33
0.0
  0
SOLID
  5
15F
330
15B
100
AcDbEntity
  8
SLD-0
100
AcDbTrace
 10
47.9032374045
 20
133.2318827294
 30
0.0
 11
47.6532374045
 21
131.2318827294
 31
0.0
 12
48.1532374045
 22
131.2318827294
 32
0.0
 13
48.1532374045
 23
131.2318827294
 33
0.0
  0
LINE
  5
160
330
15B
100
AcDbEntity
  8
SLD-0
100
AcDbLine
 10
73.9705155846
 20
78.2318827294
 30
0.0
 11
46.9032374045
 21
78.2318827294
 31
0.0
  0
LINE
  5
161
330
15B
100
AcDbEntity
  8
SLD-0
100
AcDbLine
 10
81.4705155846
 20
133.2318827294
 30
0.0
 11
46.9032374045
 21
133.2318827294
 31
0.0
  0
LINE
  5
162
330
15B
100
AcDbEntity
  8
SLD-0
100
AcDbLine
 10
47.9032374045
 20
78.2318827294
 30
0.0
 11
47.9032374045
 21
133.2318827294
 31
0.0
  0
MTEXT
  5
163
330
15B
100
AcDbEntity
  8
SLD-0
100
AcDbMText
 10
44.6805682297
 20
103.8221605046
 30
0.0
 40
2.5
 41
0.0
 71
     1
 72
     1
  1
55
  7
SLDTEXTSTYLE0
 11
6.123233995736766E-17
 21
1.0
 31
0.0
 73
     1
 44
1.0
  0
ENDBLK
  5
15D
330
15B
100
AcDbEntity
  8
0
100
AcDbBlockEnd
  0
BLOCK
  5
165
330
164
100
AcDbEntity
  8
0
100
AcDbBlockBegin
  2
SW_NOTE_2
 70
     0
 10
0.0
 20
0.0
 30
0.0
  3
SW_NOTE_2
  1

  0
LINE
  5
167
330
164
100
AcDbEntity
  8
SLD-0
 62
     0
100
AcDbLine
 10
-13.2869613627
 20
0.0
 30
0.0
 11
0.0
 21
0.0
 31
0.0
  0
MTEXT
  5
168
330
164
100
AcDbEntity
  8
SLD-0
 62
     0
100
AcDbMText
 10
-13.7827682787
 20
6.6222796194
 30
0.0
 40
2.5
 41
0.0
 71
     1
 72
     1
  1
1 HOLE,
  7
SLDTEXTSTYLE0
 73
     1
 44
1.0
  0
MTEXT
  5
169
330
164
100
AcDbEntity
  8
SLD-0
 62
     0
100
AcDbMText
 10
-12.8452682787
 20
3.1222795113
 30
0.0
 40
2.5
 41
0.0
 71
     1
 72
     1
  1
M6
  7
SLDTEXTSTYLE0
 73
     1
 44
1.0
  0
ENDBLK
  5
166
330
164
100
AcDbEntity
  8
0
100
AcDbBlockEnd
  0
BLOCK
  5
16E
330
16D
100
AcDbEntity
  8
0
100
AcDbBlockBegin
  2
SW_CENTERMARKSYMBOL_0
 70
     0
 10
0.0
 20
0.0
 30
0.0
  3
SW_CENTERMARKSYMBOL_0
  1

  0
LINE
  5
170
330
16D
100
AcDbEntity
  8
SLD-0
 62
     0
100
AcDbLine
 10
0.0
 20
0.0
 30
0.0
 11
0.0
 21
1.0
 31
0.0
  0
LINE
  5
171
330
16D
100
AcDbEntity
  8
SLD-0
 62
     0
100
AcDbLine
 10
0.0
 20
0.0
 30
0.0
 11
-1.0
 21
0.0
 31
0.0
  0
LINE
  5
172
330
16D
100
AcDbEntity
  8
SLD-0
 62
     0
100
AcDbLine
 10
0.0
 20
0.0
 30
0.0
 11
0.0
 21
-1.0
 31
0.0
  0
LINE
  5
173
330
16D
100
AcDbEntity
  8
SLD-0
 62
     0
100
AcDbLine
 10
0.0
 20
0.0
 30
0.0
 11
1.0
 21
0.0
 31
0.0
  0
LINE
  5
174
330
16D
100
AcDbEntity
  8
SLD-0
 62
     0
100
AcDbLine
 10
0.0
 20
2.0
 30
0.0
 11
0.0
 21
12.0
 31
0.0
  0
LINE
  5
175
330
16D
100
AcDbEntity
  8
SLD-0
 62
     0
100
AcDbLine
 10
-2.0
 20
0.0
 30
0.0
 11
-12.0
 21
0.0
 31
0.0
  0
LINE
  5
176
330
16D
100
AcDbEntity
  8
SLD-0
 62
     0
100
AcDbLine
 10
0.0
 20
-2.0
 30
0.0
 11
0.0
 21
-12.0
 31
0.0
  0
LINE
  5
177
330
16D
100
AcDbEntity
  8
SLD-0
 62
     0
100
AcDbLine
 10
2.0
 20
0.0
 30
0.0
 11
12.0
 21
0.0
 31
0.0
  0
ENDBLK
  5
16F
330
16D
100
AcDbEntity
  8
0
100
AcDbBlockEnd
  0
BLOCK
  5
197
330
196
100
AcDbEntity
  8
0
100
AcDbBlockBegin
  2
_D_5
 70
     0
 10
0.0
 20
0.0
 30
0.0
  3
_D_5
  1

  0
SOLID
  5
199
330
196
100
AcDbEntity
  8
SLD-0
 62
     7
100
AcDbTrace
 10
142.308045799
 20
140.2318827294
 30
0.0
 11
140.308045799
 21
140.4818827294
 31
0.0
 12
140.308045799
 22
139.9818827294
 32
0.0
 13
140.308045799
 23
139.9818827294
 33
0.0
  0
SOLID
  5
19A
330
196
100
AcDbEntity
  8
SLD-0
 62
     7
100
AcDbTrace
 10
132.308045799
 20
140.2318827294
 30
0.0
 11
134.308045799
 21
139.9818827294
 31
0.0
 12
134.308045799
 22
140.4818827294
 32
0.0
 13
134.308045799
 23
140.4818827294
 33
0.0
  0
LINE
  5
19B
330
196
100
AcDbEntity
  8
SLD-0
 62
     7
100
AcDbLine
 10
142.308045799
 20
134.2318827294
 30
0.0
 11
142.308045799
 21
141.2318827294
 31
0.0
  0
LINE
  5
19C
330
196
100
AcDbEntity
  8
SLD-0
 62
     7
100
AcDbLine
 10
132.308045799
 20
134.2318827294
 30
0.0
 11
132.308045799
 21
141.2318827294
 31
0.0
  0
LINE
  5
19D
330
196
100
AcDbEntity
  8
SLD-0
 62
     7
100
AcDbLine
 10
142.308045799
 20
140.2318827294
 30
0.0
 11
132.308045799
 21
140.2318827294
 31
0.0
  0
MTEXT
  5
19E
330
196
100
AcDbEntity
  8
SLD-0
 62
     7
100
AcDbMText
 10
135.3983235742
 20
143.4545519042
 30
0.0
 40
2.5
 41
0.0
 71
     1
 72
     1
  1
10
  7
SLDTEXTSTYLE0
 73
     1
 44
1.0
  0
ENDBLK
  5
198
330
196
100
AcDbEntity
  8
0
100
AcDbBlockEnd
  0
BLOCK
  5
1A2
330
1A1
100
AcDbEntity
  8
0
100
AcDbBlockBegin
  2
_D_6
 70
     0
 10
0.0
 20
0.0
 30
0.0
  3
_D_6
  1

  0
ARC
  5
1A4
330
1A1
100
AcDbEntity
  8
SLD-0
 62
     7
100
AcDbCircle
 10
142.308045799
 20
95.7318827294
 30
0.0
 40
23.28250605642751
100
AcDbArc
 50
0.0
 51
90.0
  0
SOLID
  5
1A5
330
1A1
100
AcDbEntity
  8
SLD-0
 62
     7
100
AcDbTrace
 10
165.5905518555
 20
95.7318827294
 30
0.0
 11
165.7546575925
 21
97.7407553752
 31
0.0
 12
165.255116457
 22
97.7193391676
 32
0.0
 13
165.255116457
 23
97.7193391676
 33
0.0
  0
SOLID
  5
1A6
330
1A1
100
AcDbEntity
  8
SLD-0
 62
     7
100
AcDbTrace
 10
142.308045799
 20
119.0143887859
 30
0.0
 11
144.2955022372
 21
118.6789533874
 31
0.0
 12
144.3169184448
 22
119.1784945229
 32
0.0
 13
144.3169184448
 23
119.1784945229
 33
0.0
  0
LINE
  5
1A7
330
1A1
100
AcDbEntity
  8
SLD-0
 62
     7
100
AcDbLine
 10
163.308045799
 20
95.7318827294
 30
0.0
 11
166.5905518555
 21
95.7318827294
 31
0.0
  0
MTEXT
  5
1A8
330
1A1
100
AcDbEntity
  8
SLD-0
 62
     7
100
AcDbMText
 10
159.2135215791
 20
116.3103852344
 30
0.0
 40
2.5
 41
0.0
 71
     1
 72
     1
  1
90°
  7
SLDTEXTSTYLE0
 11
0.7071067811865406
 21
-0.7071067811865545
 31
0.0
 73
     1
 44
1.0
  0
ENDBLK
  5
1A3
330
1A1
100
AcDbEntity
  8
0
100
AcDbBlockEnd
  0
BLOCK
  5
1AB
330
1AA
100
AcDbEntity
  8
0
100
AcDbBlockBegin
  2
_D_7
 70
     0
 10
0.0
 20
0.0
 30
0.0
  3
_D_7
  1

  0
SOLID
  5
1AD
330
1AA
100
AcDbEntity
  8
SLD-0
100
AcDbTrace
 10
120.459113587
 20
85.2318827294
 30
0.0
 11
120.209113587
 21
83.2318827294
 31
0.0
 12
120.709113587
 22
83.2318827294
 32
0.0
 13
120.709113587
 23
83.2318827294
 33
0.0
  0
SOLID
  5
1AE
330
1AA
100
AcDbEntity
  8
SLD-0
100
AcDbTrace
 10
120.459113587
 20
78.2318827294
 30
0.0
 11
120.709113587
 21
80.2318827294
 31
0.0
 12
120.209113587
 22
80.2318827294
 32
0.0
 13
120.209113587
 23
80.2318827294
 33
0.0
  0
LINE
  5
1AF
330
1AA
100
AcDbEntity
  8
SLD-0
100
AcDbLine
 10
128.808045799
 20
85.2318827294
 30
0.0
 11
119.459113587
 21
85.2318827294
 31
0.0
  0
LINE
  5
1B0
330
1AA
100
AcDbEntity
  8
SLD-0
100
AcDbLine
 10
128.808045799
 20
78.2318827294
 30
0.0
 11
119.459113587
 21
78.2318827294
 31
0.0
  0
LINE
  5
1B1
330
1AA
100
AcDbEntity
  8
SLD-0
100
AcDbLine
 10
120.459113587
 20
85.2318827294
 30
0.0
 11
120.459113587
 21
78.2318827294
 31
0.0
  0
MTEXT
  5
1B2
330
1AA
100
AcDbEntity
  8
SLD-0
100
AcDbMText
 10
117.2364444122
 20
80.777021617
 30
0.0
 40
2.5
 41
0.0
 71
     1
 72
     1
  1
7
  7
SLDTEXTSTYLE0
 11
-7.044195017643634E-15
 21
1.0
 31
0.0
 73
     1
 44
1.0
  0
ENDBLK
  5
1AC
330
1AA
100
AcDbEntity
  8
0
100
AcDbBlockEnd
  0
BLOCK
  5
1B4
330
1B3
100
AcDbEntity
  8
0
100
AcDbBlockBegin
  2
SW_CENTERMARKSYMBOL_1
 70
     0
 10
0.0
 20
0.0
 30
0.0
  3
SW_CENTERMARKSYMBOL_1
  1

  0
LINE
  5
1B6
330
1B3
100
AcDbEntity
  8
SLD-0
 62
     0
100
AcDbLine
 10
0.0
 20
0.0
 30
0.0
 11
0.0
 21
1.0
 31
0.0
  0
LINE
  5
1B7
330
1B3
100
AcDbEntity
  8
SLD-0
 62
     0
100
AcDbLine
 10
0.0
 20
0.0
 30
0.0
 11
-1.0
 21
0.0
 31
0.0
  0
LINE
  5
1B8
330
1B3
100
AcDbEntity
  8
SLD-0
 62
     0
100
AcDbLine
 10
0.0
 20
0.0
 30
0.0
 11
0.0
 21
-1.0
 31
0.0
  0
LINE
  5
1B9
330
1B3
100
AcDbEntity
  8
SLD-0
 62
     0
100
AcDbLine
 10
0.0
 20
0.0
 30
0.0
 11
1.0
 21
0.0
 31
0.0
  0
LINE
  5
1BA
330
1B3
100
AcDbEntity
  8
SLD-0
 62
     0
100
AcDbLine
 10
0.0
 20
2.0
 30
0.0
 11
0.0
 21
2.5
 31
0.0
  0
LINE
  5
1BB
330
1B3
100
AcDbEntity
  8
SLD-0
 62
     0
100
AcDbLine
 10
-2.0
 20
0.0
 30
0.0
 11
-2.5
 21
0.0
 31
0.0
  0
LINE
  5
1BC
330
1B3
100
AcDbEntity
  8
SLD-0
 62
     0
100
AcDbLine
 10
0.0
 20
-2.0
 30
0.0
 11
0.0
 21
-2.5
 31
0.0
  0
LINE
  5
1BD
330
1B3
100
AcDbEntity
  8
SLD-0
 62
     0
100
AcDbLine
 10
2.0
 20
0.0
 30
0.0
 11
2.5
 21
0.0
 31
0.0
  0
ENDBLK
  5
1B5
330
1B3
100
AcDbEntity
  8
0
100
AcDbBlockEnd
  0
ENDSEC
  0
SECTION
  2
ENTITIES
  0
HATCH
  5
75
330
1F
100
AcDbEntity
  8
DIM
 62
     7
100
AcDbHatch
 10
0.0
 20
0.0
 30
0.0
210
0.0
220
0.0
230
1.0
  2
SOLID
 70
     1
 71
     0
 91
        1
 92
        0
 93
       10
 72
     2
 10
191.9160757513297
 20
35.9014956213201
 40
3.045751395731247
 50
249.211220914341
 51
308.9221353953366
 73
     1
 72
     1
 10
193.8296107125642
 20
33.53189955516623
 11
194.7944303737813
 21
32.68461277152388
 72
     1
 10
194.7944303737813
 20
32.68461277152388
 11
191.5842904006255
 21
29.56757305876148
 72
     1
 10
191.5842904006255
 20
29.56757305876148
 11
190.6434899451316
 21
30.37757012887148
 72
     1
 10
190.6434899451316
 20
30.37757012887148
 11
191.2745418655467
 21
30.9934705193425
 72
     1
 10
191.2745418655467
 20
30.9934705193425
 11
187.2653395553511
 21
34.47807435961719
 72
     2
 10
188.2802809848918
 20
35.6256347353777
 40
1.531992467805808
 50
131.4906380929588
 51
229.7089352075141
 73
     0
 72
     1
 10
187.2895861373763
 20
36.79419138377774
 11
188.596214392258
 21
38.05577846028526
 72
     1
 10
188.596214392258
 20
38.05577846028526
 11
189.6114082396604
 21
37.16024655946747
 72
     2
 10
191.5846785430331
 20
35.51285387207268
 40
2.570544369711283
 50
140.1430462780655
 51
253.0452525074004
 73
     1
 97
        0
 75
     0
 76
     1
 98
        1
 10
0.0
 20
0.0
  0
HATCH
  5
76
330
1F
100
AcDbEntity
  8
DIM
 62
     1
100
AcDbHatch
 10
0.0
 20
0.0
 30
0.0
210
0.0
220
0.0
230
1.0
  2
SOLID
 70
     1
 71
     0
 91
        1
 92
        0
 93
       10
 72
     2
 10
192.0492411902935
 20
35.14729598261807
 40
3.18163670452787
 50
234.1674444878508
 51
314.4407074583991
 73
     0
 72
     2
 10
192.366897481018
 20
35.68811778809624
 40
2.57756748834625
 50
317.8184992995781
 51
398.0564711573081
 73
     0
 72
     1
 10
194.3964833240655
 20
34.0992076387546
 11
195.3819322170483
 21
33.24051069886511
 72
     1
 10
195.3819322170483
 20
33.24051069886511
 11
196.623613531842
 21
34.44494364127232
 72
     2
 10
195.7302212061799
 20
35.67289037309325
 40
1.518552937418266
 50
306.0377529468128
 51
403.4396461533869
 73
     1
 72
     1
 10
196.8328410708523
 20
36.71703234513139
 11
192.7060852125089
 21
40.30620861376535
 72
     1
 10
192.7060852125089
 20
40.30620861376535
 11
193.3303365144362
 21
40.91526704460266
 72
     1
 10
193.3303365144362
 20
40.91526704460266
 11
192.3998300042522
 21
41.74545926444721
 72
     1
 10
192.3998300042522
 20
41.74545926444721
 11
189.1642445558423
 21
38.61853901783309
 72
     1
 10
189.1642445558423
 20
38.61853901783309
 11
190.1866524331909
 21
37.7267484907123
 97
        0
 75
     0
 76
     1
 98
        1
 10
0.0
 20
0.0
  0
LINE
  5
77
330
1F
100
AcDbEntity
  8
0
  6
Continuous
 62
     7
370
     0
100
AcDbLine
 10
167.8593775185
 20
17.7745192513
 30
0.0
 11
168.8593775185
 21
17.7745192513
 31
0.0
  0
LINE
  5
78
330
1F
100
AcDbEntity
  8
0
  6
Continuous
 62
     7
370
     0
100
AcDbLine
 10
164.8593775185
 20
17.7745192513
 30
0.0
 11
167.3593775185
 21
17.7745192513
 31
0.0
  0
LINE
  5
79
330
1F
100
AcDbEntity
  8
0
  6
Continuous
 62
     7
370
     0
100
AcDbLine
 10
181.3593775185
 20
15.2745192513
 30
0.0
 11
181.3593775185
 21
20.2745192513
 31
0.0
  0
LINE
  5
7A
330
1F
100
AcDbEntity
  8
0
  6
Continuous
 62
     7
370
     0
100
AcDbLine
 10
174.3593775185
 20
16.2745192513
 30
0.0
 11
181.3593775185
 21
15.2745192513
 31
0.0
  0
LINE
  5
7B
330
1F
100
AcDbEntity
  8
0
  6
Continuous
 62
     7
370
     0
100
AcDbLine
 10
168.3593775185
 20
16.7745192513
 30
0.0
 11
168.3593775185
 21
14.2745192513
 31
0.0
  0
LINE
  5
7C
330
1F
100
AcDbEntity
  8
0
  6
Continuous
 62
     7
370
     0
100
AcDbLine
 10
181.3593775185
 20
20.2745192513
 30
0.0
 11
174.3593775185
 21
19.2745192513
 31
0.0
  0
LINE
  5
7D
330
1F
100
AcDbEntity
  8
0
  6
Continuous
 62
     7
370
     0
100
AcDbLine
 10
173.3593775185
 20
17.7745192513
 30
0.0
 11
182.3593775185
 21
17.7745192513
 31
0.0
  0
LINE
  5
7E
330
1F
100
AcDbEntity
  8
0
  6
Continuous
 62
     7
370
     0
100
AcDbLine
 10
168.3593775185
 20
18.2745192513
 30
0.0
 11
168.3593775185
 21
17.2745192513
 31
0.0
  0
LINE
  5
7F
330
1F
100
AcDbEntity
  8
0
  6
Continuous
 62
     7
370
     0
100
AcDbLine
 10
169.3593775185
 20
17.7745192513
 30
0.0
 11
171.8593775185
 21
17.7745192513
 31
0.0
  0
LINE
  5
80
330
1F
100
AcDbEntity
  8
0
  6
Continuous
 62
     7
370
     0
100
AcDbLine
 10
168.3593775185
 20
21.2745192513
 30
0.0
 11
168.3593775185
 21
18.7745192513
 31
0.0
  0
LINE
  5
81
330
1F
100
AcDbEntity
  8
0
  6
Continuous
 62
     7
370
     0
100
AcDbLine
 10
174.3593775185
 20
19.2745192513
 30
0.0
 11
174.3593775185
 21
16.2745192513
 31
0.0
  0
LINE
  5
82
330
1F
100
AcDbEntity
  8
0
370
     0
100
AcDbLine
 10
194.7944303738
 20
32.6846127715
 30
0.0
 11
191.5842904006
 21
29.5675730588
 31
0.0
  0
LINE
  5
83
330
1F
100
AcDbEntity
  8
0
370
     0
100
AcDbLine
 10
191.5842904006
 20
29.5675730588
 30
0.0
 11
190.6434899451
 21
30.3775701289
 31
0.0
  0
LINE
  5
84
330
1F
100
AcDbEntity
  8
0
370
     0
100
AcDbLine
 10
190.6434899451
 20
30.3775701289
 30
0.0
 11
191.2745418655
 21
30.9934705193
 31
0.0
  0
LINE
  5
85
330
1F
100
AcDbEntity
  8
0
370
     0
100
AcDbLine
 10
187.2653395554
 20
34.4780743596
 30
0.0
 11
191.2745418655
 21
30.9934705193
 31
0.0
  0
LINE
  5
86
330
1F
100
AcDbEntity
  8
0
370
     0
100
AcDbLine
 10
188.5962143923
 20
38.0557784603
 30
0.0
 11
187.2895861374
 21
36.7941913838
 31
0.0
  0
LINE
  5
87
330
1F
100
AcDbEntity
  8
0
370
     0
100
AcDbLine
 10
188.5962143923
 20
38.0557784603
 30
0.0
 11
189.6114082397
 21
37.1602465595
 31
0.0
  0
LINE
  5
88
330
1F
100
AcDbEntity
  8
0
370
     0
100
AcDbLine
 10
193.8296107126
 20
33.5318995552
 30
0.0
 11
194.7944303738
 21
32.6846127715
 31
0.0
  0
LINE
  5
89
330
1F
100
AcDbEntity
  8
0
 62
     1
370
     0
100
AcDbLine
 10
190.1866524332
 20
37.7267484907
 30
0.0
 11
189.1642445558
 21
38.6185390178
 31
0.0
  0
LINE
  5
8A
330
1F
100
AcDbEntity
  8
0
 62
     1
370
     0
100
AcDbLine
 10
189.1642445558
 20
38.6185390178
 30
0.0
 11
192.3998300043
 21
41.7454592644
 31
0.0
  0
LINE
  5
8B
330
1F
100
AcDbEntity
  8
0
 62
     1
370
     0
100
AcDbLine
 10
192.3998300043
 20
41.7454592644
 30
0.0
 11
193.3303365144
 21
40.9152670446
 31
0.0
  0
LINE
  5
8C
330
1F
100
AcDbEntity
  8
0
 62
     1
370
     0
100
AcDbLine
 10
193.3303365144
 20
40.9152670446
 30
0.0
 11
192.7060852125
 21
40.3062086138
 31
0.0
  0
LINE
  5
8D
330
1F
100
AcDbEntity
  8
0
 62
     1
370
     0
100
AcDbLine
 10
192.7060852125
 20
40.3062086138
 30
0.0
 11
196.8328410709
 21
36.7170323451
 31
0.0
  0
LINE
  5
8E
330
1F
100
AcDbEntity
  8
0
 62
     1
370
     0
100
AcDbLine
 10
194.3964833241
 20
34.0992076388
 30
0.0
 11
195.381932217
 21
33.2405106989
 31
0.0
  0
LINE
  5
8F
330
1F
100
AcDbEntity
  8
0
 62
     1
370
     0
100
AcDbLine
 10
195.381932217
 20
33.2405106989
 30
0.0
 11
196.6236135318
 21
34.4449436413
 31
0.0
  0
LINE
  5
90
330
1F
100
AcDbEntity
  8
0
  6
Continuous
 62
     7
370
     0
100
AcDbLine
 10
185.6907965209
 20
13.1152464079
 30
0.0
 11
285.6907965209
 21
13.1152464079
 31
0.0
  0
LINE
  5
91
330
1F
100
AcDbEntity
  8
0
  6
Continuous
 62
     7
370
     0
100
AcDbLine
 10
185.6907965209
 20
18.1152464079
 30
0.0
 11
235.6907965209
 21
18.1152464079
 31
0.0
  0
LINE
  5
92
330
1F
100
AcDbEntity
  8
0
  6
Continuous
 62
     7
370
     0
100
AcDbLine
 10
185.6907965209
 20
23.1152464079
 30
0.0
 11
235.6907965209
 21
23.1152464079
 31
0.0
  0
LINE
  5
93
330
1F
100
AcDbEntity
  8
0
  6
Continuous
 62
     7
370
     0
100
AcDbLine
 10
185.6907965209
 20
28.1152464079
 30
0.0
 11
285.6907965209
 21
28.1152464079
 31
0.0
  0
LINE
  5
94
330
1F
100
AcDbEntity
  8
0
  6
Continuous
 62
     7
370
     0
100
AcDbLine
 10
235.6907965209
 20
33.1152464079
 30
0.0
 11
285.6907965209
 21
33.1152464079
 31
0.0
  0
LINE
  5
95
330
1F
100
AcDbEntity
  8
0
  6
Continuous
 62
     7
370
    15
100
AcDbLine
 10
235.6907965209
 20
18.1152464079
 30
0.0
 11
285.6907965209
 21
18.1152464079
 31
0.0
  0
LINE
  5
96
330
1F
100
AcDbEntity
  8
0
  6
Continuous
 62
     7
370
     0
100
AcDbLine
 10
185.6907965209
 20
43.1152464079
 30
0.0
 11
285.6907965209
 21
43.1152464079
 31
0.0
  0
LINE
  5
97
330
1F
100
AcDbEntity
  8
0
  6
Continuous
 62
     7
370
     0
100
AcDbLine
 10
251.237217675
 20
8.1152464079
 30
0.0
 11
251.237217675
 21
18.1152464079
 31
0.0
  0
LINE
  5
98
330
1F
100
AcDbEntity
  8
0
  6
Continuous
 62
     7
370
     0
100
AcDbLine
 10
235.6907965209
 20
8.1152464079
 30
0.0
 11
235.6907965209
 21
43.1152464079
 31
0.0
  0
LINE
  5
99
330
1F
100
AcDbEntity
  8
0
  6
Continuous
 62
     7
370
     0
100
AcDbLine
 10
251.237217675
 20
28.1152464079
 30
0.0
 11
251.237217675
 21
33.1152464079
 31
0.0
  0
LINE
  5
9A
330
1F
100
AcDbEntity
  8
0
  6
Continuous
 62
     7
370
     0
100
AcDbLine
 10
214.4164086353
 20
8.1152464079
 30
0.0
 11
214.4164086353
 21
28.1152464079
 31
0.0
  0
LINE
  5
9B
330
1F
100
AcDbEntity
  8
0
  6
Continuous
 62
     7
370
     0
100
AcDbLine
 10
199.7785887506
 20
8.1152464079
 30
0.0
 11
199.7785887506
 21
28.1152464079
 31
0.0
  0
LINE
  5
9C
330
1F
100
AcDbEntity
  8
0
  6
Continuous
 62
     7
370
     0
100
AcDbLine
 10
185.6907965209
 20
8.1152464079
 30
0.0
 11
185.6907965209
 21
43.1152464079
 31
0.0
  0
LINE
  5
9D
330
1F
100
AcDbEntity
  8
0
  6
Continuous
 62
     7
370
    15
100
AcDbLine
 10
8.6907965209
 20
104.7436369915
 30
0.0
 11
14.6907965209
 21
104.7436369915
 31
0.0
  0
LINE
  5
9E
330
1F
100
AcDbEntity
  8
0
  6
Continuous
 62
     7
370
    15
100
AcDbLine
 10
285.6907965209
 20
104.7436369915
 30
0.0
 11
279.6907965209
 21
104.7436369915
 31
0.0
  0
LINE
  5
9F
330
1F
100
AcDbEntity
  8
0
  6
Continuous
 62
     7
370
    15
100
AcDbLine
 10
147.1907965209
 20
8.1152464079
 30
0.0
 11
147.1907965209
 21
14.1152464079
 31
0.0
  0
LINE
  5
A0
330
1F
100
AcDbEntity
  8
0
  6
Continuous
 62
     7
370
    15
100
AcDbLine
 10
147.1907965209
 20
201.3720275751
 30
0.0
 11
147.1907965209
 21
195.3720275751
 31
0.0
  0
LINE
  5
A1
330
1F
100
AcDbEntity
  8
0
  6
Continuous
 62
     7
370
    15
100
AcDbLine
 10
43.3207965209
 20
201.3720275751
 30
0.0
 11
43.3207965209
 21
202.8720275751
 31
0.0
  0
LINE
  5
A2
330
1F
100
AcDbEntity
  8
0
  6
Continuous
 62
     7
370
    15
100
AcDbLine
 10
77.9507965209
 20
201.3720275751
 30
0.0
 11
77.9507965209
 21
202.8720275751
 31
0.0
  0
LINE
  5
A3
330
1F
100
AcDbEntity
  8
0
  6
Continuous
 62
     7
370
    15
100
AcDbLine
 10
112.5807965209
 20
201.3720275751
 30
0.0
 11
112.5807965209
 21
202.8720275751
 31
0.0
  0
LINE
  5
A4
330
1F
100
AcDbEntity
  8
0
  6
Continuous
 62
     7
370
    15
100
AcDbLine
 10
147.2107965209
 20
201.3720275751
 30
0.0
 11
147.2107965209
 21
202.8720275751
 31
0.0
  0
LINE
  5
A5
330
1F
100
AcDbEntity
  8
0
  6
Continuous
 62
     7
370
    15
100
AcDbLine
 10
181.8407965209
 20
201.3720275751
 30
0.0
 11
181.8407965209
 21
202.8720275751
 31
0.0
  0
LINE
  5
A6
330
1F
100
AcDbEntity
  8
0
  6
Continuous
 62
     7
370
    15
100
AcDbLine
 10
216.4707965209
 20
201.3720275751
 30
0.0
 11
216.4707965209
 21
202.8720275751
 31
0.0
  0
LINE
  5
A7
330
1F
100
AcDbEntity
  8
0
  6
Continuous
 62
     7
370
    15
100
AcDbLine
 10
251.1007965209
 20
201.3720275751
 30
0.0
 11
251.1007965209
 21
202.8720275751
 31
0.0
  0
LINE
  5
A8
330
1F
100
AcDbEntity
  8
0
  6
Continuous
 62
     7
370
    15
100
AcDbLine
 10
43.3157965209
 20
8.1152464079
 30
0.0
 11
43.3157965209
 21
6.6152464079
 31
0.0
  0
LINE
  5
A9
330
1F
100
AcDbEntity
  8
0
  6
Continuous
 62
     7
370
    15
100
AcDbLine
 10
77.9407965209
 20
8.1152464079
 30
0.0
 11
77.9407965209
 21
6.6152464079
 31
0.0
  0
LINE
  5
AA
330
1F
100
AcDbEntity
  8
0
  6
Continuous
 62
     7
370
    15
100
AcDbLine
 10
112.5657965209
 20
8.1152464079
 30
0.0
 11
112.5657965209
 21
6.6152464079
 31
0.0
  0
LINE
  5
AB
330
1F
100
AcDbEntity
  8
0
  6
Continuous
 62
     7
370
    15
100
AcDbLine
 10
147.1907965209
 20
8.1152464079
 30
0.0
 11
147.1907965209
 21
6.6152464079
 31
0.0
  0
LINE
  5
AC
330
1F
100
AcDbEntity
  8
0
  6
Continuous
 62
     7
370
    15
100
AcDbLine
 10
181.8157965209
 20
8.1152464079
 30
0.0
 11
181.8157965209
 21
6.6152464079
 31
0.0
  0
LINE
  5
AD
330
1F
100
AcDbEntity
  8
0
  6
Continuous
 62
     7
370
    15
100
AcDbLine
 10
216.4407965209
 20
8.1152464079
 30
0.0
 11
216.4407965209
 21
6.6152464079
 31
0.0
  0
LINE
  5
AE
330
1F
100
AcDbEntity
  8
0
  6
Continuous
 62
     7
370
     0
100
AcDbLine
 10
285.6907965209
 20
201.3720275751
 30
0.0
 11
8.6907965209
 21
201.3720275751
 31
0.0
  0
LINE
  5
AF
330
1F
100
AcDbEntity
  8
0
  6
Continuous
 62
     7
370
     0
100
AcDbLine
 10
285.6907965209
 20
8.1152464079
 30
0.0
 11
285.6907965209
 21
201.3720275751
 31
0.0
  0
LINE
  5
B0
330
1F
100
AcDbEntity
  8
0
  6
Continuous
 62
     7
370
     0
100
AcDbLine
 10
8.6907965209
 20
201.3720275751
 30
0.0
 11
8.6907965209
 21
8.1152464079
 31
0.0
  0
LINE
  5
B1
330
1F
100
AcDbEntity
  8
0
  6
Continuous
 62
     7
370
     0
100
AcDbLine
 10
8.6907965209
 20
8.1152464079
 30
0.0
 11
285.6907965209
 21
8.1152464079
 31
0.0
  0
LINE
  5
B2
330
1F
100
AcDbEntity
  8
0
  6
Continuous
 62
     7
370
    15
100
AcDbLine
 10
251.0657965209
 20
8.1152464079
 30
0.0
 11
251.0657965209
 21
6.6152464079
 31
0.0
  0
LINE
  5
B3
330
1F
100
AcDbEntity
  8
0
  6
Continuous
 62
     7
370
    15
100
AcDbLine
 10
8.6907965209
 20
40.3252464079
 30
0.0
 11
7.1907965209
 21
40.3252464079
 31
0.0
  0
LINE
  5
B4
330
1F
100
AcDbEntity
  8
0
  6
Continuous
 62
     7
370
    15
100
AcDbLine
 10
8.6907965209
 20
72.5352464079
 30
0.0
 11
7.1907965209
 21
72.5352464079
 31
0.0
  0
LINE
  5
B5
330
1F
100
AcDbEntity
  8
0
  6
Continuous
 62
     7
370
    15
100
AcDbLine
 10
8.6907965209
 20
104.7452464079
 30
0.0
 11
7.1907965209
 21
104.7452464079
 31
0.0
  0
LINE
  5
B6
330
1F
100
AcDbEntity
  8
0
  6
Continuous
 62
     7
370
    15
100
AcDbLine
 10
8.6907965209
 20
136.9552464079
 30
0.0
 11
7.1907965209
 21
136.9552464079
 31
0.0
  0
LINE
  5
B7
330
1F
100
AcDbEntity
  8
0
  6
Continuous
 62
     7
370
    15
100
AcDbLine
 10
8.6907965209
 20
169.1652464079
 30
0.0
 11
7.1907965209
 21
169.1652464079
 31
0.0
  0
LINE
  5
B8
330
1F
100
AcDbEntity
  8
0
  6
Continuous
 62
     7
370
    15
100
AcDbLine
 10
285.6907965209
 20
40.3252464079
 30
0.0
 11
287.1907965209
 21
40.3252464079
 31
0.0
  0
LINE
  5
B9
330
1F
100
AcDbEntity
  8
0
  6
Continuous
 62
     7
370
    15
100
AcDbLine
 10
285.6907965209
 20
72.5352464079
 30
0.0
 11
287.1907965209
 21
72.5352464079
 31
0.0
  0
LINE
  5
BA
330
1F
100
AcDbEntity
  8
0
  6
Continuous
 62
     7
370
    15
100
AcDbLine
 10
285.6907965209
 20
104.7452464079
 30
0.0
 11
287.1907965209
 21
104.7452464079
 31
0.0
  0
LINE
  5
BB
330
1F
100
AcDbEntity
  8
0
  6
Continuous
 62
     7
370
    15
100
AcDbLine
 10
285.6907965209
 20
136.9552464079
 30
0.0
 11
287.1907965209
 21
136.9552464079
 31
0.0
  0
LINE
  5
BC
330
1F
100
AcDbEntity
  8
0
  6
Continuous
 62
     7
370
    15
100
AcDbLine
 10
285.6907965209
 20
169.1652464079
 30
0.0
 11
287.1907965209
 21
169.1652464079
 31
0.0
  0
CIRCLE
  5
BD
330
1F
100
AcDbEntity
  8
0
  6
Continuous
 62
     7
370
     0
100
AcDbCircle
 10
168.3593775185
 20
17.7745192513
 30
0.0
 40
1.5
  0
CIRCLE
  5
BE
330
1F
100
AcDbEntity
  8
0
  6
Continuous
 62
     7
370
     0
100
AcDbCircle
 10
168.3593775185
 20
17.7745192513
 30
0.0
 40
2.5
  0
ARC
  5
BF
330
1F
100
AcDbEntity
  8
0
370
     0
100
AcDbCircle
 10
188.2802809849
 20
35.6256347354
 30
0.0
 40
1.531992467805807
100
AcDbArc
 50
130.2910647925
 51
228.509361907
  0
ARC
  5
C0
330
1F
100
AcDbEntity
  8
0
370
     0
100
AcDbCircle
 10
191.584678543
 20
35.5128538721
 30
0.0
 40
2.570544369711294
100
AcDbArc
 50
140.1430462781
 51
253.0452525074
  0
ARC
  5
C1
330
1F
100
AcDbEntity
  8
0
370
     0
100
AcDbCircle
 10
191.9160757513
 20
35.9014956213
 30
0.0
 40
3.045751395731247
100
AcDbArc
 50
249.2112209143
 51
308.9221353953
  0
ARC
  5
C2
330
1F
100
AcDbEntity
  8
0
 62
     1
370
     0
100
AcDbCircle
 10
195.7302212062
 20
35.6728903731
 30
0.0
 40
1.518552937418275
100
AcDbArc
 50
306.0377529468
 51
43.4396461534
  0
ARC
  5
C3
330
1F
100
AcDbEntity
  8
0
 62
     1
370
     0
100
AcDbCircle
 10
192.0492411903
 20
35.1472959826
 30
0.0
 40
3.181636704527866
100
AcDbArc
 50
45.5592925416
 51
125.8325555121
  0
ARC
  5
C4
330
1F
100
AcDbEntity
  8
0
 62
     1
370
     0
100
AcDbCircle
 10
192.366897481
 20
35.6881177881
 30
0.0
 40
2.57756748834625
100
AcDbArc
 50
321.9435288427
 51
42.1815007004
  0
MTEXT
  5
C6
330
1F
100
AcDbEntity
  8
0
  6
Continuous
 62
     7
370
     0
100
AcDbMText
 10
165.5426850804
 20
13.2208440369
 30
0.0
 40
2.6458333333
 41
0.0
 71
     1
 72
     1
  1
UNIT:m/m
  7
SLDTEXTSTYLE0
 73
     1
 44
1.0
  0
INSERT
  5
CD
330
1F
100
AcDbEntity
  8
0
  6
Continuous
 62
     7
370
     0
100
AcDbBlockReference
  2
SW_NOTE_0
 10
12.2315076053
 20
193.8904304251
 30
0.0
  0
MTEXT
  5
CF
330
1F
100
AcDbEntity
  8
0
  6
Continuous
 62
     7
370
     0
100
AcDbMText
 10
198.7251893935
 20
40.4406774139
 30
0.0
 40
2.38125
 41
0.0
 71
     1
 72
     1
  1
Unice E-O Services Inc.
  7
SLDTEXTSTYLE1
 73
     1
 44
1.0
  0
MTEXT
  5
D0
330
1F
100
AcDbEntity
  8
0
  6
Continuous
 62
     7
370
     0
100
AcDbMText
 10
217.5590538149
 20
21.5867148511
 30
0.0
 40
1.8520833333
 41
0.0
 71
     1
 72
     1
  1
2010/12/30
  7
SLDTEXTSTYLE0
 73
     1
 44
1.0
  0
MTEXT
  5
D1
330
1F
100
AcDbEntity
  8
0
  6
Continuous
 62
     7
370
     0
100
AcDbMText
 10
252.6088982507
 20
16.87117774
 30
0.0
 40
2.5
 41
0.0
 71
     1
 72
     1
  1
1:1
  7
SLDTEXTSTYLE0
 73
     1
 44
1.0
  0
MTEXT
  5
D2
330
1F
100
AcDbEntity
  8
0
  6
Continuous
 62
     7
370
     0
100
AcDbMText
 10
252.3075599985
 20
32.1519195438
 30
0.0
 40
2.5
 41
0.0
 71
     1
 72
     1
  1
04FOM-1M
  7
SLDTEXTSTYLE0
 73
     1
 44
1.0
  0
MTEXT
  5
D3
330
1F
100
AcDbEntity
  8
0
  6
Continuous
 62
     7
370
     0
100
AcDbMText
 10
252.3075599985
 20
38.1082117879
 30
0.0
 40
2.5
 41
0.0
 71
     1
 72
     1
  1
04FOM-1M
  7
SLDTEXTSTYLE0
 73
     1
 44
1.0
  0
MTEXT
  5
D4
330
1F
100
AcDbEntity
  8
0
  6
Continuous
 62
     7
370
     0
100
AcDbMText
 10
236.3921866786
 20
16.5064795728
 30
0.0
 40
2.1166666667
 41
0.0
 71
     1
 72
     1
  1
SCALE:
  7
SLDTEXTSTYLE0
 73
     1
 44
1.0
  0
MTEXT
  5
D5
330
1F
100
AcDbEntity
  8
0
  6
Continuous
 62
     7
370
     0
100
AcDbMText
 10
186.3336086789
 20
21.5867148511
 30
0.0
 40
1.8520833333
 41
0.0
 71
     1
 72
     1
  1
DRAWN
  7
SLDTEXTSTYLE0
 73
     1
 44
1.0
  0
MTEXT
  5
D6
330
1F
100
AcDbEntity
  8
0
  6
Continuous
 62
     7
370
     0
100
AcDbMText
 10
203.2228367937
 20
26.683208308
 30
0.0
 40
1.8520833333
 41
0.0
 71
     1
 72
     1
  1
NAME
  7
SLDTEXTSTYLE0
 73
     1
 44
1.0
  0
MTEXT
  5
D7
330
1F
100
AcDbEntity
  8
0
  6
Continuous
 62
     7
370
     0
100
AcDbMText
 10
220.8710155758
 20
26.683208308
 30
0.0
 40
1.8520833333
 41
0.0
 71
     1
 72
     1
  1
DATE
  7
SLDTEXTSTYLE0
 73
     1
 44
1.0
  0
MTEXT
  5
D8
330
1F
100
AcDbEntity
  8
0
  6
Continuous
 62
     7
370
     0
100
AcDbMText
 10
236.2756316645
 20
31.7872213766
 30
0.0
 40
2.1166666667
 41
0.0
 71
     1
 72
     1
  1
DWG. NO.
  7
SLDTEXTSTYLE0
 73
     1
 44
1.0
  0
MTEXT
  5
D9
330
1F
100
AcDbEntity
  8
0
  6
Continuous
 62
     7
370
     0
100
AcDbMText
 10
236.3629907088
 20
41.8840658243
 30
0.0
 40
2.1166666667
 41
0.0
 71
     1
 72
     1
  1
TITLE:
  7
SLDTEXTSTYLE0
 73
     1
 44
1.0
  0
MTEXT
  5
DA
330
1F
100
AcDbEntity
  8
0
  6
Continuous
 62
     7
370
     0
100
AcDbMText
 10
203.0314209802
 20
16.2403789724
 30
0.0
 40
1.8520833333
 41
0.0
 71
     1
 72
     1
  1
Johnny
  7
SLDTEXTSTYLE0
 73
     1
 44
1.0
  0
MTEXT
  5
DB
330
1F
100
AcDbEntity
  8
0
  6
Continuous
 62
     7
370
     0
100
AcDbMText
 10
217.5590538149
 20
16.2403789724
 30
0.0
 40
1.8520833333
 41
0.0
 71
     1
 72
     1
  1
2010/12/30
  7
SLDTEXTSTYLE0
 73
     1
 44
1.0
  0
MTEXT
  5
DC
330
1F
100
AcDbEntity
  8
0
  6
Continuous
 62
     7
370
     0
100
AcDbMText
 10
186.3336086789
 20
16.2403789724
 30
0.0
 40
1.8520833333
 41
0.0
 71
     1
 72
     1
  1
ENG APPR.
  7
SLDTEXTSTYLE0
 73
     1
 44
1.0
  0
MTEXT
  5
DD
330
1F
100
AcDbEntity
  8
0
  6
Continuous
 62
     7
370
     0
100
AcDbMText
 10
236.3921866786
 20
11.6853389288
 30
0.0
 40
2.1166666667
 41
0.0
 71
     1
 72
     1
  1
REV
  7
SLDTEXTSTYLE0
 73
     1
 44
1.0
  0
MTEXT
  5
DE
330
1F
100
AcDbEntity
  8
0
  6
Continuous
 62
     7
370
     0
100
AcDbMText
 10
236.3629907088
 20
26.9493089085
 30
0.0
 40
2.1166666667
 41
0.0
 71
     1
 72
     1
  1
MATERIAL:
  7
SLDTEXTSTYLE0
 73
     1
 44
1.0
  0
MTEXT
  5
DF
330
1F
100
AcDbEntity
  8
0
  6
Continuous
 62
     7
370
     0
100
AcDbMText
 10
252.6088982507
 20
22.2175136187
 30
0.0
 40
2.5
 41
0.0
 71
     1
 72
     1
  1
N/A
  7
SLDTEXTSTYLE0
 73
     1
 44
1.0
  0
MTEXT
  5
E0
330
1F
100
AcDbEntity
  8
0
  6
Continuous
 62
     7
370
     0
100
AcDbMText
 10
26.6029931533
 20
204.453351657
 30
0.0
 40
2.1166666667
 41
0.0
 71
     1
 72
     1
  1
1
  7
SLDTEXTSTYLE0
 73
     1
 44
1.0
  0
MTEXT
  5
E1
330
1F
100
AcDbEntity
  8
0
  6
Continuous
 62
     7
370
     0
100
AcDbMText
 10
60.7170995724
 20
204.453351657
 30
0.0
 40
2.1166666667
 41
0.0
 71
     1
 72
     1
  1
2
  7
SLDTEXTSTYLE0
 73
     1
 44
1.0
  0
MTEXT
  5
E2
330
1F
100
AcDbEntity
  8
0
  6
Continuous
 62
     7
370
     0
100
AcDbMText
 10
94.9009943906
 20
204.453351657
 30
0.0
 40
2.1166666667
 41
0.0
 71
     1
 72
     1
  1
3
  7
SLDTEXTSTYLE0
 73
     1
 44
1.0
  0
MTEXT
  5
E3
330
1F
100
AcDbEntity
  8
0
  6
Continuous
 62
     7
370
     0
100
AcDbMText
 10
129.2533362851
 20
204.2992584364
 30
0.0
 40
2.1166666667
 41
0.0
 71
     1
 72
     1
  1
4
  7
SLDTEXTSTYLE0
 73
     1
 44
1.0
  0
MTEXT
  5
E4
330
1F
100
AcDbEntity
  8
0
  6
Continuous
 62
     7
370
     0
100
AcDbMText
 10
163.702323464
 20
204.453351657
 30
0.0
 40
2.1166666667
 41
0.0
 71
     1
 72
     1
  1
5
  7
SLDTEXTSTYLE0
 73
     1
 44
1.0
  0
MTEXT
  5
E5
330
1F
100
AcDbEntity
  8
0
  6
Continuous
 62
     7
370
     0
100
AcDbMText
 10
198.6382170415
 20
204.453351657
 30
0.0
 40
2.1166666667
 41
0.0
 71
     1
 72
     1
  1
6
  7
SLDTEXTSTYLE0
 73
     1
 44
1.0
  0
MTEXT
  5
E6
330
1F
100
AcDbEntity
  8
0
  6
Continuous
 62
     7
370
     0
100
AcDbMText
 10
234.3630657407
 20
204.453351657
 30
0.0
 40
2.1166666667
 41
0.0
 71
     1
 72
     1
  1
7
  7
SLDTEXTSTYLE0
 73
     1
 44
1.0
  0
MTEXT
  5
E7
330
1F
100
AcDbEntity
  8
0
  6
Continuous
 62
     7
370
     0
100
AcDbMText
 10
266.2787820494
 20
204.453351657
 30
0.0
 40
2.1166666667
 41
0.0
 71
     1
 72
     1
  1
8
  7
SLDTEXTSTYLE0
 73
     1
 44
1.0
  0
MTEXT
  5
E8
330
1F
100
AcDbEntity
  8
0
  6
Continuous
 62
     7
370
     0
100
AcDbMText
 10
5.3568236555
 20
185.8113022879
 30
0.0
 40
2.1166666667
 41
0.0
 71
     1
 72
     1
  1
A
  7
SLDTEXTSTYLE0
 73
     1
 44
1.0
  0
MTEXT
  5
E9
330
1F
100
AcDbEntity
  8
0
  6
Continuous
 62
     7
370
     0
100
AcDbMText
 10
5.5910431831
 20
154.2993048238
 30
0.0
 40
2.1166666667
 41
0.0
 71
     1
 72
     1
  1
B
  7
SLDTEXTSTYLE0
 73
     1
 44
1.0
  0
MTEXT
  5
EA
330
1F
100
AcDbEntity
  8
0
  6
Continuous
 62
     7
370
     0
100
AcDbMText
 10
5.5910431831
 20
121.274351423
 30
0.0
 40
2.1166666667
 41
0.0
 71
     1
 72
     1
  1
C
  7
SLDTEXTSTYLE0
 73
     1
 44
1.0
  0
MTEXT
  5
EB
330
1F
100
AcDbEntity
  8
0
  6
Continuous
 62
     7
370
     0
100
AcDbMText
 10
5.5910431831
 20
88.7453220221
 30
0.0
 40
2.1166666667
 41
0.0
 71
     1
 72
     1
  1
D
  7
SLDTEXTSTYLE0
 73
     1
 44
1.0
  0
MTEXT
  5
EC
330
1F
100
AcDbEntity
  8
0
  6
Continuous
 62
     7
370
     0
100
AcDbMText
 10
5.5910431831
 20
57.5558849197
 30
0.0
 40
2.1166666667
 41
0.0
 71
     1
 72
     1
  1
E
  7
SLDTEXTSTYLE0
 73
     1
 44
1.0
  0
MTEXT
  5
ED
330
1F
100
AcDbEntity
  8
0
  6
Continuous
 62
     7
370
     0
100
AcDbMText
 10
5.5910431831
 20
25.5694212252
 30
0.0
 40
2.1166666667
 41
0.0
 71
     1
 72
     1
  1
F
  7
SLDTEXTSTYLE0
 73
     1
 44
1.0
  0
MTEXT
  5
EE
330
1F
100
AcDbEntity
  8
0
  6
Continuous
 62
     7
370
     0
100
AcDbMText
 10
266.1858616964
 20
6.6236223963
 30
0.0
 40
2.1166666667
 41
0.0
 71
     1
 72
     1
  1
8
  7
SLDTEXTSTYLE0
 73
     1
 44
1.0
  0
MTEXT
  5
EF
330
1F
100
AcDbEntity
  8
0
  6
Continuous
 62
     7
370
     0
100
AcDbMText
 10
234.2701453876
 20
6.6236223963
 30
0.0
 40
2.1166666667
 41
0.0
 71
     1
 72
     1
  1
7
  7
SLDTEXTSTYLE0
 73
     1
 44
1.0
  0
MTEXT
  5
F0
330
1F
100
AcDbEntity
  8
0
  6
Continuous
 62
     7
370
     0
100
AcDbMText
 10
198.5452966885
 20
6.6236223963
 30
0.0
 40
2.1166666667
 41
0.0
 71
     1
 72
     1
  1
6
  7
SLDTEXTSTYLE0
 73
     1
 44
1.0
  0
MTEXT
  5
F1
330
1F
100
AcDbEntity
  8
0
  6
Continuous
 62
     7
370
     0
100
AcDbMText
 10
163.6094031109
 20
6.6236223963
 30
0.0
 40
2.1166666667
 41
0.0
 71
     1
 72
     1
  1
5
  7
SLDTEXTSTYLE0
 73
     1
 44
1.0
  0
MTEXT
  5
F2
330
1F
100
AcDbEntity
  8
0
  6
Continuous
 62
     7
370
     0
100
AcDbMText
 10
129.1604159321
 20
6.4695291758
 30
0.0
 40
2.1166666667
 41
0.0
 71
     1
 72
     1
  1
4
  7
SLDTEXTSTYLE0
 73
     1
 44
1.0
  0
MTEXT
  5
F3
330
1F
100
AcDbEntity
  8
0
  6
Continuous
 62
     7
370
     0
100
AcDbMText
 10
94.8080740376
 20
6.6236223963
 30
0.0
 40
2.1166666667
 41
0.0
 71
     1
 72
     1
  1
3
  7
SLDTEXTSTYLE0
 73
     1
 44
1.0
  0
MTEXT
  5
F4
330
1F
100
AcDbEntity
  8
0
  6
Continuous
 62
     7
370
     0
100
AcDbMText
 10
60.6241792194
 20
6.6236223963
 30
0.0
 40
2.1166666667
 41
0.0
 71
     1
 72
     1
  1
2
  7
SLDTEXTSTYLE0
 73
     1
 44
1.0
  0
MTEXT
  5
F5
330
1F
100
AcDbEntity
  8
0
  6
Continuous
 62
     7
370
     0
100
AcDbMText
 10
26.5100728003
 20
6.6236223963
 30
0.0
 40
2.1166666667
 41
0.0
 71
     1
 72
     1
  1
1
  7
SLDTEXTSTYLE0
 73
     1
 44
1.0
  0
MTEXT
  5
F6
330
1F
100
AcDbEntity
  8
0
  6
Continuous
 62
     7
370
     0
100
AcDbMText
 10
287.1023846145
 20
186.6424909092
 30
0.0
 40
2.1166666667
 41
0.0
 71
     1
 72
     1
  1
A
  7
SLDTEXTSTYLE0
 73
     1
 44
1.0
  0
MTEXT
  5
F7
330
1F
100
AcDbEntity
  8
0
  6
Continuous
 62
     7
370
     0
100
AcDbMText
 10
287.3366041421
 20
155.1304934451
 30
0.0
 40
2.1166666667
 41
0.0
 71
     1
 72
     1
  1
B
  7
SLDTEXTSTYLE0
 73
     1
 44
1.0
  0
MTEXT
  5
F8
330
1F
100
AcDbEntity
  8
0
  6
Continuous
 62
     7
370
     0
100
AcDbMText
 10
287.3366041421
 20
122.1055400442
 30
0.0
 40
2.1166666667
 41
0.0
 71
     1
 72
     1
  1
C
  7
SLDTEXTSTYLE0
 73
     1
 44
1.0
  0
MTEXT
  5
F9
330
1F
100
AcDbEntity
  8
0
  6
Continuous
 62
     7
370
     0
100
AcDbMText
 10
287.3366041421
 20
89.5765106433
 30
0.0
 40
2.1166666667
 41
0.0
 71
     1
 72
     1
  1
D
  7
SLDTEXTSTYLE0
 73
     1
 44
1.0
  0
MTEXT
  5
FA
330
1F
100
AcDbEntity
  8
0
  6
Continuous
 62
     7
370
     0
100
AcDbMText
 10
287.3366041421
 20
58.3870735409
 30
0.0
 40
2.1166666667
 41
0.0
 71
     1
 72
     1
  1
E
  7
SLDTEXTSTYLE0
 73
     1
 44
1.0
  0
MTEXT
  5
FB
330
1F
100
AcDbEntity
  8
0
  6
Continuous
 62
     7
370
     0
100
AcDbMText
 10
287.3366041421
 20
26.4006098464
 30
0.0
 40
2.1166666667
 41
0.0
 71
     1
 72
     1
  1
F
  7
SLDTEXTSTYLE0
 73
     1
 44
1.0
  0
MTEXT
  5
FC
330
1F
100
AcDbEntity
  8
0
  6
Continuous
 62
     7
370
     0
100
AcDbMText
 10
203.1553128802
 20
21.5867148511
 30
0.0
 40
1.8520833333
 41
0.0
 71
     1
 72
     1
  1
Jimmy
  7
SLDTEXTSTYLE0
 73
     1
 44
1.0
  0
MTEXT
  5
FD
330
1F
100
AcDbEntity
  8
0
  6
Continuous
 62
     7
370
     0
100
AcDbMText
 10
252.8482239645
 20
12.0500370959
 30
0.0
 40
2.5
 41
0.0
 71
     1
 72
     1
  1
0
  7
SLDTEXTSTYLE0
 73
     1
 44
1.0
  0
INSERT
  5
103
330
1F
100
AcDbEntity
  8
SLD-0
 62
     7
100
AcDbBlockReference
  2
SW_NOTE_1
 10
198.7251893935
 20
33.512939085
 30
0.0
  0
LINE
  5
104
330
1F
100
AcDbEntity
  8
0
  6
Continuous
 62
     7
370
    30
100
AcDbLine
 10
80.4705155846
 20
133.2318827294
 30
0.0
 11
80.4705155846
 21
133.1172213801
 31
0.0
  0
LINE
  5
105
330
1F
100
AcDbEntity
  8
0
  6
Continuous
 62
     7
370
    30
100
AcDbLine
 10
84.4705155846
 20
133.1172213801
 30
0.0
 11
84.4705155846
 21
133.2318827294
 31
0.0
  0
LINE
  5
106
330
1F
100
AcDbEntity
  8
0
  6
Continuous
 62
     7
370
    30
100
AcDbLine
 10
81.2205155846
 20
129.1738877882
 30
0.0
 11
81.2205155846
 21
128.2318827294
 31
0.0
  0
LINE
  5
107
330
1F
100
AcDbEntity
  8
0
  6
Continuous
 62
     7
370
    30
100
AcDbLine
 10
83.7205155846
 20
128.2318827294
 30
0.0
 11
83.7205155846
 21
129.1738877882
 31
0.0
  0
LINE
  5
108
330
1F
100
AcDbEntity
  8
0
  6
Continuous
 62
     7
370
    30
100
AcDbLine
 10
89.9705155846
 20
78.2318827294
 30
0.0
 11
89.9705155846
 21
85.2318827294
 31
0.0
  0
LINE
  5
109
330
1F
100
AcDbEntity
  8
0
  6
Continuous
 62
     7
370
    30
100
AcDbLine
 10
74.9705155846
 20
85.2318827294
 30
0.0
 11
74.9705155846
 21
78.2318827294
 31
0.0
  0
LINE
  5
10A
330
1F
100
AcDbEntity
  8
0
  6
Continuous
 62
     7
370
    30
100
AcDbLine
 10
82.7713431541
 20
133.2318827294
 30
0.0
 11
80.4705155846
 21
133.2318827294
 31
0.0
  0
LINE
  5
10B
330
1F
100
AcDbEntity
  8
0
  6
Continuous
 62
     7
370
    30
100
AcDbLine
 10
84.4705155846
 20
133.2318827294
 30
0.0
 11
82.7713431541
 21
133.2318827294
 31
0.0
  0
LINE
  5
10C
330
1F
100
AcDbEntity
  8
0
  6
Continuous
 62
     7
370
    30
100
AcDbLine
 10
82.6585328155
 20
128.2318827294
 30
0.0
 11
81.2205155846
 21
128.2318827294
 31
0.0
  0
LINE
  5
10D
330
1F
100
AcDbEntity
  8
0
  6
Continuous
 62
     7
370
    30
100
AcDbLine
 10
83.7205155846
 20
128.2318827294
 30
0.0
 11
82.6585328155
 21
128.2318827294
 31
0.0
  0
LINE
  5
10E
330
1F
100
AcDbEntity
  8
0
  6
Continuous
 62
     7
370
    30
100
AcDbLine
 10
82.4705155846
 20
78.2318827294
 30
0.0
 11
89.9705155846
 21
78.2318827294
 31
0.0
  0
LINE
  5
10F
330
1F
100
AcDbEntity
  8
0
  6
Continuous
 62
     7
370
    30
100
AcDbLine
 10
74.9705155846
 20
78.2318827294
 30
0.0
 11
82.4705155846
 21
78.2318827294
 31
0.0
  0
LINE
  5
110
330
1F
100
AcDbEntity
  8
0
  6
Continuous
 62
     7
370
    30
100
AcDbLine
 10
82.4705155846
 20
85.2318827294
 30
0.0
 11
89.9705155846
 21
85.2318827294
 31
0.0
  0
LINE
  5
111
330
1F
100
AcDbEntity
  8
0
  6
Continuous
 62
     7
370
    30
100
AcDbLine
 10
74.9705155846
 20
85.2318827294
 30
0.0
 11
82.4705155846
 21
85.2318827294
 31
0.0
  0
LINE
  5
112
330
1F
100
AcDbEntity
  8
0
  6
Continuous
 62
     7
370
    30
100
AcDbLine
 10
87.4705155846
 20
93.7318827294
 30
0.0
 11
77.4705155846
 21
93.7318827294
 31
0.0
  0
LINE
  5
113
330
1F
100
AcDbEntity
  8
0
  6
Continuous
 62
     7
370
    30
100
AcDbLine
 10
77.4705155846
 20
93.7318827294
 30
0.0
 11
77.4705155846
 21
85.2318827294
 31
0.0
  0
LINE
  5
114
330
1F
100
AcDbEntity
  8
0
  6
Continuous
 62
     7
370
    30
100
AcDbLine
 10
87.4705155846
 20
93.7318827294
 30
0.0
 11
87.4705155846
 21
85.2318827294
 31
0.0
  0
ARC
  5
115
330
1F
100
AcDbEntity
  8
0
  6
Continuous
 62
     7
370
    30
100
AcDbCircle
 10
82.4705155846
 20
115.7318827294
 30
0.0
 40
17.50000000000001
100
AcDbArc
 50
0.0
 51
180.0
  0
LINE
  5
116
330
1F
100
AcDbEntity
  8
0
  6
Continuous
 62
     7
370
    30
100
AcDbLine
 10
99.9705155846
 20
90.7318827294
 30
0.0
 11
99.9705155846
 21
115.7318827294
 31
0.0
  0
LINE
  5
117
330
1F
100
AcDbEntity
  8
0
  6
Continuous
 62
     7
370
    30
100
AcDbLine
 10
87.4705155846
 20
90.7318827294
 30
0.0
 11
99.9705155846
 21
90.7318827294
 31
0.0
  0
LINE
  5
118
330
1F
100
AcDbEntity
  8
0
  6
Continuous
 62
     7
370
    30
100
AcDbLine
 10
87.4705155846
 20
98.7318827294
 30
0.0
 11
87.4705155846
 21
90.7318827294
 31
0.0
  0
LINE
  5
119
330
1F
100
AcDbEntity
  8
0
  6
Continuous
 62
     7
370
    30
100
AcDbLine
 10
77.4705155846
 20
98.7318827294
 30
0.0
 11
87.4705155846
 21
98.7318827294
 31
0.0
  0
LINE
  5
11A
330
1F
100
AcDbEntity
  8
0
  6
Continuous
 62
     7
370
    30
100
AcDbLine
 10
77.4705155846
 20
90.7318827294
 30
0.0
 11
77.4705155846
 21
98.7318827294
 31
0.0
  0
LINE
  5
11B
330
1F
100
AcDbEntity
  8
0
  6
Continuous
 62
     7
370
    30
100
AcDbLine
 10
64.9705155846
 20
90.7318827294
 30
0.0
 11
77.4705155846
 21
90.7318827294
 31
0.0
  0
LINE
  5
11C
330
1F
100
AcDbEntity
  8
0
  6
Continuous
 62
     7
370
    30
100
AcDbLine
 10
64.9705155846
 20
115.7318827294
 30
0.0
 11
64.9705155846
 21
90.7318827294
 31
0.0
  0
ARC
  5
11D
330
1F
100
AcDbEntity
  8
0
  6
Continuous
 62
     7
370
    30
100
AcDbCircle
 10
88.9652885456
 20
106.2414705052
 30
0.0
 40
2.000000000000008
100
AcDbArc
 50
304.3858259347
 51
343.0809978007
  0
ARC
  5
11E
330
1F
100
AcDbEntity
  8
0
  6
Continuous
 62
     7
370
    30
100
AcDbCircle
 10
93.2705155846
 20
104.9318827294
 30
0.0
 40
2.500000000000019
100
AcDbArc
 50
106.9190021993
 51
163.0809978007
  0
ARC
  5
11F
330
1F
100
AcDbEntity
  8
0
  6
Continuous
 62
     7
370
    30
100
AcDbCircle
 10
91.9609278088
 20
109.2371097684
 30
0.0
 40
2.000000000000001
100
AcDbArc
 50
286.9190021993
 51
325.6141740653
  0
ARC
  5
120
330
1F
100
AcDbEntity
  8
0
  6
Continuous
 62
     7
370
    30
100
AcDbCircle
 10
72.9801033604
 20
109.2371097684
 30
0.0
 40
1.99999999999999
100
AcDbArc
 50
214.3858259347
 51
253.0809978007
  0
ARC
  5
121
330
1F
100
AcDbEntity
  8
0
  6
Continuous
 62
     7
370
    30
100
AcDbCircle
 10
71.6705155846
 20
104.9318827294
 30
0.0
 40
2.500000000000005
100
AcDbArc
 50
16.9190021993
 51
73.0809978007
  0
ARC
  5
122
330
1F
100
AcDbEntity
  8
0
  6
Continuous
 62
     7
370
    30
100
AcDbCircle
 10
82.4705155846
 20
115.7318827294
 30
0.0
 40
13.5
100
AcDbArc
 50
235.6141740653
 51
304.3858259347
  0
ARC
  5
123
330
1F
100
AcDbEntity
  8
0
  6
Continuous
 62
     7
370
    30
100
AcDbCircle
 10
75.9757426236
 20
106.2414705052
 30
0.0
 40
1.99999999999999
100
AcDbArc
 50
196.9190021993
 51
235.6141740653
  0
ARC
  5
124
330
1F
100
AcDbEntity
  8
0
  6
Continuous
 62
     7
370
    30
100
AcDbCircle
 10
82.4705155846
 20
115.7318827294
 30
0.0
 40
13.50000000000001
100
AcDbArc
 50
325.6141740653
 51
214.3858259347
  0
LINE
  5
125
330
1F
100
AcDbEntity
  8
0
  6
Continuous
 62
     7
370
    30
100
AcDbLine
 10
99.9705155846
 20
90.7318827294
 30
0.0
 11
99.9705155846
 21
85.7318827294
 31
0.0
  0
LINE
  5
126
330
1F
100
AcDbEntity
  8
0
  6
Continuous
 62
     7
370
    30
100
AcDbLine
 10
99.9705155846
 20
85.7318827294
 30
0.0
 11
87.4705155846
 21
85.7318827294
 31
0.0
  0
LINE
  5
127
330
1F
100
AcDbEntity
  8
0
  6
Continuous
 62
     7
370
    30
100
AcDbLine
 10
64.9705155846
 20
85.7318827294
 30
0.0
 11
77.4705155846
 21
85.7318827294
 31
0.0
  0
LINE
  5
128
330
1F
100
AcDbEntity
  8
0
  6
Continuous
 62
     7
370
    30
100
AcDbLine
 10
64.9705155846
 20
85.7318827294
 30
0.0
 11
64.9705155846
 21
90.7318827294
 31
0.0
  0
CIRCLE
  5
129
330
1F
100
AcDbEntity
  8
0
  6
Continuous
 62
     7
370
    30
100
AcDbCircle
 10
82.4705155846
 20
115.7318827294
 30
0.0
 40
11.00000000000001
  0
LINE
  5
12A
330
1F
100
AcDbEntity
  8
SLD-0
  6
HIDDEN
100
AcDbLine
 10
84.9705155846
 20
86.2318827294
 30
0.0
 11
82.4705155846
 21
87.734034277
 31
0.0
  0
LINE
  5
12B
330
1F
100
AcDbEntity
  8
SLD-0
  6
HIDDEN
100
AcDbLine
 10
82.4705155846
 20
87.734034277
 30
0.0
 11
79.9705155846
 21
86.2318827294
 31
0.0
  0
LINE
  5
12C
330
1F
100
AcDbEntity
  8
SLD-0
100
AcDbLine
 10
79.9705155846
 20
86.2318827294
 30
0.0
 11
84.9705155846
 21
86.2318827294
 31
0.0
  0
LINE
  5
12D
330
1F
100
AcDbEntity
  8
SLD-0
  6
HIDDEN
100
AcDbLine
 10
84.9705155846
 20
78.2318827294
 30
0.0
 11
84.9705155846
 21
86.2318827294
 31
0.0
  0
LINE
  5
12E
330
1F
100
AcDbEntity
  8
SLD-0
  6
HIDDEN
100
AcDbLine
 10
79.9705155846
 20
86.2318827294
 30
0.0
 11
79.9705155846
 21
78.2318827294
 31
0.0
  0
DIMENSION
  5
12F
330
1F
100
AcDbEntity
  8
SLD-0
 62
     7
100
AcDbDimension
  2
_D
 10
74.9705155846
 20
62.2205109573
 30
0.0
 11
82.4705155846
 21
62.2205109573
 31
0.0
 70
   160
  1
%%c<>
 71
     2
 42
-1.0
  3
SLDDIMSTYLE0
100
AcDbAlignedDimension
 13
89.9705155846
 23
78.2318827294
 33
0.0
 14
74.9705155846
 24
78.2318827294
 34
0.0
100
AcDbRotatedDimension
  0
DIMENSION
  5
13B
330
1F
100
AcDbEntity
  8
SLD-0
 62
     7
100
AcDbDimension
  2
_D_1
 10
56.8111785287
 20
78.2318827294
 30
0.0
 11
56.8111785287
 21
96.9818827294
 31
0.0
 70
   160
  1
<>
 71
     2
 42
-1.0
  3
SLDDIMSTYLE0
100
AcDbAlignedDimension
 13
70.4705155846
 23
115.7318827294
 33
0.0
 14
74.9705155846
 24
78.2318827294
 34
0.0
 50
90.0
100
AcDbRotatedDimension
  0
DIMENSION
  5
145
330
1F
100
AcDbEntity
  8
SLD-0
 62
     7
100
AcDbDimension
  2
_D_2
 10
64.9705155846
 20
142.0645067936
 30
0.0
 11
82.4705155846
 21
142.0645067936
 31
0.0
 70
   160
  1
<>
 71
     2
 42
-1.0
  3
SLDDIMSTYLE0
100
AcDbAlignedDimension
 13
99.9705155846
 23
115.7318827294
 33
0.0
 14
64.9705155846
 24
115.7318827294
 34
0.0
100
AcDbRotatedDimension
  0
DIMENSION
  5
14F
330
1F
100
AcDbEntity
  8
SLD-0
100
AcDbDimension
  2
_D_3
 10
92.7840236706
 20
107.0208810098
 30
0.0
 11
43.3869026686
 21
142.864349752
 31
0.0
 70
   163
  1
ACCEPTS\P%%c1" OPTICS
 71
     1
 42
-1.0
  3
SLDDIMSTYLE1
100
AcDbDiametricDimension
 15
72.1570074986
 25
124.4428844491
 35
0.0
 40
0.0
  0
DIMENSION
  5
15A
330
1F
100
AcDbEntity
  8
SLD-0
100
AcDbDimension
  2
_D_4
 10
47.9032374045
 20
133.2318827294
 30
0.0
 11
47.9032374045
 21
105.7318827294
 31
0.0
 70
   160
  1
<>
 71
     2
 42
-1.0
  3
SLDDIMSTYLE0
100
AcDbAlignedDimension
 13
74.9705155846
 23
78.2318827294
 33
0.0
 14
82.4705155846
 24
133.2318827294
 34
0.0
 50
90.0
100
AcDbRotatedDimension
  0
INSERT
  5
16A
330
1F
100
AcDbEntity
  8
SLD-0
100
AcDbBlockReference
  2
SW_NOTE_2
 10
62.7355594935
 20
63.6775698774
 30
0.0
  0
LEADER
  5
16C
330
1F
100
AcDbEntity
  8
SLD-0
100
AcDbLeader
  3
SLDDIMSTYLE2
 76
     2
 10
82.4705155846
 20
80.1093736233
 30
0.0
 10
62.7355594935
 20
63.6775698774
 30
0.0
  0
INSERT
  5
178
330
1F
100
AcDbEntity
  8
SLD-0
100
AcDbBlockReference
  2
SW_CENTERMARKSYMBOL_0
 10
82.4705155846
 20
115.7318827294
 30
0.0
  0
LINE
  5
179
330
1F
100
AcDbEntity
  8
SLD-0
  6
CENTERX2
370
     0
100
AcDbLine
 10
82.4705155846
 20
76.2318827294
 30
0.0
 11
82.4705155846
 21
88.2318827294
 31
0.0
  0
LINE
  5
17A
330
1F
100
AcDbEntity
  8
0
  6
Continuous
 62
     7
370
    30
100
AcDbLine
 10
144.808045799
 20
78.2318827294
 30
0.0
 11
144.808045799
 21
85.2318827294
 31
0.0
  0
LINE
  5
17B
330
1F
100
AcDbEntity
  8
0
  6
Continuous
 62
     7
370
    30
100
AcDbLine
 10
129.808045799
 20
85.2318827294
 30
0.0
 11
129.808045799
 21
78.2318827294
 31
0.0
  0
LINE
  5
17C
330
1F
100
AcDbEntity
  8
0
  6
Continuous
 62
     7
370
    30
100
AcDbLine
 10
133.308045799
 20
133.2318827294
 30
0.0
 11
132.308045799
 21
133.2318827294
 31
0.0
  0
LINE
  5
17D
330
1F
100
AcDbEntity
  8
0
  6
Continuous
 62
     7
370
    30
100
AcDbLine
 10
142.308045799
 20
133.2318827294
 30
0.0
 11
137.308045799
 21
133.2318827294
 31
0.0
  0
LINE
  5
17E
330
1F
100
AcDbEntity
  8
0
  6
HIDDEN
 62
     7
370
    30
100
AcDbLine
 10
179.808045799
 20
94.7318827294
 30
0.0
 11
179.808045799
 21
95.7318827294
 31
0.0
  0
LINE
  5
17F
330
1F
100
AcDbEntity
  8
0
  6
HIDDEN
 62
     7
370
    30
100
AcDbLine
 10
179.808045799
 20
85.7318827294
 30
0.0
 11
179.808045799
 21
90.7318827294
 31
0.0
  0
LINE
  5
180
330
1F
100
AcDbEntity
  8
0
  6
Continuous
 62
     7
370
    30
100
AcDbLine
 10
133.3307995388
 20
133.2318827294
 30
0.0
 11
133.308045799
 21
133.2318827294
 31
0.0
  0
LINE
  5
181
330
1F
100
AcDbEntity
  8
0
  6
Continuous
 62
     7
370
    30
100
AcDbLine
 10
137.308045799
 20
133.2318827294
 30
0.0
 11
133.3307995388
 21
133.2318827294
 31
0.0
  0
LINE
  5
182
330
1F
100
AcDbEntity
  8
0
  6
HIDDEN
 62
     7
370
    30
100
AcDbLine
 10
179.808045799
 20
94.7091289896
 30
0.0
 11
179.808045799
 21
94.7318827294
 31
0.0
  0
LINE
  5
183
330
1F
100
AcDbEntity
  8
0
  6
HIDDEN
 62
     7
370
    30
100
AcDbLine
 10
179.808045799
 20
90.7318827294
 30
0.0
 11
179.808045799
 21
94.7091289896
 31
0.0
  0
LINE
  5
184
330
1F
100
AcDbEntity
  8
0
  6
Continuous
 62
     7
370
    30
100
AcDbLine
 10
129.808045799
 20
78.2318827294
 30
0.0
 11
144.808045799
 21
78.2318827294
 31
0.0
  0
LINE
  5
185
330
1F
100
AcDbEntity
  8
0
  6
Continuous
 62
     7
370
    30
100
AcDbLine
 10
129.808045799
 20
85.2318827294
 30
0.0
 11
144.808045799
 21
85.2318827294
 31
0.0
  0
LINE
  5
186
330
1F
100
AcDbEntity
  8
0
  6
Continuous
 62
     7
370
    30
100
AcDbLine
 10
142.308045799
 20
90.7318827294
 30
0.0
 11
142.308045799
 21
89.3176691671
 31
0.0
  0
LINE
  5
187
330
1F
100
AcDbEntity
  8
0
  6
Continuous
 62
     7
370
    30
100
AcDbLine
 10
142.308045799
 20
85.7318827294
 30
0.0
 11
142.308045799
 21
85.2318827294
 31
0.0
  0
LINE
  5
188
330
1F
100
AcDbEntity
  8
0
  6
Continuous
 62
     7
370
    30
100
AcDbLine
 10
132.308045799
 20
90.7318827294
 30
0.0
 11
132.308045799
 21
85.2318827294
 31
0.0
  0
LINE
  5
189
330
1F
100
AcDbEntity
  8
0
  6
Continuous
 62
     7
370
    30
100
AcDbLine
 10
132.308045799
 20
90.7318827294
 30
0.0
 11
132.308045799
 21
115.7318827294
 31
0.0
  0
LINE
  5
18A
330
1F
100
AcDbEntity
  8
0
  6
Continuous
 62
     7
370
    30
100
AcDbLine
 10
142.308045799
 20
90.7318827294
 30
0.0
 11
142.308045799
 21
115.7318827294
 31
0.0
  0
ARC
  5
18B
330
1F
100
AcDbEntity
  8
0
  6
Continuous
 62
     7
370
    30
100
AcDbCircle
 10
137.308045799
 20
90.7318827294
 30
0.0
 40
5.0
100
AcDbArc
 50
270.0
 51
0.0
  0
ARC
  5
18C
330
1F
100
AcDbEntity
  8
0
  6
Continuous
 62
     7
370
    30
100
AcDbCircle
 10
137.308045799
 20
90.7318827294
 30
0.0
 40
4.999999999999986
100
AcDbArc
 50
180.0
 51
270.0
  0
CIRCLE
  5
18D
330
1F
100
AcDbEntity
  8
0
  6
Continuous
 62
     7
370
    30
100
AcDbCircle
 10
137.308045799
 20
90.7318827294
 30
0.0
 40
1.5
  0
LINE
  5
18E
330
1F
100
AcDbEntity
  8
0
  6
Continuous
 62
     7
370
    30
100
AcDbLine
 10
132.308045799
 20
115.7318827294
 30
0.0
 11
132.308045799
 21
133.2318827294
 31
0.0
  0
LINE
  5
18F
330
1F
100
AcDbEntity
  8
0
  6
Continuous
 62
     7
370
    30
100
AcDbLine
 10
142.308045799
 20
115.7318827294
 30
0.0
 11
142.308045799
 21
133.2318827294
 31
0.0
  0
LINE
  5
190
330
1F
100
AcDbEntity
  8
0
  6
HIDDEN
 62
     7
370
    30
100
AcDbLine
 10
162.308045799
 20
95.7318827294
 30
0.0
 11
179.808045799
 21
95.7318827294
 31
0.0
  0
LINE
  5
191
330
1F
100
AcDbEntity
  8
0
  6
HIDDEN
 62
     7
370
    30
100
AcDbLine
 10
162.308045799
 20
85.7318827294
 30
0.0
 11
179.808045799
 21
85.7318827294
 31
0.0
  0
ARC
  5
192
330
1F
100
AcDbEntity
  8
0
  6
HIDDEN
 62
     7
370
    30
100
AcDbCircle
 10
137.308045799
 20
90.7318827294
 30
0.0
 40
5.0
100
AcDbArc
 50
90.0
 51
180.0
  0
LINE
  5
193
330
1F
100
AcDbEntity
  8
0
  6
HIDDEN
 62
     7
370
    30
100
AcDbLine
 10
137.308045799
 20
95.7318827294
 30
0.0
 11
162.308045799
 21
95.7318827294
 31
0.0
  0
LINE
  5
194
330
1F
100
AcDbEntity
  8
0
  6
HIDDEN
 62
     7
370
    30
100
AcDbLine
 10
137.308045799
 20
85.7318827294
 30
0.0
 11
162.308045799
 21
85.7318827294
 31
0.0
  0
DIMENSION
  5
195
330
1F
100
AcDbEntity
  8
SLD-0
 62
     7
100
AcDbDimension
  2
_D_5
 10
132.308045799
 20
140.2318827294
 30
0.0
 11
137.308045799
 21
140.2318827294
 31
0.0
 70
   160
  1
<>
 71
     2
 42
-1.0
  3
SLDDIMSTYLE0
100
AcDbAlignedDimension
 13
142.308045799
 23
133.2318827294
 33
0.0
 14
132.308045799
 24
133.2318827294
 34
0.0
100
AcDbRotatedDimension
  0
DIMENSION
  5
19F
330
1F
100
AcDbEntity
  8
SLD-0
 62
     7
100
AcDbDimension
  2
_D_6
 10
137.308045799
 20
95.7318827294
 30
0.0
 11
158.7712637145
 21
112.1951006449
 31
0.0
 70
   162
  1
<>
 71
     1
 42
-1.0
  3
SLDDIMSTYLE3
100
AcDb2LineAngularDimension
 13
142.308045799
 23
133.2318827294
 33
0.0
 14
142.308045799
 24
90.7318827294
 34
0.0
 15
162.308045799
 25
95.7318827294
 35
0.0
 16
158.7712637145
 26
112.1951006449
 36
0.0
  0
DIMENSION
  5
1A9
330
1F
100
AcDbEntity
  8
SLD-0
100
AcDbDimension
  2
_D_7
 10
120.459113587
 20
78.2318827294
 30
0.0
 11
120.459113587
 21
81.7318827294
 31
0.0
 70
   160
  1
<>
 71
     2
 42
-1.0
  3
SLDDIMSTYLE0
100
AcDbAlignedDimension
 13
129.808045799
 23
85.2318827294
 33
0.0
 14
129.808045799
 24
78.2318827294
 34
0.0
 50
90.0
100
AcDbRotatedDimension
  0
INSERT
  5
1BE
330
1F
100
AcDbEntity
  8
SLD-0
100
AcDbBlockReference
  2
SW_CENTERMARKSYMBOL_1
 10
137.308045799
 20
90.7318827294
 30
0.0
  0
LINE
  5
1BF
330
1F
100
AcDbEntity
  8
0
  6
Continuous
 62
     7
370
    30
100
AcDbLine
 10
233.8164513628
 20
166.8810795872
 30
0.0
 11
233.8164513628
 21
166.8343436837
 31
0.0
  0
LINE
  5
1C0
330
1F
100
AcDbEntity
  8
0
  6
Continuous
 62
     7
370
    30
100
AcDbLine
 10
237.8164513628
 20
166.8343436837
 30
0.0
 11
237.8164513628
 21
166.8810795872
 31
0.0
  0
LINE
  5
1C1
330
1F
100
AcDbEntity
  8
0
  6
Continuous
 62
     7
370
    30
100
AcDbLine
 10
244.7306649252
 20
122.7877430453
 30
0.0
 11
244.7306649252
 21
122.8914990477
 31
0.0
  0
LINE
  5
1C2
330
1F
100
AcDbEntity
  8
0
  6
Continuous
 62
     7
370
    30
100
AcDbLine
 10
229.7306649252
 20
128.5035287285
 30
0.0
 11
229.7306649252
 21
122.7877430453
 31
0.0
  0
LINE
  5
1C3
330
1F
100
AcDbEntity
  8
0
  6
Continuous
 62
     7
370
    30
100
AcDbLine
 10
232.0169099205
 20
170.6048988622
 30
0.0
 11
224.9458421087
 21
166.5228583031
 31
0.0
  0
LINE
  5
1C4
330
1F
100
AcDbEntity
  8
0
  6
Continuous
 62
     7
370
    30
100
AcDbLine
 10
242.2660068098
 20
141.5656892639
 30
0.0
 11
240.0819858402
 21
140.3048807952
 31
0.0
  0
LINE
  5
1C5
330
1F
100
AcDbEntity
  8
0
  6
Continuous
 62
     7
370
    30
100
AcDbLine
 10
238.2664019995
 20
126.6232386024
 30
0.0
 11
247.1052367643
 21
121.5206879035
 31
0.0
  0
LINE
  5
1C6
330
1F
100
AcDbEntity
  8
0
  6
Continuous
 62
     7
370
    30
100
AcDbLine
 10
222.3564994228
 20
135.8078298604
 30
0.0
 11
230.1595971133
 21
131.3031974475
 31
0.0
  0
LWPOLYLINE
  5
1C7
330
1F
100
AcDbEntity
  8
0
  6
Continuous
 62
     7
370
    30
100
AcDbPolyline
 90
       27
 70
   128
 43
0.0
 10
250.4528348245
 20
128.8643763294
 10
250.1897847527
 20
128.511657393
 10
249.8927510692
 20
128.2178515084
 10
249.5789962919
 20
128.0000336059
 10
249.2667547081
 20
127.8708624702
 10
248.9741726636
 20
127.8378450581
 10
248.7182539635
 20
127.9029002216
 10
248.5138716723
 20
128.0622471911
 10
248.3729037459
 20
128.3066253
 10
248.3035427278
 20
128.6218321808
 10
248.3098196282
 20
128.9895491553
 10
248.3913696565
 20
129.3884058496
 10
248.5434534215
 20
129.7952221624
 10
248.7572323675
 20
130.1863554083
 10
249.0202824393
 20
130.5390743447
 10
249.3173161228
 20
130.8328802293
 10
249.6310709001
 20
131.0506981318
 10
249.9433124839
 20
131.1798692675
 10
250.2358945283
 20
131.2128866796
 10
250.4918132285
 20
131.1478315161
 10
250.6961955197
 20
130.9884845466
 10
250.8371634461
 20
130.7441064377
 10
250.9065244642
 20
130.4288995569
 10
250.9002475638
 20
130.0611825824
 10
250.8186975355
 20
129.6623258881
 10
250.6666137705
 20
129.2555095753
 10
250.4528348245
 20
128.8643763294
  0
LINE
  5
1C8
330
1F
100
AcDbEntity
  8
0
  6
Continuous
 62
     7
370
    30
100
AcDbLine
 10
250.1341992905
 20
129.1128010165
 30
0.0
 11
250.4081215507
 21
130.1591501845
 31
0.0
  0
LINE
  5
1C9
330
1F
100
AcDbEntity
  8
0
  6
Continuous
 62
     7
370
    30
100
AcDbLine
 10
250.4081215507
 20
130.1591501845
 30
0.0
 11
249.8789558561
 21
130.5717150369
 31
0.0
  0
LINE
  5
1CA
330
1F
100
AcDbEntity
  8
0
  6
Continuous
 62
     7
370
    30
100
AcDbLine
 10
249.8789558561
 20
130.5717150369
 30
0.0
 11
249.0758679014
 21
129.9379307213
 31
0.0
  0
LINE
  5
1CB
330
1F
100
AcDbEntity
  8
0
  6
Continuous
 62
     7
370
    30
100
AcDbLine
 10
249.0758679014
 20
129.9379307213
 30
0.0
 11
248.8019456412
 21
128.8915815533
 31
0.0
  0
LINE
  5
1CC
330
1F
100
AcDbEntity
  8
0
  6
Continuous
 62
     7
370
    30
100
AcDbLine
 10
248.8019456412
 20
128.8915815533
 30
0.0
 11
249.3311113357
 21
128.4790167009
 31
0.0
  0
LINE
  5
1CD
330
1F
100
AcDbEntity
  8
0
  6
Continuous
 62
     7
370
    30
100
AcDbLine
 10
249.3311113357
 20
128.4790167009
 30
0.0
 11
250.1341992905
 21
129.1128010165
 31
0.0
  0
LINE
  5
1CE
330
1F
100
AcDbEntity
  8
0
  6
Continuous
 62
     7
370
    30
100
AcDbLine
 10
249.8005905422
 20
130.5098703703
 30
0.0
 11
250.4081215507
 21
130.1591501845
 31
0.0
  0
LINE
  5
1CF
330
1F
100
AcDbEntity
  8
0
  6
Continuous
 62
     7
370
    30
100
AcDbLine
 10
250.1341992905
 20
129.1128010165
 30
0.0
 11
249.0271619639
 21
129.7518800619
 31
0.0
  0
LWPOLYLINE
  5
1D0
330
1F
100
AcDbEntity
  8
0
  6
Continuous
 62
     7
370
    30
100
AcDbPolyline
 90
       28
 70
   128
 43
0.0
 10
234.6310443385
 20
165.9511606102
 10
234.2915115339
 20
166.1340419589
 10
234.0341886303
 20
166.3571962995
 10
233.8729479718
 20
166.6085933237
 10
233.8164820842
 20
166.8746801529
 10
233.8678350581
 20
167.1411119772
 10
234.0242384414
 20
167.3935253881
 10
234.2772604872
 20
167.6183127133
 10
234.6132607114
 20
167.8033556098
 10
235.0141252552
 20
167.9386783671
 10
235.458243407
 20
168.0169857006
 10
235.9216726425
 20
168.0340560414
 10
236.3794293715
 20
167.9889691231
 10
236.8068358104
 20
167.8841555932
 10
237.1808503673
 20
167.7252659762
 10
237.4813098208
 20
167.5208660524
 10
237.6920163238
 20
167.2819750747
 10
237.8016106344
 20
167.0214717175
 10
237.8041844947
 20
166.7533997842
 10
237.6995991474
 20
166.4922111021
 10
237.4934928156
 20
166.2519864207
 10
237.196976745
 20
166.0456763148
 10
236.8260361937
 20
165.8844030155
 10
236.4006686629
 20
165.7768608082
 10
235.9438058261
 20
165.728847321
 10
235.4800772773
 20
165.7429509736
 10
235.0344827425
 20
165.8184114343
 10
234.6310443385
 20
165.9511606102
  0
LINE
  5
1D1
330
1F
100
AcDbEntity
  8
0
  6
Continuous
 62
     7
370
    30
100
AcDbLine
 10
236.1128121873
 20
167.8767411216
 30
0.0
 11
234.4709776329
 21
167.527074711
 31
0.0
  0
LINE
  5
1D2
330
1F
100
AcDbEntity
  8
0
  6
Continuous
 62
     7
370
    30
100
AcDbLine
 10
234.4709776329
 20
167.527074711
 30
0.0
 11
234.1746168084
 21
166.5314131766
 31
0.0
  0
LINE
  5
1D3
330
1F
100
AcDbEntity
  8
0
  6
Continuous
 62
     7
370
    30
100
AcDbLine
 10
234.1746168084
 20
166.5314131766
 30
0.0
 11
235.5200905383
 21
165.8854180528
 31
0.0
  0
LINE
  5
1D4
330
1F
100
AcDbEntity
  8
0
  6
Continuous
 62
     7
370
    30
100
AcDbLine
 10
235.5200905383
 20
165.8854180528
 30
0.0
 11
237.1619250926
 21
166.2350844634
 31
0.0
  0
LINE
  5
1D5
330
1F
100
AcDbEntity
  8
0
  6
Continuous
 62
     7
370
    30
100
AcDbLine
 10
237.1619250926
 20
166.2350844634
 30
0.0
 11
237.4582859172
 21
167.2307459978
 31
0.0
  0
LINE
  5
1D6
330
1F
100
AcDbEntity
  8
0
  6
Continuous
 62
     7
370
    30
100
AcDbLine
 10
237.4582859172
 20
167.2307459978
 30
0.0
 11
236.1128121873
 21
167.8767411216
 31
0.0
  0
LINE
  5
1D7
330
1F
100
AcDbEntity
  8
0
  6
Continuous
 62
     7
370
    30
100
AcDbLine
 10
234.4332804374
 20
166.5838854205
 30
0.0
 11
234.3872714522
 21
166.429312437
 31
0.0
  0
LINE
  5
1D8
330
1F
100
AcDbEntity
  8
0
  6
Continuous
 62
     7
370
    30
100
AcDbLine
 10
235.9039702855
 20
167.0157226259
 30
0.0
 11
234.6798195347
 21
166.7550115829
 31
0.0
  0
LINE
  5
1D9
330
1F
100
AcDbEntity
  8
0
  6
Continuous
 62
     7
370
    30
100
AcDbLine
 10
237.2456312734
 20
166.5163059255
 30
0.0
 11
236.2839568936
 21
166.9780295149
 31
0.0
  0
LINE
  5
1DA
330
1F
100
AcDbEntity
  8
0
  6
Continuous
 62
     7
370
    30
100
AcDbLine
 10
234.4709776329
 20
167.4560490759
 30
0.0
 11
234.4709776329
 21
167.527074711
 31
0.0
  0
LINE
  5
1DB
330
1F
100
AcDbEntity
  8
0
  6
Continuous
 62
     7
370
    30
100
AcDbLine
 10
236.1128121873
 20
167.852922381
 30
0.0
 11
236.1128121873
 21
167.8767411216
 31
0.0
  0
LWPOLYLINE
  5
1DC
330
1F
100
AcDbEntity
  8
0
  6
Continuous
 62
     7
370
    30
100
AcDbPolyline
 90
        9
 70
   128
 43
0.0
 10
250.4599071909
 20
126.2640444503
 10
250.3551812419
 20
125.8927253535
 10
250.181709555
 20
125.5258753078
 10
249.9523577315
 20
125.1907019027
 10
249.6841357469
 20
124.9120634164
 10
249.3969363989
 20
124.7106251907
 10
249.1120599493
 20
124.6013269774
 10
248.850634381
 20
124.5922749248
 10
248.7719314663
 20
124.6119358384
  0
ARC
  5
1DD
330
1F
100
AcDbEntity
  8
0
  6
Continuous
 62
     7
370
    30
100
AcDbCircle
 10
249.5562478102
 20
126.5558995474
 30
0.0
 40
0.9496208054055705
100
AcDbArc
 50
342.1010868657
 51
42.0535842751
  0
LINE
  5
1DE
330
1F
100
AcDbEntity
  8
0
  6
Continuous
 62
     7
370
    30
100
AcDbLine
 10
237.2306649252
 20
131.3620850704
 30
0.0
 11
230.1595971133
 21
135.4441256295
 31
0.0
  0
ARC
  5
1DF
330
1F
100
AcDbEntity
  8
0
  6
Continuous
 62
     7
370
    30
100
AcDbCircle
 10
237.4681220501
 20
135.1685093416
 30
0.0
 40
7.313720058254702
100
AcDbArc
 50
149.0582326219
 51
177.8403069749
  0
LINE
  5
1E0
330
1F
100
AcDbEntity
  8
0
  6
Continuous
 62
     7
370
    30
100
AcDbLine
 10
237.2306649252
 20
124.4214881694
 30
0.0
 11
239.6555118952
 21
125.8213225289
 31
0.0
  0
LINE
  5
1E1
330
1F
100
AcDbEntity
  8
0
  6
Continuous
 62
     7
370
    30
100
AcDbLine
 10
237.2306649252
 20
131.3620850704
 30
0.0
 11
237.2306649252
 21
124.4214881694
 31
0.0
  0
LINE
  5
1E2
330
1F
100
AcDbEntity
  8
0
  6
Continuous
 62
     7
370
    30
100
AcDbLine
 10
230.1595971133
 20
128.5035287285
 30
0.0
 11
237.2306649252
 21
124.4214881694
 31
0.0
  0
LINE
  5
1E3
330
1F
100
AcDbEntity
  8
0
  6
Continuous
 62
     7
370
    30
100
AcDbLine
 10
230.1595971133
 20
135.4441256295
 30
0.0
 11
230.1595971133
 21
128.5035287285
 31
0.0
  0
LWPOLYLINE
  5
1E4
330
1F
100
AcDbEntity
  8
0
  6
Continuous
 62
     7
370
    30
100
AcDbPolyline
 90
       21
 70
   128
 43
0.0
 10
231.9273640663
 20
119.726212626
 10
232.5918256347
 20
119.3856043035
 10
233.3214063384
 20
119.0927545513
 10
234.1058644634
 20
118.8517743381
 10
234.9341879372
 20
118.6660464978
 10
235.794748914
 20
118.5381782421
 10
236.6754670041
 20
118.4699645612
 10
237.5639788559
 20
118.4623630254
 10
238.4478117108
 20
118.5154803438
 10
239.3145584929
 20
118.6285708656
 10
240.1520519772
 20
118.8000470478
 10
240.948535591
 20
119.0275017406
 10
241.6928284504
 20
119.3077419789
 10
242.374482315
 20
119.6368338038
 10
242.9839282589
 20
120.0101574876
 10
243.5126109969
 20
120.4224723841
 10
243.9531089823
 20
120.8679904959
 10
244.2992385888
 20
121.3404577254
 10
244.5461409157
 20
121.8332416683
 10
244.6903499953
 20
122.3394247182
 10
244.7306649252
 20
122.7877430453
  0
ARC
  5
1E5
330
1F
100
AcDbEntity
  8
0
  6
Continuous
 62
     7
370
    30
100
AcDbCircle
 10
233.5541040513
 20
123.2122750453
 30
0.0
 40
3.846935685799178
100
AcDbArc
 50
186.3358312974
 51
244.9843096602
  0
ARC
  5
1E6
330
1F
100
AcDbEntity
  8
0
  6
Continuous
 62
     7
370
    30
100
AcDbCircle
 10
237.2741678555
 20
135.9137097693
 30
0.0
 40
11.75776558979344
100
AcDbArc
 50
242.9513695323
 51
290.0524204348
  0
ARC
  5
1E7
330
1F
100
AcDbEntity
  8
0
  6
Continuous
 62
     7
370
    30
100
AcDbCircle
 10
233.0300521122
 20
128.4739493222
 30
0.0
 40
3.226243616326917
100
AcDbArc
 50
152.8381427438
 51
250.0142163116
  0
LINE
  5
1E8
330
1F
100
AcDbEntity
  8
0
  6
Continuous
 62
     7
370
    30
100
AcDbLine
 10
246.06949969
 20
144.223432233
 30
0.0
 11
253.1405675019
 21
148.3054727921
 31
0.0
  0
LWPOLYLINE
  5
1E9
330
1F
100
AcDbEntity
  8
0
  6
Continuous
 62
     7
370
    30
100
AcDbPolyline
 90
       41
 70
   128
 43
0.0
 10
246.06949969
 20
144.223432233
 10
246.0313536411
 20
145.3665919185
 10
245.9171506776
 20
146.5467461349
 10
245.7275948986
 20
147.7566188391
 10
245.4638549786
 20
148.9887507636
 10
245.1275569619
 20
150.2355454052
 10
244.7207742376
 20
151.4893158604
 10
244.2460147564
 20
152.7423322175
 10
243.7062055685
 20
153.986869214
 10
243.104674777
 20
155.2152538653
 10
242.4451310192
 20
156.4199127717
 10
241.7316406018
 20
157.5934188104
 10
240.9686024303
 20
158.7285369264
 10
240.160720889
 20
159.8182687391
 10
239.312976836
 20
160.8558956895
 10
238.4305968955
 20
161.8350204624
 10
237.5190212331
 20
162.749606428
 10
236.5838700161
 20
163.5940148596
 10
235.6309087624
 20
164.3630396986
 10
234.6660127953
 20
165.0519396509
 10
233.6951310192
 20
165.6564674194
 10
232.7242492431
 20
166.1728958894
 10
231.759353276
 20
166.5980411075
 10
230.8063920224
 20
166.9292819122
 10
229.8712408053
 20
167.1645760937
 10
228.9596651429
 20
167.3024729851
 10
228.0772852024
 20
167.3421224064
 10
227.2295411495
 20
167.2832799055
 10
226.4216596081
 20
167.1263082661
 10
225.6586214367
 20
166.8721752705
 10
224.9451310192
 20
166.5224477332
 10
224.2855872614
 20
166.0792818407
 10
223.6840564699
 20
165.5454098582
 10
223.144247282
 20
164.9241232838
 10
222.6694878009
 20
164.219252556
 10
222.2627050766
 20
163.4351434373
 10
221.9264070599
 20
162.5766302209
 10
221.6626671399
 20
161.6490059265
 10
221.4731113609
 20
160.6579896662
 10
221.3589083973
 20
159.6096913848
 10
221.3207623485
 20
158.5105741899
  0
LWPOLYLINE
  5
1EA
330
1F
100
AcDbEntity
  8
0
  6
Continuous
 62
     7
370
    30
100
AcDbPolyline
 90
       31
 70
   128
 43
0.0
 10
253.1405675019
 20
148.3054727921
 10
253.102421453
 20
149.4486324776
 10
252.9882184894
 20
150.628786694
 10
252.7986627104
 20
151.8386593982
 10
252.5349227905
 20
153.0707913227
 10
252.1986247738
 20
154.3175859643
 10
251.7918420494
 20
155.5713564196
 10
251.3170825683
 20
156.8243727767
 10
250.7772733804
 20
158.0689097731
 10
250.1757425889
 20
159.2972944244
 10
249.5161988311
 20
160.5019533308
 10
248.8027084136
 20
161.6754593695
 10
248.0396702422
 20
162.8105774855
 10
247.2317887008
 20
163.9003092982
 10
246.3840446479
 20
164.9379362486
 10
245.5016647074
 20
165.9170610215
 10
244.590089045
 20
166.8316469871
 10
243.6549378279
 20
167.6760554187
 10
242.7019765743
 20
168.4450802577
 10
241.7370806072
 20
169.13398021
 10
240.7661988311
 20
169.7385079786
 10
239.795317055
 20
170.2549364485
 10
238.8304210879
 20
170.6800816666
 10
237.8774598343
 20
171.0113224713
 10
236.9423086172
 20
171.2466166528
 10
236.0307329548
 20
171.3845135443
 10
235.1483530143
 20
171.4241629655
 10
234.3006089613
 20
171.3653204646
 10
233.49272742
 20
171.2083488252
 10
232.7296892485
 20
170.9542158296
 10
232.0169099205
 20
170.6048988622
  0
SPLINE
  5
1EB
330
1F
100
AcDbEntity
  8
0
  6
Continuous
 62
     7
370
    30
100
AcDbSpline
210
0.0
220
0.0
230
1.0
 70
     8
 71
     3
 72
    12
 73
     8
 74
     0
 42
0.000000001
 43
0.00000001
 40
0.0
 40
0.0
 40
0.0
 40
0.0
 40
0.2951096303235517
 40
0.4465367290103743
 40
0.5990788703231555
 40
0.7467789102563367
 40
1.0
 40
1.0
 40
1.0
 40
1.0
 10
234.6497251738226
 20
166.2075428949286
 30
0.0
 10
234.5881807435373
 20
166.2461755532601
 30
0.0
 10
234.4950565423437
 20
166.3046314595122
 30
0.0
 10
234.3947857884294
 20
166.3916727647799
 30
0.0
 10
234.3290434495742
 20
166.4596789257182
 30
0.0
 10
234.2598603887116
 20
166.5456273217638
 30
0.0
 10
234.2296093064581
 20
166.6108083686332
 30
0.0
 10
234.2105027754047
 20
166.6519766047205
 30
0.0
  0
SPLINE
  5
1EC
330
1F
100
AcDbEntity
  8
0
  6
Continuous
 62
     7
370
    30
100
AcDbSpline
210
0.0
220
0.0
230
1.0
 70
     8
 71
     3
 72
     9
 73
     5
 74
     0
 42
0.000000001
 43
0.00000001
 40
0.0
 40
0.0
 40
0.0
 40
0.0
 40
0.2933557125905816
 40
0.9999999999999999
 40
0.9999999999999999
 40
0.9999999999999999
 40
0.9999999999999999
 10
234.4339521007137
 20
167.3393004764567
 30
0.0
 10
234.4548395069544
 20
167.3569181640442
 30
0.0
 10
234.5260411415034
 20
167.4169738808121
 30
0.0
 10
234.6163044286168
 20
167.4702081743173
 30
0.0
 10
234.6800884648182
 20
167.507825883717
 30
0.0
  0
SPLINE
  5
1ED
330
1F
100
AcDbEntity
  8
0
  6
Continuous
 62
     7
370
    30
100
AcDbSpline
210
0.0
220
0.0
230
1.0
 70
     8
 71
     3
 72
    21
 73
    17
 74
     0
 42
0.000000001
 43
0.00000001
 40
0.0
 40
0.0
 40
0.0
 40
0.0
 40
0.0240385261698279
 40
0.0897681929673026
 40
0.1562045453564572
 40
0.2236096667731933
 40
0.2888855064068124
 40
0.3546203934992564
 40
0.4210677852842581
 40
0.4884922156429488
 40
0.5535200721577141
 40
0.6850790999729587
 40
0.7522391499851128
 40
0.8171559453360251
 40
0.9484778153988882
 40
0.9999999999999999
 40
0.9999999999999999
 40
0.9999999999999999
 40
0.9999999999999999
 10
235.9039149370054
 20
167.8030667578387
 30
0.0
 10
235.9207515457855
 20
167.8034005832
 30
0.0
 10
235.9836252816876
 20
167.8046472028654
 30
0.0
 10
236.0922472795839
 20
167.7997980683209
 30
0.0
 10
236.229211204864
 20
167.7882634850056
 30
0.0
 10
236.3628816487034
 20
167.7691974684348
 30
0.0
 10
236.4922067941506
 20
167.7433361281207
 30
0.0
 10
236.6162004356666
 20
167.7107990887368
 30
0.0
 10
236.7358512177994
 20
167.6711764789932
 30
0.0
 10
236.848474486223
 20
167.6251095798883
 30
0.0
 10
236.9881470771128
 20
167.5557674200836
 30
0.0
 10
237.1118989354337
 20
167.4747735204936
 30
0.0
 10
237.2166547833282
 20
167.3841115052113
 30
0.0
 10
237.3077123506937
 20
167.2876458086132
 30
0.0
 10
237.3763509914098
 20
167.190010143066
 30
0.0
 10
237.4081911175677
 20
167.1140054581043
 30
0.0
 10
237.4171630956867
 20
167.0925886971582
 30
0.0
  0
SPLINE
  5
1EE
330
1F
100
AcDbEntity
  8
0
  6
Continuous
 62
     7
370
    30
100
AcDbSpline
210
0.0
220
0.0
230
1.0
 70
     8
 71
     3
 72
     9
 73
     5
 74
     0
 42
0.000000001
 43
0.00000001
 40
0.0
 40
0.0
 40
0.0
 40
0.0
 40
0.2197193068441552
 40
1.0
 40
1.0
 40
1.0
 40
1.0
 10
237.1753741093233
 20
166.280268129639
 30
0.0
 10
237.1705470374936
 20
166.2757499719157
 30
0.0
 10
237.1485777718015
 20
166.2551866550723
 30
0.0
 10
237.122402272133
 20
166.2367236701244
 30
0.0
 10
237.101978035108
 20
166.2223173594315
 30
0.0
  0
SPLINE
  5
1EF
330
1F
100
AcDbEntity
  8
0
  6
Continuous
 62
     7
370
    30
100
AcDbSpline
210
0.0
220
0.0
230
1.0
 70
     8
 71
     3
 72
    14
 73
    10
 74
     0
 42
0.000000001
 43
0.00000001
 40
0.0
 40
0.0
 40
0.0
 40
0.0
 40
0.0512764192986218
 40
0.1778250893690344
 40
0.4240095994358027
 40
0.5489782169424096
 40
0.6757815370899392
 40
0.8368996896597344
 40
1.0
 40
1.0
 40
1.0
 40
1.0
 10
235.6407123130684
 20
165.9111072325733
 30
0.0
 10
235.6215973895581
 20
165.9122902493516
 30
0.0
 10
235.5553074062091
 20
165.9163929161761
 30
0.0
 10
235.4002484063307
 20
165.9417834107856
 30
0.0
 10
235.2223913695412
 20
165.9792065085324
 30
0.0
 10
235.0539639330268
 20
166.0294475383654
 30
0.0
 10
234.9204647262171
 20
166.0768720008897
 30
0.0
 10
234.7824716199183
 20
166.1352070854227
 30
0.0
 10
234.6941539702147
 20
166.183332883686
 30
0.0
 10
234.6497251738226
 20
166.2075428949286
 30
0.0
  0
LINE
  5
1F0
330
1F
100
AcDbEntity
  8
0
  6
Continuous
 62
     7
370
    30
100
AcDbLine
 10
246.06949969
 20
123.8099119359
 30
0.0
 11
246.06949969
 21
144.223432233
 31
0.0
  0
LINE
  5
1F1
330
1F
100
AcDbEntity
  8
0
  6
Continuous
 62
     7
370
    30
100
AcDbLine
 10
237.2306649252
 20
128.9124626347
 30
0.0
 11
246.06949969
 21
123.8099119359
 31
0.0
  0
LINE
  5
1F2
330
1F
100
AcDbEntity
  8
0
  6
Continuous
 62
     7
370
    30
100
AcDbLine
 10
237.2306649252
 20
135.4447891298
 30
0.0
 11
237.2306649252
 21
128.9124626347
 31
0.0
  0
LINE
  5
1F3
330
1F
100
AcDbEntity
  8
0
  6
Continuous
 62
     7
370
    30
100
AcDbLine
 10
230.1595971133
 20
139.5268296889
 30
0.0
 11
237.2306649252
 21
135.4447891298
 31
0.0
  0
LINE
  5
1F4
330
1F
100
AcDbEntity
  8
0
  6
Continuous
 62
     7
370
    30
100
AcDbLine
 10
230.1595971133
 20
132.9945031939
 30
0.0
 11
230.1595971133
 21
139.5268296889
 31
0.0
  0
LINE
  5
1F5
330
1F
100
AcDbEntity
  8
0
  6
Continuous
 62
     7
370
    30
100
AcDbLine
 10
221.3207623485
 20
138.0970538928
 30
0.0
 11
230.1595971133
 21
132.9945031939
 31
0.0
  0
LINE
  5
1F6
330
1F
100
AcDbEntity
  8
0
  6
Continuous
 62
     7
370
    30
100
AcDbLine
 10
221.3207623485
 20
158.5105741899
 30
0.0
 11
221.3207623485
 21
138.0970538928
 31
0.0
  0
ARC
  5
1F7
330
1F
100
AcDbEntity
  8
0
  6
Continuous
 62
     7
370
    30
100
AcDbCircle
 10
238.9098744686
 20
139.8890710266
 30
0.0
 40
0.7523368173021281
100
AcDbArc
 50
283.5642567497
 51
346.2437464733
  0
ARC
  5
1F8
330
1F
100
AcDbEntity
  8
0
  6
Continuous
 62
     7
370
    30
100
AcDbCircle
 10
240.5559935857
 20
139.4837633873
 30
0.0
 40
0.9429467761928297
100
AcDbArc
 50
73.9036018371
 51
166.1071499177
  0
ARC
  5
1F9
330
1F
100
AcDbEntity
  8
0
  6
Continuous
 62
     7
370
    30
100
AcDbCircle
 10
241.0277572064
 20
141.1119868314
 30
0.0
 40
0.7522454629478663
100
AcDbArc
 50
253.7636842298
 51
316.4483945126
  0
LWPOLYLINE
  5
1FA
330
1F
100
AcDbEntity
  8
0
  6
Continuous
 62
     7
370
    30
100
AcDbPolyline
 90
       50
 70
   128
 43
0.0
 10
241.5729501792
 20
140.5936839672
 10
242.019131352
 20
141.1655646871
 10
242.3999976253
 20
141.8174917675
 10
242.7125605031
 20
142.5443498131
 10
242.9543674372
 20
143.3404354771
 10
243.123521071
 20
144.1995022132
 10
243.2186941278
 20
145.114809289
 10
243.2391398249
 20
146.0791746782
 10
243.1846977337
 20
147.0850314147
 10
243.0557950381
 20
148.1244869674
 10
242.8534431829
 20
149.1893851695
 10
242.5792299374
 20
150.2713702167
 10
242.2353069364
 20
151.3619522311
 10
241.8243727979
 20
152.4525738785
 10
241.3496519477
 20
153.5346775133
 10
240.814869319
 20
154.5997723275
 10
240.2242211242
 20
155.6395009738
 10
239.5823419291
 20
156.6457051426
 10
238.8942682874
 20
157.6104895767
 10
238.1653992212
 20
158.526284022
 10
237.4014538568
 20
159.3859026278
 10
236.6084265493
 20
160.1826003316
 10
235.7925398477
 20
160.9101257846
 10
234.9601956688
 20
161.5627704031
 10
234.1179250643
 20
162.1354131617
 10
233.2723369742
 20
162.6235607756
 10
232.4300663696
 20
163.0233829575
 10
231.5977221907
 20
163.3317424724
 10
230.7818354891
 20
163.546219754
 10
229.9888081817
 20
163.66513189
 10
229.2248628172
 20
163.6875458274
 10
228.495993751
 20
163.6132856935
 10
227.8079201094
 20
163.4429341761
 10
227.1660409143
 20
163.1778279512
 10
226.5753927194
 20
162.8200471949
 10
226.0406100907
 20
162.3723992611
 10
225.5658892406
 20
161.8383966532
 10
225.1549551021
 20
161.2222294632
 10
224.8110321011
 20
160.5287324935
 10
224.5368188555
 20
159.7633473207
 10
224.3344670003
 20
158.9320795975
 10
224.2055643048
 20
158.0414519292
 10
224.1511222136
 20
157.0984526933
 10
224.1715679107
 20
156.1104812046
 10
224.2667409675
 20
155.0852896564
 10
224.4358946013
 20
154.0309222919
 10
224.6777015353
 20
152.9556522844
 10
224.9902644132
 20
151.8679168215
 10
225.3711306865
 20
150.7762509021
 10
225.8173118592
 20
149.6892203654
  0
ARC
  5
1FB
330
1F
100
AcDbEntity
  8
0
  6
Continuous
 62
     7
370
    30
100
AcDbCircle
 10
228.8505886365
 20
151.01525972
 30
0.0
 40
3.310460447938603
100
AcDbArc
 50
203.6132163353
 51
226.5241990092
  0
ARC
  5
1FC
330
1F
100
AcDbEntity
  8
0
  6
Continuous
 62
     7
370
    30
100
AcDbCircle
 10
223.7306127506
 20
145.6131684504
 30
0.0
 40
4.132438515965342
100
AcDbArc
 50
13.4548453344
 51
46.5451548112
  0
ARC
  5
1FD
330
1F
100
AcDbEntity
  8
0
  6
Continuous
 62
     7
370
    30
100
AcDbCircle
 10
230.9691013993
 20
147.3462161458
 30
0.0
 40
3.310623632436211
100
AcDbArc
 50
193.4762656298
 51
216.3864871635
  0
LWPOLYLINE
  5
1FE
330
1F
100
AcDbEntity
  8
0
  6
Continuous
 62
     7
370
    30
100
AcDbPolyline
 90
       14
 70
   128
 43
0.0
 10
228.3039377114
 20
145.3822580627
 10
229.0532280673
 20
144.414460142
 10
229.8420618636
 20
143.5058895415
 10
230.6637191835
 20
142.6642861922
 10
231.511200493
 20
141.8968195441
 10
232.3772862687
 20
141.2100274918
 10
233.2545984997
 20
140.609760679
 10
234.1356635388
 20
140.1011326583
 10
235.0129757697
 20
139.68847633
 10
235.8790615454
 20
139.3753070304
 10
236.7265428549
 20
139.1642925861
 10
237.5482001748
 20
139.0572305868
 10
238.3370339712
 20
139.0550330722
 10
239.0863243271
 20
139.1577187626
  0
LWPOLYLINE
  5
1FF
330
1F
100
AcDbEntity
  8
0
  6
Continuous
 62
     7
370
    30
100
AcDbPolyline
 90
       14
 70
   128
 43
0.0
 10
229.1763107034
 20
163.6856522582
 10
229.0440423986
 20
163.4673517707
 10
228.7001193976
 20
162.773854801
 10
228.425906152
 20
162.0084696282
 10
228.2235542969
 20
161.177201905
 10
228.0946516013
 20
160.2865742367
 10
228.0402095101
 20
159.3435750008
 10
228.0606552072
 20
158.3556035121
 10
228.155828264
 20
157.330411964
 10
228.3249818978
 20
156.2760445994
 10
228.5667888318
 20
155.2007745919
 10
228.8793517097
 20
154.1130391291
 10
229.260217983
 20
153.0213732096
 10
229.7063991558
 20
151.9343426729
  0
LINE
  5
200
330
1F
100
AcDbEntity
  8
0
  6
Continuous
 62
     7
370
    30
100
AcDbLine
 10
225.8173118592
 20
149.6892203654
 30
0.0
 11
229.7063991558
 21
151.9343426729
 31
0.0
  0
LWPOLYLINE
  5
201
330
1F
100
AcDbEntity
  8
0
  6
Continuous
 62
     7
370
    30
100
AcDbPolyline
 90
       34
 70
   128
 43
0.0
 10
243.0837713452
 20
144.0855880328
 10
242.5186400406
 20
143.8204040759
 10
241.9055405869
 20
143.6492616767
 10
241.2508244374
 20
143.5740671026
 10
240.5607968666
 20
143.5955445183
 10
239.8421032171
 20
143.7134870848
 10
239.1016649018
 20
143.9267589505
 10
238.3466127463
 20
144.2333061908
 10
237.5842183157
 20
144.6301765882
 10
236.8218238852
 20
145.1135480639
 10
236.0667717297
 20
145.6787654862
 10
235.3263334144
 20
146.3203855025
 10
234.6076397649
 20
147.0322289612
 10
233.9176121941
 20
147.8074404207
 10
233.2628960446
 20
148.6385541709
 10
232.6497965909
 20
149.5175661319
 10
232.0842183157
 20
150.4360109382
 10
231.5716080472
 20
151.3850434642
 10
231.1169025024
 20
152.3555240077
 10
230.7244807443
 20
153.3381063108
 10
230.3981220089
 20
154.3233275686
 10
230.1409693093
 20
155.3016995619
 10
229.9554991665
 20
156.2638000336
 10
229.8434977594
 20
157.2003634301
 10
229.8060437227
 20
158.102370134
 10
229.8434977594
 20
158.9611333276
 10
229.9554991665
 20
159.768382652
 10
230.1409693093
 20
160.5163438549
 10
230.3981220089
 20
161.1978136609
 10
230.7244807443
 20
161.8062291434
 10
231.1169025024
 20
162.3357309286
 10
231.5716080472
 20
162.7812196249
 10
232.0842183157
 20
163.1384049326
 10
232.0846652862
 20
163.1386630051
  0
LWPOLYLINE
  5
202
330
1F
100
AcDbEntity
  8
0
  6
Continuous
 62
     7
370
    30
100
AcDbPolyline
 90
       13
 70
   128
 43
0.0
 10
232.1930250079
 20
147.6273803703
 10
232.9423153638
 20
146.6595824495
 10
233.7311491601
 20
145.751011849
 10
234.55280648
 20
144.9094084997
 10
235.4002877895
 20
144.1419418516
 10
236.2663735653
 20
143.4551497993
 10
237.1436857962
 20
142.8548829865
 10
238.0247508353
 20
142.3462549659
 10
238.9020630662
 20
141.9335986375
 10
239.768148842
 20
141.6204293379
 10
240.6156301514
 20
141.4094148936
 10
241.4372874714
 20
141.3023528944
 10
241.7858108793
 20
141.2884780538
  0
ARC
  5
203
330
1F
100
AcDbEntity
  8
0
  6
Continuous
 62
     7
370
    30
100
AcDbCircle
 10
234.8581886957
 20
149.5913384533
 30
0.0
 40
3.310623632278594
100
AcDbArc
 50
193.4762656295
 51
216.3864871643
  0
ARC
  5
204
330
1F
100
AcDbEntity
  8
0
  6
Continuous
 62
     7
370
    30
100
AcDbCircle
 10
227.6197000471
 20
147.858290758
 30
0.0
 40
4.132438515965417
100
AcDbArc
 50
13.4548453344
 51
46.5451548112
  0
ARC
  5
205
330
1F
100
AcDbEntity
  8
0
  6
Continuous
 62
     7
370
    30
100
AcDbCircle
 10
232.7396759332
 20
153.2603820276
 30
0.0
 40
3.310460448115311
100
AcDbArc
 50
203.6132163357
 51
226.5241990083
  0
ARC
  5
206
330
1F
100
AcDbEntity
  8
0
  6
Continuous
 62
     7
370
    30
100
AcDbCircle
 10
245.5192694056
 20
128.2096281167
 30
0.0
 40
7.627915997973613
100
AcDbArc
 50
302.3868559778
 51
357.6131438766
  0
LWPOLYLINE
  5
207
330
1F
100
AcDbEntity
  8
0
  6
Continuous
 62
     7
370
    30
100
AcDbPolyline
 90
       11
 70
   128
 43
0.0
 10
246.06949969
 20
123.8099119359
 10
246.1130279792
 20
123.1963646569
 10
246.2425410361
 20
122.6481816413
 10
246.4548498192
 20
122.1788609741
 10
246.7447265818
 20
121.7999588878
 10
247.1050335959
 20
121.5208052092
 10
247.526898907
 20
121.3482736284
 10
247.9999347911
 20
121.2866124454
 10
248.5124935348
 20
121.3373399633
 10
249.0519542407
 20
121.4992071022
 10
249.6050335959
 20
121.768228156
  0
LWPOLYLINE
  5
208
330
1F
100
AcDbEntity
  8
0
  6
Continuous
 62
     7
370
    30
100
AcDbPolyline
 90
       24
 70
   128
 43
0.0
 10
249.6050335959
 20
127.0757434332
 10
249.3188709063
 20
126.8651259064
 10
249.0539315942
 20
126.5792902731
 10
248.8298649965
 20
126.2394356548
 10
248.6632891076
 20
125.8707675136
 10
248.5665580993
 20
125.500628279
 10
248.5468460678
 20
125.1564694849
 10
248.6056149644
 20
124.8638158146
 10
248.7385061689
 20
124.644372052
 10
248.9356637485
 20
124.514413337
 10
249.1824654275
 20
124.4835781131
 10
249.4606070545
 20
124.5541532877
 10
249.7494601373
 20
124.720904623
 10
250.0276017643
 20
124.9714649353
 10
250.2744034434
 20
125.2872513125
 10
250.471561023
 20
125.6448433236
 10
250.6044522274
 20
126.017720005
 10
250.663221124
 20
126.3782267991
 10
250.6435090925
 20
126.699626566
 10
250.5467780842
 20
126.9580825556
 10
250.3802021953
 20
127.1344262692
 10
250.1561355976
 20
127.2155791005
 10
249.8911962856
 20
127.1955223152
 10
249.6050335959
 20
127.0757434332
  0
LWPOLYLINE
  5
209
330
1F
100
AcDbEntity
  8
0
  6
Continuous
 62
     7
370
    30
100
AcDbPolyline
 90
       26
 70
   128
 43
0.0
 10
250.7717597849
 20
130.1989025612
 10
250.7351049362
 20
130.5128001473
 10
250.6274435491
 20
130.7646536063
 10
250.4555403845
 20
130.9386380589
 10
250.2301967504
 20
131.0238214222
 10
249.9655718161
 20
131.0148513121
 10
249.6782929395
 20
130.9122913537
 10
249.3864109089
 20
130.7225857663
 10
249.1082657457
 20
130.4576544497
 10
248.8613343336
 20
130.1341440128
 10
248.6611322813
 20
129.7723818063
 10
248.52023902
 20
129.3950986799
 10
248.4475073914
 20
129.0260007201
 10
248.4475073914
 20
128.6882797092
 10
248.52023902
 20
128.4031559002
 10
248.6611322813
 20
128.1885446708
 10
248.8613343336
 20
128.0579308337
 10
249.1082657457
 20
128.0195213368
 10
249.3864109089
 20
128.0757295899
 10
249.6782929395
 20
128.2230238218
 10
249.9655718161
 20
128.4521489942
 10
250.2301967504
 20
128.7487083299
 10
250.4555403845
 20
129.094067915
 10
250.6274435491
 20
129.4665275369
 10
250.7351049362
 20
129.8426841875
 10
250.7717597849
 20
130.1989025612
  0
LINE
  5
20A
330
1F
100
AcDbEntity
  8
0
  6
Continuous
 62
     7
370
    30
100
AcDbLine
 10
253.1405675019
 20
127.891952495
 30
0.0
 11
253.1405675019
 21
148.3054727921
 31
0.0
  0
LWPOLYLINE
  5
20B
330
1F
100
AcDbEntity
  8
0
  6
Continuous
 62
     7
370
    30
100
AcDbPolyline
 90
       25
 70
   128
 43
0.0
 10
233.3910187104
 20
162.560269184
 10
233.3229498246
 20
162.3532621065
 10
233.1374796818
 20
161.6053009036
 10
233.0254782747
 20
160.7980515792
 10
232.988024238
 20
159.9392883856
 10
233.0254782747
 20
159.0372816817
 10
233.1374796818
 20
158.1007182852
 10
233.3229498246
 20
157.1386178135
 10
233.5801025243
 20
156.1602458202
 10
233.9064612597
 20
155.1750245624
 10
234.2988830178
 20
154.1924422593
 10
234.7535885626
 20
153.2219617158
 10
235.2661988311
 20
152.2729291898
 10
235.8317771062
 20
151.3544843836
 10
236.44487656
 20
150.4754724225
 10
237.0995927095
 20
149.6443586723
 10
237.7896202803
 20
148.8691472128
 10
238.5083139297
 20
148.1573037541
 10
239.248752245
 20
147.5156837378
 10
240.0038044005
 20
146.9504663155
 10
240.7661988311
 20
146.4670948398
 10
241.5285932617
 20
146.0702244424
 10
242.2836454171
 20
145.7636772021
 10
243.0240837325
 20
145.5504053364
 10
243.2361776143
 20
145.5061058997
  0
LINE
  5
20C
330
1F
100
AcDbEntity
  8
0
  6
Continuous
 62
     7
370
    30
100
AcDbLine
 10
232.1930250079
 20
147.6273803703
 30
0.0
 11
228.3039377114
 21
145.3822580627
 31
0.0
  0
ARC
  5
20D
330
1F
100
AcDbEntity
  8
0
  6
Continuous
 62
     7
370
    30
100
AcDbCircle
 10
239.6690308942
 20
128.6367609407
 30
0.0
 40
2.453903018277322
100
AcDbArc
 50
173.5490657237
 51
235.1387538829
  0
LINE
  5
20E
330
1F
100
AcDbEntity
  8
0
  6
Continuous
 62
     7
370
    30
100
AcDbLine
 10
227.7496306901
 20
146.574699984
 30
0.0
 11
231.6387179866
 21
148.8198222915
 31
0.0
  0
LINE
  5
20F
330
1F
100
AcDbEntity
  8
0
  6
Continuous
 62
     7
370
    30
100
AcDbLine
 10
230.4619197438
 20
150.8580966323
 30
0.0
 11
226.5728324473
 21
148.6129743248
 31
0.0
  0
ARC
  5
210
330
1F
100
AcDbEntity
  8
0
  6
Continuous
 62
     7
370
    30
100
AcDbCircle
 10
223.7591283176
 20
137.8213521988
 30
0.0
 40
2.453903018388593
100
AcDbArc
 50
173.5490657252
 51
235.1387538814
  0
LINE
  5
211
330
1F
100
AcDbEntity
  8
0
  6
Continuous
 62
     8
370
    30
100
AcDbLine
 10
240.8174295911
 20
140.38974343
 30
0.0
 11
241.923075425
 21
141.0280191838
 31
0.0
  0
LINE
  5
212
330
1F
100
AcDbEntity
  8
0
  6
Continuous
 62
     8
370
    30
100
AcDbLine
 10
239.0863243271
 20
139.1577187626
 30
0.0
 11
239.4545835163
 21
139.3703102674
 31
0.0
  0
ENDSEC
  0
SECTION
  2
OBJECTS
  0
DICTIONARY
  5
C
330
0
100
AcDbDictionary
281
     1
  3
ACAD_GROUP
350
D
  3
ACAD_LAYOUT
350
1A
  3
ACAD_MLINESTYLE
350
17
  3
ACAD_PLOTSETTINGS
350
19
  3
ACAD_PLOTSTYLENAME
350
E
  3
ACAD_SCALELIST
350
47
  0
DICTIONARY
  5
D
102
{ACAD_REACTORS
330
C
102
}
330
C
100
AcDbDictionary
281
     1
  0
DICTIONARY
  5
1A
102
{ACAD_REACTORS
330
C
102
}
330
C
100
AcDbDictionary
281
     1
  3
Layout1
350
1E
  3
Layout2
350
26
  3
Model
350
22
  0
DICTIONARY
  5
17
102
{ACAD_REACTORS
330
C
102
}
330
C
100
AcDbDictionary
281
     1
  3
Standard
350
18
  0
DICTIONARY
  5
19
102
{ACAD_REACTORS
330
C
102
}
330
C
100
AcDbDictionary
281
     1
  0
ACDBDICTIONARYWDFLT
  5
E
102
{ACAD_REACTORS
330
C
102
}
330
C
100
AcDbDictionary
281
     1
  3
Normal
350
F
100
AcDbDictionaryWithDefault
340
F
  0
DICTIONARY
  5
47
102
{ACAD_REACTORS
330
C
102
}
330
C
100
AcDbDictionary
281
     1
  3
A0
350
48
  3
A1
350
49
  3
A2
350
4A
  3
A3
350
4B
  3
A4
350
4C
  3
A5
350
4D
  3
A6
350
4E
  3
A7
350
4F
  3
A8
350
50
  3
A9
350
51
  3
B0
350
52
  3
B1
350
53
  3
B2
350
54
  3
B3
350
55
  3
B4
350
56
  3
B5
350
57
  3
B6
350
58
  3
B7
350
59
  3
B8
350
5A
  3
B9
350
5B
  3
C0
350
5C
  3
C1
350
5D
  3
C2
350
5E
  3
C3
350
5F
  3
C4
350
60
  3
C5
350
61
  3
C6
350
62
  3
C7
350
63
  3
C8
350
64
  3
C9
350
65
  3
D0
350
66
  3
D1
350
67
  3
D2
350
68
  0
LAYOUT
  5
1E
102
{ACAD_REACTORS
330
1A
102
}
330
1A
100
AcDbPlotSettings
  1

  2
none_device
  4

  6

 40
0.0
 41
0.0
 42
0.0
 43
0.0
 44
0.0
 45
0.0
 46
0.0
 47
0.0
 48
0.0
 49
0.0
140
0.0
141
0.0
142
1.0
143
1.0
 70
   688
 72
     1
 73
     0
 74
     5
  7

 75
    16
147
1.0
148
0.0
149
0.0
100
AcDbLayout
  1
Layout1
 70
     1
 71
     1
 10
0.0
 20
0.0
 11
420.0
 21
297.0
 12
0.0
 22
0.0
 32
0.0
 14
1.0000000000E+20
 24
1.0000000000E+20
 34
1.0000000000E+20
 15
-1.0000000000E+20
 25
-1.0000000000E+20
 35
-1.0000000000E+20
146
0.0
 13
0.0
 23
0.0
 33
0.0
 16
1.0
 26
0.0
 36
0.0
 17
0.0
 27
1.0
 37
0.0
 76
     0
330
1B
  0
LAYOUT
  5
26
102
{ACAD_REACTORS
330
1A
102
}
330
1A
100
AcDbPlotSettings
  1

  2
none_device
  4

  6

 40
0.0
 41
0.0
 42
0.0
 43
0.0
 44
0.0
 45
0.0
 46
0.0
 47
0.0
 48
0.0
 49
0.0
140
0.0
141
0.0
142
1.0
143
1.0
 70
   688
 72
     1
 73
     0
 74
     5
  7

 75
    16
147
1.0
148
0.0
149
0.0
100
AcDbLayout
  1
Layout2
 70
     1
 71
     2
 10
0.0
 20
0.0
 11
0.0
 21
0.0
 12
0.0
 22
0.0
 32
0.0
 14
0.0
 24
0.0
 34
0.0
 15
0.0
 25
0.0
 35
0.0
146
0.0
 13
0.0
 23
0.0
 33
0.0
 16
1.0
 26
0.0
 36
0.0
 17
0.0
 27
1.0
 37
0.0
 76
     0
330
23
  0
LAYOUT
  5
22
102
{ACAD_REACTORS
330
1A
102
}
330
1A
100
AcDbPlotSettings
  1

  2
none_device
  4
Letter_(8.50_x_11.00_Inches)
  6

 40
6.35
 41
6.35
 42
6.35000508
 43
6.35000508
 44
215.9
 45
279.4
 46
0.0
 47
0.0
 48
0.0
 49
0.0
140
0.0
141
0.0
142
1.0
143
1.0
 70
  1712
 72
     1
 73
     0
 74
     0
  7

 75
     0
147
1.0
148
0.0
149
0.0
100
AcDbLayout
  1
Model
 70
     1
 71
     0
 10
0.0
 20
0.0
 11
297.0
 21
210.0
 12
0.0
 22
0.0
 32
0.0
 14
0.0
 24
0.0
 34
0.0
 15
297.0
 25
210.0
 35
0.0
146
0.0
 13
0.0
 23
0.0
 33
0.0
 16
1.0
 26
0.0
 36
0.0
 17
0.0
 27
1.0
 37
0.0
 76
     0
330
1F
331
29
  0
MLINESTYLE
  5
18
102
{ACAD_REACTORS
330
17
102
}
330
17
100
AcDbMlineStyle
  2
Standard
 70
     0
  3

 62
   256
 51
90.0
 52
90.0
 71
     2
 49
0.5
 62
   256
  6
BYLAYER
 49
-0.5
 62
   256
  6
BYLAYER
  0
ACDBPLACEHOLDER
  5
F
102
{ACAD_REACTORS
330
E
102
}
330
E
  0
SCALE
  5
48
102
{ACAD_REACTORS
330
47
102
}
330
47
100
AcDbScale
 70
     0
300
1:1
140
1.0
141
1.0
290
     1
  0
SCALE
  5
49
102
{ACAD_REACTORS
330
47
102
}
330
47
100
AcDbScale
 70
     0
300
1:2
140
1.0
141
2.0
290
     0
  0
SCALE
  5
4A
102
{ACAD_REACTORS
330
47
102
}
330
47
100
AcDbScale
 70
     0
300
1:4
140
1.0
141
4.0
290
     0
  0
SCALE
  5
4B
102
{ACAD_REACTORS
330
47
102
}
330
47
100
AcDbScale
 70
     0
300
1:5
140
1.0
141
5.0
290
     0
  0
SCALE
  5
4C
102
{ACAD_REACTORS
330
47
102
}
330
47
100
AcDbScale
 70
     0
300
1:8
140
1.0
141
8.0
290
     0
  0
SCALE
  5
4D
102
{ACAD_REACTORS
330
47
102
}
330
47
100
AcDbScale
 70
     0
300
1:10
140
1.0
141
10.0
290
     0
  0
SCALE
  5
4E
102
{ACAD_REACTORS
330
47
102
}
330
47
100
AcDbScale
 70
     0
300
1:16
140
1.0
141
16.0
290
     0
  0
SCALE
  5
4F
102
{ACAD_REACTORS
330
47
102
}
330
47
100
AcDbScale
 70
     0
300
1:20
140
1.0
141
20.0
290
     0
  0
SCALE
  5
50
102
{ACAD_REACTORS
330
47
102
}
330
47
100
AcDbScale
 70
     0
300
1:30
140
1.0
141
30.0
290
     0
  0
SCALE
  5
51
102
{ACAD_REACTORS
330
47
102
}
330
47
100
AcDbScale
 70
     0
300
1:40
140
1.0
141
40.0
290
     0
  0
SCALE
  5
52
102
{ACAD_REACTORS
330
47
102
}
330
47
100
AcDbScale
 70
     0
300
1:50
140
1.0
141
50.0
290
     0
  0
SCALE
  5
53
102
{ACAD_REACTORS
330
47
102
}
330
47
100
AcDbScale
 70
     0
300
1:100
140
1.0
141
100.0
290
     0
  0
SCALE
  5
54
102
{ACAD_REACTORS
330
47
102
}
330
47
100
AcDbScale
 70
     0
300
2:1
140
2.0
141
1.0
290
     0
  0
SCALE
  5
55
102
{ACAD_REACTORS
330
47
102
}
330
47
100
AcDbScale
 70
     0
300
4:1
140
4.0
141
1.0
290
     0
  0
SCALE
  5
56
102
{ACAD_REACTORS
330
47
102
}
330
47
100
AcDbScale
 70
     0
300
8:1
140
8.0
141
1.0
290
     0
  0
SCALE
  5
57
102
{ACAD_REACTORS
330
47
102
}
330
47
100
AcDbScale
 70
     0
300
10:1
140
10.0
141
1.0
290
     0
  0
SCALE
  5
58
102
{ACAD_REACTORS
330
47
102
}
330
47
100
AcDbScale
 70
     0
300
100:1
140
100.0
141
1.0
290
     0
  0
SCALE
  5
59
102
{ACAD_REACTORS
330
47
102
}
330
47
100
AcDbScale
 70
     0
300
1/128" = 1'-0"
140
0.0078125
141
12.0
290
     0
  0
SCALE
  5
5A
102
{ACAD_REACTORS
330
47
102
}
330
47
100
AcDbScale
 70
     0
300
1/64" = 1'-0"
140
0.015625
141
12.0
290
     0
  0
SCALE
  5
5B
102
{ACAD_REACTORS
330
47
102
}
330
47
100
AcDbScale
 70
     0
300
1/32" = 1'-0"
140
0.03125
141
12.0
290
     0
  0
SCALE
  5
5C
102
{ACAD_REACTORS
330
47
102
}
330
47
100
AcDbScale
 70
     0
300
1/16" = 1'-0"
140
0.0625
141
12.0
290
     0
  0
SCALE
  5
5D
102
{ACAD_REACTORS
330
47
102
}
330
47
100
AcDbScale
 70
     0
300
3/32" = 1'-0"
140
0.09375
141
12.0
290
     0
  0
SCALE
  5
5E
102
{ACAD_REACTORS
330
47
102
}
330
47
100
AcDbScale
 70
     0
300
1/8" = 1'-0"
140
0.125
141
12.0
290
     0
  0
SCALE
  5
5F
102
{ACAD_REACTORS
330
47
102
}
330
47
100
AcDbScale
 70
     0
300
3/16" = 1'-0"
140
0.1875
141
12.0
290
     0
  0
SCALE
  5
60
102
{ACAD_REACTORS
330
47
102
}
330
47
100
AcDbScale
 70
     0
300
1/4" = 1'-0"
140
0.25
141
12.0
290
     0
  0
SCALE
  5
61
102
{ACAD_REACTORS
330
47
102
}
330
47
100
AcDbScale
 70
     0
300
3/8" = 1'-0"
140
0.375
141
12.0
290
     0
  0
SCALE
  5
62
102
{ACAD_REACTORS
330
47
102
}
330
47
100
AcDbScale
 70
     0
300
1/2" = 1'-0"
140
0.5
141
12.0
290
     0
  0
SCALE
  5
63
102
{ACAD_REACTORS
330
47
102
}
330
47
100
AcDbScale
 70
     0
300
3/4" = 1'-0"
140
0.75
141
12.0
290
     0
  0
SCALE
  5
64
102
{ACAD_REACTORS
330
47
102
}
330
47
100
AcDbScale
 70
     0
300
1" = 1'-0"
140
1.0
141
12.0
290
     0
  0
SCALE
  5
65
102
{ACAD_REACTORS
330
47
102
}
330
47
100
AcDbScale
 70
     0
300
1-1/2" = 1'-0"
140
1.5
141
12.0
290
     0
  0
SCALE
  5
66
102
{ACAD_REACTORS
330
47
102
}
330
47
100
AcDbScale
 70
     0
300
3" = 1'-0"
140
3.0
141
12.0
290
     0
  0
SCALE
  5
67
102
{ACAD_REACTORS
330
47
102
}
330
47
100
AcDbScale
 70
     0
300
6" = 1'-0"
140
6.0
141
12.0
290
     0
  0
SCALE
  5
68
102
{ACAD_REACTORS
330
47
102
}
330
47
100
AcDbScale
 70
     0
300
1'-0" = 1'-0"
140
12.0
141
12.0
290
     0
  0
ENDSEC
  0
EOF
