  0
SECTION
  2
HEADER
  9
$ACADVER
  1
AC1015
  9
$ACADMAINTVER
 70
     6
  9
$DWGCODEPAGE
  3
ANSI_950
  9
$INSBASE
 10
0.0
 20
0.0
 30
0.0
  9
$EXTMIN
 10
0.0
 20
0.0
 30
0.0
  9
$EXTMAX
 10
297.0
 20
210.0
 30
0.0
  9
$LIMMIN
 10
0.0
 20
0.0
  9
$LIMMAX
 10
297.0
 20
210.0
  9
$ORTHOMODE
 70
     0
  9
$REGENMODE
 70
     1
  9
$FILLMODE
 70
     1
  9
$QTEXTMODE
 70
     0
  9
$MIRRTEXT
 70
     1
  9
$LTSCALE
 40
1.0
  9
$ATTMODE
 70
     1
  9
$TEXTSIZE
 40
2.5
  9
$TRACEWID
 40
1.0
  9
$TEXTSTYLE
  7
Standard
  9
$CLAYER
  8
0
  9
$CELTYPE
  6
ByLayer
  9
$CECOLOR
 62
   256
  9
$CELTSCALE
 40
1.0
  9
$DISPSILH
 70
     0
  9
$DIMSCALE
 40
1.0
  9
$DIMASZ
 40
2.0
  9
$DIMEXO
 40
1.0
  9
$DIMDLI
 40
3.75
  9
$DIMRND
 40
0.0
  9
$DIMDLE
 40
0.0
  9
$DIMEXE
 40
1.0
  9
$DIMTP
 40
0.0
  9
$DIMTM
 40
0.0
  9
$DIMTXT
 40
2.5
  9
$DIMCEN
 40
2.5
  9
$DIMTSZ
 40
0.0
  9
$DIMTOL
 70
     0
  9
$DIMLIM
 70
     0
  9
$DIMTIH
 70
     1
  9
$DIMTOH
 70
     1
  9
$DIMSE1
 70
     0
  9
$DIMSE2
 70
     0
  9
$DIMTAD
 70
     1
  9
$DIMZIN
 70
     0
  9
$DIMBLK
  1

  9
$DIMASO
 70
     1
  9
$DIMSHO
 70
     1
  9
$DIMPOST
  1

  9
$DIMAPOST
  1

  9
$DIMALT
 70
     0
  9
$DIMALTD
 70
     3
  9
$DIMALTF
 40
0.0393700787
  9
$DIMLFAC
 40
1.0
  9
$DIMTOFL
 70
     1
  9
$DIMTVP
 40
0.0
  9
$DIMTIX
 70
     0
  9
$DIMSOXD
 70
     0
  9
$DIMSAH
 70
     0
  9
$DIMBLK1
  1

  9
$DIMBLK2
  1

  9
$DIMSTYLE
  2
ISO-25
  9
$DIMCLRD
 70
     0
  9
$DIMCLRE
 70
     0
  9
$DIMCLRT
 70
     0
  9
$DIMTFAC
 40
1.0
  9
$DIMGAP
 40
1.0
  9
$DIMJUST
 70
     0
  9
$DIMSD1
 70
     0
  9
$DIMSD2
 70
     0
  9
$DIMTOLJ
 70
     0
  9
$DIMTZIN
 70
     0
  9
$DIMALTZ
 70
     0
  9
$DIMALTTZ
 70
     0
  9
$DIMUPT
 70
     0
  9
$DIMDEC
 70
     2
  9
$DIMTDEC
 70
     2
  9
$DIMALTU
 70
     2
  9
$DIMALTTD
 70
     3
  9
$DIMTXSTY
  7
Standard
  9
$DIMAUNIT
 70
     0
  9
$DIMADEC
 70
     1
  9
$DIMALTRND
 40
0.0
  9
$DIMAZIN
 70
     0
  9
$DIMDSEP
 70
    44
  9
$DIMATFIT
 70
     3
  9
$DIMFRAC
 70
     0
  9
$DIMLDRBLK
  1

  9
$DIMLUNIT
 70
     2
  9
$DIMLWD
 70
    -2
  9
$DIMLWE
 70
    -2
  9
$DIMTMOVE
 70
     0
  9
$LUNITS
 70
     2
  9
$LUPREC
 70
     2
  9
$SKETCHINC
 40
1.0
  9
$FILLETRAD
 40
10.0
  9
$AUNITS
 70
     0
  9
$AUPREC
 70
     1
  9
$MENU
  1
.
  9
$ELEVATION
 40
0.0
  9
$PELEVATION
 40
0.0
  9
$THICKNESS
 40
0.0
  9
$LIMCHECK
 70
     0
  9
$CHAMFERA
 40
0.0
  9
$CHAMFERB
 40
0.0
  9
$CHAMFERC
 40
0.0
  9
$CHAMFERD
 40
0.0
  9
$SKPOLY
 70
     0
  9
$TDCREATE
 40
2457836.50097978
  9
$TDUCREATE
 40
2457836.167646447
  9
$TDUPDATE
 40
2457836.500983403
  9
$TDUUPDATE
 40
2457836.16765007
  9
$TDINDWG
 40
0.0000000116
  9
$TDUSRTIMER
 40
0.0000000116
  9
$USRTIMER
 70
     1
  9
$ANGBASE
 50
0.0
  9
$ANGDIR
 70
     0
  9
$PDMODE
 70
     0
  9
$PDSIZE
 40
-1.0
  9
$PLINEWID
 40
0.0
  9
$SPLFRAME
 70
     0
  9
$SPLINETYPE
 70
     6
  9
$SPLINESEGS
 70
     8
  9
$HANDSEED
  5
213
  9
$SURFTAB1
 70
     6
  9
$SURFTAB2
 70
     6
  9
$SURFTYPE
 70
     6
  9
$SURFU
 70
     6
  9
$SURFV
 70
     6
  9
$UCSBASE
  2

  9
$UCSNAME
  2

  9
$UCSORG
 10
0.0
 20
0.0
 30
0.0
  9
$UCSXDIR
 10
1.0
 20
0.0
 30
0.0
  9
$UCSYDIR
 10
0.0
 20
1.0
 30
0.0
  9
$UCSORTHOREF
  2

  9
$UCSORTHOVIEW
 70
     0
  9
$UCSORGTOP
 10
0.0
 20
0.0
 30
0.0
  9
$UCSORGBOTTOM
 10
0.0
 20
0.0
 30
0.0
  9
$UCSORGLEFT
 10
0.0
 20
0.0
 30
0.0
  9
$UCSORGRIGHT
 10
0.0
 20
0.0
 30
0.0
  9
$UCSORGFRONT
 10
0.0
 20
0.0
 30
0.0
  9
$UCSORGBACK
 10
0.0
 20
0.0
 30
0.0
  9
$PUCSBASE
  2

  9
$PUCSNAME
  2

  9
$PUCSORG
 10
0.0
 20
0.0
 30
0.0
  9
$PUCSXDIR
 10
1.0
 20
0.0
 30
0.0
  9
$PUCSYDIR
 10
0.0
 20
1.0
 30
0.0
  9
$PUCSORTHOREF
  2

  9
$PUCSORTHOVIEW
 70
     0
  9
$PUCSORGTOP
 10
0.0
 20
0.0
 30
0.0
  9
$PUCSORGBOTTOM
 10
0.0
 20
0.0
 30
0.0
  9
$PUCSORGLEFT
 10
0.0
 20
0.0
 30
0.0
  9
$PUCSORGRIGHT
 10
0.0
 20
0.0
 30
0.0
  9
$PUCSORGFRONT
 10
0.0
 20
0.0
 30
0.0
  9
$PUCSORGBACK
 10
0.0
 20
0.0
 30
0.0
  9
$USERI1
 70
     0
  9
$USERI2
 70
     0
  9
$USERI3
 70
     0
  9
$USERI4
 70
     0
  9
$USERI5
 70
     0
  9
$USERR1
 40
0.0
  9
$USERR2
 40
0.0
  9
$USERR3
 40
0.0
  9
$USERR4
 40
0.0
  9
$USERR5
 40
0.0
  9
$WORLDVIEW
 70
     1
  9
$SHADEDGE
 70
     3
  9
$SHADEDIF
 70
    70
  9
$TILEMODE
 70
     1
  9
$MAXACTVP
 70
    64
  9
$PINSBASE
 10
0.0
 20
0.0
 30
0.0
  9
$PLIMCHECK
 70
     0
  9
$PEXTMIN
 10
1.0000000000E+20
 20
1.0000000000E+20
 30
1.0000000000E+20
  9
$PEXTMAX
 10
-1.0000000000E+20
 20
-1.0000000000E+20
 30
-1.0000000000E+20
  9
$PLIMMIN
 10
0.0
 20
0.0
  9
$PLIMMAX
 10
420.0
 20
297.0
  9
$UNITMODE
 70
     0
  9
$VISRETAIN
 70
     1
  9
$PLINEGEN
 70
     0
  9
$PSLTSCALE
 70
     1
  9
$TREEDEPTH
 70
  3020
  9
$CMLSTYLE
  2
Standard
  9
$CMLJUST
 70
     0
  9
$CMLSCALE
 40
20.0
  9
$PROXYGRAPHICS
 70
     1
  9
$MEASUREMENT
 70
     1
  9
$CELWEIGHT
370
    -1
  9
$ENDCAPS
280
     0
  9
$JOINSTYLE
280
     0
  9
$LWDISPLAY
290
     1
  9
$INSUNITS
 70
     4
  9
$HYPERLINKBASE
  1

  9
$STYLESHEET
  1

  9
$XEDIT
290
     1
  9
$CEPSNTYPE
380
     0
  9
$PSTYLEMODE
290
     1
  9
$FINGERPRINTGUID
  2
{E59ECD2A-041D-4130-9845-13DC6F8BED8F}
  9
$VERSIONGUID
  2
{FAEB1C32-E019-11D5-929B-00C0DF256EC4}
  9
$EXTNAMES
290
     1
  9
$PSVPSCALE
 40
0.0
  9
$OLESTARTUP
290
     0
  0
ENDSEC
  0
SECTION
  2
CLASSES
  0
CLASS
  1
ACDBDICTIONARYWDFLT
  2
AcDbDictionaryWithDefault
  3
ObjectDBX Classes
 90
        0
280
     0
281
     0
  0
CLASS
  1
VISUALSTYLE
  2
AcDbVisualStyle
  3
ObjectDBX Classes
 90
     4095
280
     0
281
     0
  0
CLASS
  1
MATERIAL
  2
AcDbMaterial
  3
ObjectDBX Classes
 90
     1153
280
     0
281
     0
  0
CLASS
  1
SCALE
  2
AcDbScale
  3
ObjectDBX Classes
 90
     1153
280
     0
281
     0
  0
CLASS
  1
TABLESTYLE
  2
AcDbTableStyle
  3
ObjectDBX Classes
 90
     4095
280
     0
281
     0
  0
CLASS
  1
MLEADERSTYLE
  2
AcDbMLeaderStyle
  3
ACDB_MLEADERSTYLE_CLASS
 90
     4095
280
     0
281
     0
  0
CLASS
  1
SUN
  2
AcDbSun
  3
SCENEOE
 90
     1153
280
     0
281
     0
  0
CLASS
  1
ACDBPLACEHOLDER
  2
AcDbPlaceHolder
  3
ObjectDBX Classes
 90
        0
280
     0
281
     0
  0
CLASS
  1
LAYOUT
  2
AcDbLayout
  3
ObjectDBX Classes
 90
        0
280
     0
281
     0
  0
ENDSEC
  0
SECTION
  2
TABLES
  0
TABLE
  2
VPORT
  5
8
330
0
100
AcDbSymbolTable
 70
     1
  0
VPORT
  5
29
330
8
100
AcDbSymbolTableRecord
100
AcDbViewportTableRecord
  2
*Active
 70
     0
 10
0.0
 20
0.0
 11
1.0
 21
1.0
 12
148.5
 22
105.0
 13
0.0
 23
0.0
 14
10.0
 24
10.0
 15
10.0
 25
10.0
 16
0.0
 26
0.0
 36
1.0
 17
0.0
 27
0.0
 37
0.0
 40
210.0
 41
1.4142857143
 42
50.0
 43
0.0
 44
0.0
 50
0.0
 51
0.0
 71
     0
 72
  2000
 73
     1
 74
     3
 75
     0
 76
     0
 77
     0
 78
     0
281
     0
 65
     1
110
0.0
120
0.0
130
0.0
111
1.0
121
0.0
131
0.0
112
0.0
122
1.0
132
0.0
 79
     0
146
0.0
  0
ENDTAB
  0
TABLE
  2
LTYPE
  5
5
330
0
100
AcDbSymbolTable
 70
     6
  0
LTYPE
  5
14
330
5
100
AcDbSymbolTableRecord
100
AcDbLinetypeTableRecord
  2
ByBlock
 70
     0
  3

 72
    65
 73
     0
 40
0.0
  0
LTYPE
  5
15
330
5
100
AcDbSymbolTableRecord
100
AcDbLinetypeTableRecord
  2
ByLayer
 70
     0
  3

 72
    65
 73
     0
 40
0.0
  0
LTYPE
  5
16
330
5
100
AcDbSymbolTableRecord
100
AcDbLinetypeTableRecord
  2
Continuous
 70
     0
  3
Solid line
 72
    65
 73
     0
 40
0.0
  0
LTYPE
  5
6E
330
5
100
AcDbSymbolTableRecord
100
AcDbLinetypeTableRecord
  2
HIDDEN
 70
     0
  3
Hidden __ __ __ __ __ __ __ __ __ __ __ __ __ __
 72
    65
 73
     2
 40
1.905
 49
1.27
 74
     0
 49
-0.635
 74
     0
  0
LTYPE
  5
6F
330
5
100
AcDbSymbolTableRecord
100
AcDbLinetypeTableRecord
  2
PHANTOM
 70
     0
  3
Phantom ______  __  __  ______  __  __  ______
 72
    65
 73
     6
 40
12.7
 49
6.35
 74
     0
 49
-1.27
 74
     0
 49
1.27
 74
     0
 49
-1.27
 74
     0
 49
1.27
 74
     0
 49
-1.27
 74
     0
  0
LTYPE
  5
70
330
5
100
AcDbSymbolTableRecord
100
AcDbLinetypeTableRecord
  2
CENTER
 70
     0
  3
Center ____ _ ____ _ ____ _ ____ _ ____ _ ____
 72
    65
 73
     4
 40
10.16
 49
6.35
 74
     0
 49
-1.27
 74
     0
 49
1.27
 74
     0
 49
-1.27
 74
     0
  0
LTYPE
  5
71
330
5
100
AcDbSymbolTableRecord
100
AcDbLinetypeTableRecord
  2
CENTERX2
 70
     0
  3
Center (2x) ________  __  ________  __  _____
 72
    65
 73
     4
 40
20.32
 49
12.7
 74
     0
 49
-2.54
 74
     0
 49
2.54
 74
     0
 49
-2.54
 74
     0
  0
LTYPE
  5
72
330
5
100
AcDbSymbolTableRecord
100
AcDbLinetypeTableRecord
  2
DOT2
 70
     0
  3
Dot (.5x) ........................................
 72
    65
 73
     2
 40
0.635
 49
0.0
 74
     0
 49
-0.635
 74
     0
  0
ENDTAB
  0
TABLE
  2
LAYER
  5
2
330
0
100
AcDbSymbolTable
 70
     3
  0
LAYER
  5
10
330
2
100
AcDbSymbolTableRecord
100
AcDbLayerTableRecord
  2
0
 70
     0
 62
     7
  6
Continuous
370
    -3
390
F
  0
LAYER
  5
73
330
2
100
AcDbSymbolTableRecord
100
AcDbLayerTableRecord
  2
SLD-0
 70
     0
 62
   179
  6
Continuous
370
    15
390
F
  0
LAYER
  5
74
330
2
100
AcDbSymbolTableRecord
100
AcDbLayerTableRecord
  2
DIM
 70
     0
 62
     7
  6
Continuous
370
    -3
390
F
  0
ENDTAB
  0
TABLE
  2
STYLE
  5
3
330
0
100
AcDbSymbolTable
 70
     3
  0
STYLE
  5
11
330
3
100
AcDbSymbolTableRecord
100
AcDbTextStyleTableRecord
  2
Standard
 70
     0
 40
0.0
 41
1.0
 50
0.0
 71
     0
 42
2.5
  3
txt
  4

  0
STYLE
  5
C5
330
3
100
AcDbSymbolTableRecord
100
AcDbTextStyleTableRecord
  2
SLDTEXTSTYLE0
 70
     0
 40
0.0
 41
0.605
 50
0.0
 71
     0
 42
2.5
  3
TXT
  4

  0
STYLE
  5
CE
330
3
100
AcDbSymbolTableRecord
100
AcDbTextStyleTableRecord
  2
SLDTEXTSTYLE1
 70
     0
 40
0.0
 41
0.7
 50
0.0
 71
     0
 42
2.5
  3
TXT
  4

  0
ENDTAB
  0
TABLE
  2
VIEW
  5
6
330
0
100
AcDbSymbolTable
 70
     0
  0
ENDTAB
  0
TABLE
  2
UCS
  5
7
330
0
100
AcDbSymbolTable
 70
     0
  0
ENDTAB
  0
TABLE
  2
APPID
  5
9
330
0
100
AcDbSymbolTable
 70
     1
  0
APPID
  5
12
330
9
100
AcDbSymbolTableRecord
100
AcDbRegAppTableRecord
  2
ACAD
 70
     0
  0
ENDTAB
  0
TABLE
  2
DIMSTYLE
  5
A
330
0
100
AcDbSymbolTable
 70
     5
100
AcDbDimStyleTable
  0
DIMSTYLE
105
27
330
A
100
AcDbSymbolTableRecord
100
AcDbDimStyleTableRecord
  2
ISO-25
 70
     0
 41
2.5
 42
0.625
 43
3.75
 44
1.25
 73
     0
 74
     0
 77
     1
 78
     8
140
2.5
141
2.5
143
0.0393700787
147
0.625
171
     3
172
     1
178
     0
271
     2
272
     2
274
     3
278
    44
283
     0
284
     8
340
11
  0
DIMSTYLE
105
130
102
{ACAD_REACTORS
330
12F
330
13B
330
145
330
14F
330
195
330
1A9
102
}
330
A
100
AcDbSymbolTableRecord
100
AcDbDimStyleTableRecord
  2
SLDDIMSTYLE0
 70
     0
 41
2.0
 44
0.0
 45
0.000000001
 73
     0
 74
     0
 77
     1
 78
    12
 79
     3
140
2.5
147
0.625
173
     1
178
     0
271
     2
272
     2
276
     2
284
    12
340
C5
  0
DIMSTYLE
105
15A
102
{ACAD_REACTORS
330
159
102
}
330
A
100
AcDbSymbolTableRecord
100
AcDbDimStyleTableRecord
  2
SLDDIMSTYLE1
 70
     0
  3
<>
 41
2.0
 44
0.0
 45
0.000000001
 78
    12
 79
     3
140
2.5
141
0.0
147
0.625
173
     1
178
     0
271
     2
272
     2
276
     2
284
    12
340
C5
  0
DIMSTYLE
105
16B
330
A
100
AcDbSymbolTableRecord
100
AcDbDimStyleTableRecord
  2
SLDDIMSTYLE2
 70
     0
 41
2.0
 44
0.0
 45
0.000000001
146
2.0
147
0.0
173
     1
178
     0
271
     0
272
     0
276
     2
340
11
  0
DIMSTYLE
105
1A0
102
{ACAD_REACTORS
330
19F
102
}
330
A
100
AcDbSymbolTableRecord
100
AcDbDimStyleTableRecord
  2
SLDDIMSTYLE3
 70
     0
 41
2.0
 44
0.0
 73
     0
 74
     0
 77
     1
 78
    12
 79
     3
140
2.5
147
0.625
173
     1
178
     0
179
     1
272
     1
276
     2
284
    12
340
C5
  0
ENDTAB
  0
TABLE
  2
BLOCK_RECORD
  5
1
330
0
100
AcDbSymbolTable
 70
    14
  0
BLOCK_RECORD
  5
1F
330
1
100
AcDbSymbolTableRecord
100
AcDbBlockTableRecord
  2
*Model_Space
340
22
  0
BLOCK_RECORD
  5
1B
330
1
100
AcDbSymbolTableRecord
100
AcDbBlockTableRecord
  2
*Paper_Space
340
1E
  0
BLOCK_RECORD
  5
23
330
1
100
AcDbSymbolTableRecord
100
AcDbBlockTableRecord
  2
*Paper_Space0
340
26
  0
BLOCK_RECORD
  5
C7
330
1
100
AcDbSymbolTableRecord
100
AcDbBlockTableRecord
  2
SW_NOTE_0
340
0
102
{BLKREFS
331
CD
102
}
  0
BLOCK_RECORD
  5
FE
330
1
100
AcDbSymbolTableRecord
100
AcDbBlockTableRecord
  2
SW_NOTE_1
340
0
102
{BLKREFS
331
103
102
}
  0
BLOCK_RECORD
  5
131
330
1
100
AcDbSymbolTableRecord
100
AcDbBlockTableRecord
  2
_D
340
0
  0
BLOCK_RECORD
  5
13C
330
1
100
AcDbSymbolTableRecord
100
AcDbBlockTableRecord
  2
_D_1
340
0
  0
BLOCK_RECORD
  5
146
330
1
100
AcDbSymbolTableRecord
100
AcDbBlockTableRecord
  2
_D_2
340
0
  0
BLOCK_RECORD
  5
150
330
1
100
AcDbSymbolTableRecord
100
AcDbBlockTableRecord
  2
_D_3
340
0
  0
BLOCK_RECORD
  5
15B
330
1
100
AcDbSymbolTableRecord
100
AcDbBlockTableRecord
  2
_D_4
340
0
  0
BLOCK_RECORD
  5
164
330
1
100
AcDbSymbolTableRecord
100
AcDbBlockTableRecord
  2
SW_NOTE_2
340
0
102
{BLKREFS
331
16A
102
}
  0
BLOCK_RECORD
  5
16D
330
1
100
AcDbSymbolTableRecord
100
AcDbBlockTableRecord
  2
SW_CENTERMARKSYMBOL_0
340
0
102
{BLKREFS
331
178
102
}
  0
BLOCK_RECORD
  5
196
330
1
100
AcDbSymbolTableRecord
100
AcDbBlockTableRecord
  2
_D_5
340
0
  0
BLOCK_RECORD
  5
1A1
330
1
100
AcDbSymbolTableRecord
100
AcDbBlockTableRecord
  2
_D_6
340
0
  0
BLOCK_RECORD
  5
1AA
330
1
100
AcDbSymbolTableRecord
100
AcDbBlockTableRecord
  2
_D_7
340
0
  0
BLOCK_RECORD
  5
1B3
330
1
100
AcDbSymbolTableRecord
100
AcDbBlockTableRecord
  2
SW_CENTERMARKSYMBOL_1
340
0
102
{BLKREFS
331
1BE
102
}
  0
ENDTAB
  0
ENDSEC
  0
SECTION
  2
BLOCKS
  0
BLOCK
  5
20
330
1F
100
AcDbEntity
  8
0
100
AcDbBlockBegin
  2
*Model_Space
 70
     0
 10
0.0
 20
0.0
 30
0.0
  3
*Model_Space
  1

  0
ENDBLK
  5
21
330
1F
100
AcDbEntity
  8
0
100
AcDbBlockEnd
  0
BLOCK
  5
1C
330
1B
100
AcDbEntity
 67
     1
  8
0
100
AcDbBlockBegin
  2
*Paper_Space
 70
     0
 10
0.0
 20
0.0
 30
0.0
  3
*Paper_Space
  1

  0
ENDBLK
  5
1D
330
1B
100
AcDbEntity
 67
     1
  8
0
100
AcDbBlockEnd
  0
BLOCK
  5
24
330
23
100
AcDbEntity
  8
0
100
AcDbBlockBegin
  2
*Paper_Space0
 70
     0
 10
0.0
 20
0.0
 30
0.0
  3
*Paper_Space0
  1

  0
ENDBLK
  5
25
330
23
100
AcDbEntity
  8
0
100
AcDbBlockEnd
  0
BLOCK
  5
C8
330
C7
100
AcDbEntity
  8
0
100
AcDbBlockBegin
  2
SW_NOTE_0
 70
     0
 10
0.0
 20
0.0
 30
0.0
  3
SW_NOTE_0
  1

  0
MTEXT
  5
CA
330
C7
100
AcDbEntity
  8
0
  6
Continuous
 62
     0
370
     0
100
AcDbMText
 10
0.0
 20
3.4106583948
 30
0.0
 40
2.6458333333
 41
0.0
 71
     1
 72
     1
  1
PROPRIETARY AND CONFIDENTIAL
  7
SLDTEXTSTYLE0
 73
     1
 44
1.0
  0
MTEXT
  5
CB
330
C7
100
AcDbEntity
  8
0
  6
Continuous
 62
     0
370
     0
100
AcDbMText
 10
0.0
 20
-0.08198348
 30
0.0
 40
1.8520833333
 41
0.0
 71
     1
 72
     1
  1
THE INFORMATION CONTAINED IN THIS DRAWING IS THE SOLE PROPERTY OF UNICE E-O SERVICES INC. ANY REPRODUCTION IN PART OR AS A WHOLE WITHOUT THE WRITTEN PERMISSION OF UNICE E-O SERVICES INC IS
  7
SLDTEXTSTYLE0
 73
     1
 44
1.0
  0
MTEXT
  5
CC
330
C7
100
AcDbEntity
  8
0
  6
Continuous
 62
     0
370
     0
100
AcDbMText
 10
0.0
 20
-2.5514278946
 30
0.0
 40
1.8520833333
 41
0.0
 71
     1
 72
     1
  1
PROHIBITED.
  7
SLDTEXTSTYLE0
 73
     1
 44
1.0
  0
ENDBLK
  5
C9
330
C7
100
AcDbEntity
  8
0
100
AcDbBlockEnd
  0
BLOCK
  5
FF
330
FE
100
AcDbEntity
  8
0
100
AcDbBlockBegin
  2
SW_NOTE_1
 70
     0
 10
0.0
 20
0.0
 30
0.0
  3
SW_NOTE_1
  1

  0
MTEXT
  5
101
330
FE
100
AcDbEntity
  8
SLD-0
 62
     0
100
AcDbMText
 10
0.0
 20
2.3874608764
 30
0.0
 40
1.8520833333
 41
0.0
 71
     1
 72
     1
  1
No.5, Andong Rd., Chung Li District,
  7
SLDTEXTSTYLE1
 73
     1
 44
1.0
  0
MTEXT
  5
102
330
FE
100
AcDbEntity
  8
SLD-0
 62
     0
100
AcDbMText
 10
0.0
 20
-0.0819835382
 30
0.0
 40
1.8520833333
 41
0.0
 71
     1
 72
     1
  1
Taoyuan City 32063, Taiwan, R.O.C.
  7
SLDTEXTSTYLE1
 73
     1
 44
1.0
  0
ENDBLK
  5
100
330
FE
100
AcDbEntity
  8
0
100
AcDbBlockEnd
  0
BLOCK
  5
132
330
131
100
AcDbEntity
  8
0
100
AcDbBlockBegin
  2
_D
 70
     0
 10
0.0
 20
0.0
 30
0.0
  3
_D
  1

  0
SOLID
  5
134
330
131
100
AcDbEntity
  8
SLD-0
 62
     7
100
AcDbTrace
 10
89.815618439
 20
55.4863319763
 30
0.0
 11
87.815618439
 21
55.7363319763
 31
0.0
 12
87.815618439
 22
55.2363319763
 32
0.0
 13
87.815618439
 23
55.2363319763
 33
0.0
  0
SOLID
  5
135
330
131
100
AcDbEntity
  8
SLD-0
 62
     7
100
AcDbTrace
 10
74.815618439
 20
55.4863319763
 30
0.0
 11
76.815618439
 21
55.2363319763
 31
0.0
 12
76.815618439
 22
55.7363319763
 32
0.0
 13
76.815618439
 23
55.7363319763
 33
0.0
  0
LINE
  5
136
330
131
100
AcDbEntity
  8
SLD-0
 62
     7
100
AcDbLine
 10
89.815618439
 20
68.4863319763
 30
0.0
 11
89.815618439
 21
54.4863319763
 31
0.0
  0
LINE
  5
137
330
131
100
AcDbEntity
  8
SLD-0
 62
     7
100
AcDbLine
 10
74.815618439
 20
68.4863319763
 30
0.0
 11
74.815618439
 21
54.4863319763
 31
0.0
  0
LINE
  5
138
330
131
100
AcDbEntity
  8
SLD-0
 62
     7
100
AcDbLine
 10
89.815618439
 20
55.4863319763
 30
0.0
 11
74.815618439
 21
55.4863319763
 31
0.0
  0
MTEXT
  5
139
330
131
100
AcDbEntity
  8
SLD-0
 62
     7
100
AcDbMText
 10
78.5834135361
 20
58.7090010929
 30
0.0
 40
2.5
 41
0.0
 71
     1
 72
     1
  1
%%c
  7
SLDTEXTSTYLE0
 73
     1
 44
1.0
  0
MTEXT
  5
13A
330
131
100
AcDbEntity
  8
SLD-0
 62
     7
100
AcDbMText
 10
82.2283788923
 20
58.7159455579
 30
0.0
 40
2.5
 41
0.0
 71
     1
 72
     1
  1
15
  7
SLDTEXTSTYLE0
 73
     1
 44
1.0
  0
ENDBLK
  5
133
330
131
100
AcDbEntity
  8
0
100
AcDbBlockEnd
  0
BLOCK
  5
13D
330
13C
100
AcDbEntity
  8
0
100
AcDbBlockBegin
  2
_D_1
 70
     0
 10
0.0
 20
0.0
 30
0.0
  3
_D_1
  1

  0
SOLID
  5
13F
330
13C
100
AcDbEntity
  8
SLD-0
 62
     7
100
AcDbTrace
 10
55.6967546341
 20
107.5863319763
 30
0.0
 11
55.4467546341
 21
105.5863319763
 31
0.0
 12
55.9467546341
 22
105.5863319763
 32
0.0
 13
55.9467546341
 23
105.5863319763
 33
0.0
  0
SOLID
  5
140
330
13C
100
AcDbEntity
  8
SLD-0
 62
     7
100
AcDbTrace
 10
55.6967546341
 20
69.4863319763
 30
0.0
 11
55.9467546341
 21
71.4863319763
 31
0.0
 12
55.4467546341
 22
71.4863319763
 32
0.0
 13
55.4467546341
 23
71.4863319763
 33
0.0
  0
LINE
  5
141
330
13C
100
AcDbEntity
  8
SLD-0
 62
     7
100
AcDbLine
 10
69.315618439
 20
107.5863319763
 30
0.0
 11
54.6967546341
 21
107.5863319763
 31
0.0
  0
LINE
  5
142
330
13C
100
AcDbEntity
  8
SLD-0
 62
     7
100
AcDbLine
 10
73.815618439
 20
69.4863319763
 30
0.0
 11
54.6967546341
 21
69.4863319763
 31
0.0
  0
LINE
  5
143
330
13C
100
AcDbEntity
  8
SLD-0
 62
     7
100
AcDbLine
 10
55.6967546341
 20
107.5863319763
 30
0.0
 11
55.6967546341
 21
69.4863319763
 31
0.0
  0
MTEXT
  5
144
330
13C
100
AcDbEntity
  8
SLD-0
 62
     7
100
AcDbMText
 10
52.4740854593
 20
85.1943181702
 30
0.0
 40
2.5
 41
0.0
 71
     1
 72
     1
  1
38.1
  7
SLDTEXTSTYLE0
 11
-7.044195017643634E-15
 21
1.0
 31
0.0
 73
     1
 44
1.0
  0
ENDBLK
  5
13E
330
13C
100
AcDbEntity
  8
0
100
AcDbBlockEnd
  0
BLOCK
  5
147
330
146
100
AcDbEntity
  8
0
100
AcDbBlockBegin
  2
_D_2
 70
     0
 10
0.0
 20
0.0
 30
0.0
  3
_D_2
  1

  0
SOLID
  5
149
330
146
100
AcDbEntity
  8
SLD-0
 62
     7
100
AcDbTrace
 10
99.815618439
 20
134.9637768412
 30
0.0
 11
97.815618439
 21
135.2137768412
 31
0.0
 12
97.815618439
 22
134.7137768412
 32
0.0
 13
97.815618439
 23
134.7137768412
 33
0.0
  0
SOLID
  5
14A
330
146
100
AcDbEntity
  8
SLD-0
 62
     7
100
AcDbTrace
 10
64.815618439
 20
134.9637768412
 30
0.0
 11
66.815618439
 21
134.7137768412
 31
0.0
 12
66.815618439
 22
135.2137768412
 32
0.0
 13
66.815618439
 23
135.2137768412
 33
0.0
  0
LINE
  5
14B
330
146
100
AcDbEntity
  8
SLD-0
 62
     7
100
AcDbLine
 10
99.815618439
 20
108.5863319763
 30
0.0
 11
99.815618439
 21
135.9637768412
 31
0.0
  0
LINE
  5
14C
330
146
100
AcDbEntity
  8
SLD-0
 62
     7
100
AcDbLine
 10
64.815618439
 20
108.5863319763
 30
0.0
 11
64.815618439
 21
135.9637768412
 31
0.0
  0
LINE
  5
14D
330
146
100
AcDbEntity
  8
SLD-0
 62
     7
100
AcDbLine
 10
99.815618439
 20
134.9637768412
 30
0.0
 11
64.815618439
 21
134.9637768412
 31
0.0
  0
MTEXT
  5
14E
330
146
100
AcDbEntity
  8
SLD-0
 62
     7
100
AcDbMText
 10
80.4058962142
 20
138.186446016
 30
0.0
 40
2.5
 41
0.0
 71
     1
 72
     1
  1
35
  7
SLDTEXTSTYLE0
 73
     1
 44
1.0
  0
ENDBLK
  5
148
330
146
100
AcDbEntity
  8
0
100
AcDbBlockEnd
  0
BLOCK
  5
151
330
150
100
AcDbEntity
  8
0
100
AcDbBlockBegin
  2
_D_3
 70
     0
 10
0.0
 20
0.0
 30
0.0
  3
_D_3
  1

  0
SOLID
  5
153
330
150
100
AcDbEntity
  8
SLD-0
100
AcDbTrace
 10
47.9237400849
 20
69.4863319763
 30
0.0
 11
48.1737400849
 21
71.4863319763
 31
0.0
 12
47.6737400849
 22
71.4863319763
 32
0.0
 13
47.6737400849
 23
71.4863319763
 33
0.0
  0
SOLID
  5
154
330
150
100
AcDbEntity
  8
SLD-0
100
AcDbTrace
 10
47.9237400849
 20
125.0863319763
 30
0.0
 11
47.6737400849
 21
123.0863319763
 31
0.0
 12
48.1737400849
 22
123.0863319763
 32
0.0
 13
48.1737400849
 23
123.0863319763
 33
0.0
  0
LINE
  5
155
330
150
100
AcDbEntity
  8
SLD-0
100
AcDbLine
 10
73.815618439
 20
69.4863319763
 30
0.0
 11
46.9237400849
 21
69.4863319763
 31
0.0
  0
LINE
  5
156
330
150
100
AcDbEntity
  8
SLD-0
100
AcDbLine
 10
81.315618439
 20
125.0863319763
 30
0.0
 11
46.9237400849
 21
125.0863319763
 31
0.0
  0
LINE
  5
157
330
150
100
AcDbEntity
  8
SLD-0
100
AcDbLine
 10
47.9237400849
 20
69.4863319763
 30
0.0
 11
47.9237400849
 21
125.0863319763
 31
0.0
  0
MTEXT
  5
158
330
150
100
AcDbEntity
  8
SLD-0
100
AcDbMText
 10
44.7010709101
 20
93.9443181702
 30
0.0
 40
2.5
 41
0.0
 71
     1
 72
     1
  1
55.6
  7
SLDTEXTSTYLE0
 11
6.123233995736766E-17
 21
1.0
 31
0.0
 73
     1
 44
1.0
  0
ENDBLK
  5
152
330
150
100
AcDbEntity
  8
0
100
AcDbBlockEnd
  0
BLOCK
  5
15C
330
15B
100
AcDbEntity
  8
0
100
AcDbBlockBegin
  2
_D_4
 70
     0
 10
0.0
 20
0.0
 30
0.0
  3
_D_4
  1

  0
SOLID
  5
15E
330
15B
100
AcDbEntity
  8
SLD-0
100
AcDbTrace
 10
71.8713211176
 20
116.140082818
 30
0.0
 11
70.4824206041
 21
117.6007180783
 31
0.0
 12
70.1656150173
 22
117.2138922515
 32
0.0
 13
70.1656150173
 23
117.2138922515
 33
0.0
  0
LINE
  5
15F
330
15B
100
AcDbEntity
  8
SLD-0
100
AcDbLine
 10
71.8713211176
 20
116.140082818
 30
0.0
 11
53.9451498506
 21
130.8213962509
 31
0.0
  0
LINE
  5
160
330
15B
100
AcDbEntity
  8
SLD-0
100
AcDbLine
 10
53.9451498506
 20
130.8213962509
 30
0.0
 11
32.1821275322
 21
130.8213962509
 31
0.0
  0
MTEXT
  5
161
330
15B
100
AcDbEntity
  8
SLD-0
100
AcDbMText
 10
32.1821275322
 20
137.8878157647
 30
0.0
 40
2.5
 41
0.0
 71
     1
 72
     1
  1
ACCEPTS
  7
SLDTEXTSTYLE0
 73
     1
 44
1.0
  0
MTEXT
  5
162
330
15B
100
AcDbEntity
  8
SLD-0
100
AcDbMText
 10
32.1821275322
 20
134.0440658331
 30
0.0
 40
2.5
 41
0.0
 71
     1
 72
     1
  1
%%c
  7
SLDTEXTSTYLE0
 73
     1
 44
1.0
  0
MTEXT
  5
163
330
15B
100
AcDbEntity
  8
SLD-0
100
AcDbMText
 10
35.8270928884
 20
134.0510102981
 30
0.0
 40
2.5
 41
0.0
 71
     1
 72
     1
  1
1" OPTICS
  7
SLDTEXTSTYLE0
 73
     1
 44
1.0
  0
ENDBLK
  5
15D
330
15B
100
AcDbEntity
  8
0
100
AcDbBlockEnd
  0
BLOCK
  5
165
330
164
100
AcDbEntity
  8
0
100
AcDbBlockBegin
  2
SW_NOTE_2
 70
     0
 10
0.0
 20
0.0
 30
0.0
  3
SW_NOTE_2
  1

  0
LINE
  5
167
330
164
100
AcDbEntity
  8
SLD-0
 62
     0
100
AcDbLine
 10
-13.2869613627
 20
0.0
 30
0.0
 11
0.0
 21
0.0
 31
0.0
  0
MTEXT
  5
168
330
164
100
AcDbEntity
  8
SLD-0
 62
     0
100
AcDbMText
 10
-13.7406967557
 20
6.6807693267
 30
0.0
 40
2.5
 41
0.0
 71
     1
 72
     1
  1
1 HOLE,
  7
SLDTEXTSTYLE0
 73
     1
 44
1.0
  0
MTEXT
  5
169
330
164
100
AcDbEntity
  8
SLD-0
 62
     0
100
AcDbMText
 10
-12.8031967557
 20
3.1807692187
 30
0.0
 40
2.5
 41
0.0
 71
     1
 72
     1
  1
1/4"-20
  7
SLDTEXTSTYLE0
 73
     1
 44
1.0
  0
ENDBLK
  5
166
330
164
100
AcDbEntity
  8
0
100
AcDbBlockEnd
  0
BLOCK
  5
16E
330
16D
100
AcDbEntity
  8
0
100
AcDbBlockBegin
  2
SW_CENTERMARKSYMBOL_0
 70
     0
 10
0.0
 20
0.0
 30
0.0
  3
SW_CENTERMARKSYMBOL_0
  1

  0
LINE
  5
170
330
16D
100
AcDbEntity
  8
SLD-0
 62
     0
100
AcDbLine
 10
0.0
 20
0.0
 30
0.0
 11
0.0
 21
1.0
 31
0.0
  0
LINE
  5
171
330
16D
100
AcDbEntity
  8
SLD-0
 62
     0
100
AcDbLine
 10
0.0
 20
0.0
 30
0.0
 11
-1.0
 21
0.0
 31
0.0
  0
LINE
  5
172
330
16D
100
AcDbEntity
  8
SLD-0
 62
     0
100
AcDbLine
 10
0.0
 20
0.0
 30
0.0
 11
0.0
 21
-1.0
 31
0.0
  0
LINE
  5
173
330
16D
100
AcDbEntity
  8
SLD-0
 62
     0
100
AcDbLine
 10
0.0
 20
0.0
 30
0.0
 11
1.0
 21
0.0
 31
0.0
  0
LINE
  5
174
330
16D
100
AcDbEntity
  8
SLD-0
 62
     0
100
AcDbLine
 10
0.0
 20
2.0
 30
0.0
 11
0.0
 21
12.0
 31
0.0
  0
LINE
  5
175
330
16D
100
AcDbEntity
  8
SLD-0
 62
     0
100
AcDbLine
 10
-2.0
 20
0.0
 30
0.0
 11
-12.0
 21
0.0
 31
0.0
  0
LINE
  5
176
330
16D
100
AcDbEntity
  8
SLD-0
 62
     0
100
AcDbLine
 10
0.0
 20
-2.0
 30
0.0
 11
0.0
 21
-12.0
 31
0.0
  0
LINE
  5
177
330
16D
100
AcDbEntity
  8
SLD-0
 62
     0
100
AcDbLine
 10
2.0
 20
0.0
 30
0.0
 11
12.0
 21
0.0
 31
0.0
  0
ENDBLK
  5
16F
330
16D
100
AcDbEntity
  8
0
100
AcDbBlockEnd
  0
BLOCK
  5
197
330
196
100
AcDbEntity
  8
0
100
AcDbBlockBegin
  2
_D_5
 70
     0
 10
0.0
 20
0.0
 30
0.0
  3
_D_5
  1

  0
SOLID
  5
199
330
196
100
AcDbEntity
  8
SLD-0
 62
     7
100
AcDbTrace
 10
145.2154019506
 20
132.0863319763
 30
0.0
 11
143.2154019506
 21
132.3363319763
 31
0.0
 12
143.2154019506
 22
131.8363319763
 32
0.0
 13
143.2154019506
 23
131.8363319763
 33
0.0
  0
SOLID
  5
19A
330
196
100
AcDbEntity
  8
SLD-0
 62
     7
100
AcDbTrace
 10
135.2154019506
 20
132.0863319763
 30
0.0
 11
137.2154019506
 21
131.8363319763
 31
0.0
 12
137.2154019506
 22
132.3363319763
 32
0.0
 13
137.2154019506
 23
132.3363319763
 33
0.0
  0
LINE
  5
19B
330
196
100
AcDbEntity
  8
SLD-0
 62
     7
100
AcDbLine
 10
145.2154019506
 20
126.0863319763
 30
0.0
 11
145.2154019506
 21
133.0863319763
 31
0.0
  0
LINE
  5
19C
330
196
100
AcDbEntity
  8
SLD-0
 62
     7
100
AcDbLine
 10
135.2154019506
 20
126.0863319763
 30
0.0
 11
135.2154019506
 21
133.0863319763
 31
0.0
  0
LINE
  5
19D
330
196
100
AcDbEntity
  8
SLD-0
 62
     7
100
AcDbLine
 10
145.2154019506
 20
132.0863319763
 30
0.0
 11
135.2154019506
 21
132.0863319763
 31
0.0
  0
MTEXT
  5
19E
330
196
100
AcDbEntity
  8
SLD-0
 62
     7
100
AcDbMText
 10
138.3056797258
 20
135.3090011511
 30
0.0
 40
2.5
 41
0.0
 71
     1
 72
     1
  1
10
  7
SLDTEXTSTYLE0
 73
     1
 44
1.0
  0
ENDBLK
  5
198
330
196
100
AcDbEntity
  8
0
100
AcDbBlockEnd
  0
BLOCK
  5
1A2
330
1A1
100
AcDbEntity
  8
0
100
AcDbBlockBegin
  2
_D_6
 70
     0
 10
0.0
 20
0.0
 30
0.0
  3
_D_6
  1

  0
ARC
  5
1A4
330
1A1
100
AcDbEntity
  8
SLD-0
 62
     7
100
AcDbCircle
 10
145.2154019506
 20
86.9863319763
 30
0.0
 40
25.42775865540672
100
AcDbArc
 50
0.0
 51
90.0
  0
SOLID
  5
1A5
330
1A1
100
AcDbEntity
  8
SLD-0
 62
     7
100
AcDbTrace
 10
170.643160606
 20
86.9863319763
 30
0.0
 11
170.814495644
 21
88.9946009585
 31
0.0
 12
170.3148806626
 22
88.9749828453
 32
0.0
 13
170.3148806626
 23
88.9749828453
 33
0.0
  0
SOLID
  5
1A6
330
1A1
100
AcDbEntity
  8
SLD-0
 62
     7
100
AcDbTrace
 10
145.2154019506
 20
112.4140906317
 30
0.0
 11
147.2040528196
 21
112.0858106883
 31
0.0
 12
147.2236709328
 22
112.5854256697
 32
0.0
 13
147.2236709328
 23
112.5854256697
 33
0.0
  0
LINE
  5
1A7
330
1A1
100
AcDbEntity
  8
SLD-0
 62
     7
100
AcDbLine
 10
166.8154019506
 20
86.9863319763
 30
0.0
 11
171.643160606
 21
86.9863319763
 31
0.0
  0
MTEXT
  5
1A8
330
1A1
100
AcDbEntity
  8
SLD-0
 62
     7
100
AcDbMText
 10
163.6378003908
 20
109.0817571414
 30
0.0
 40
2.5
 41
0.0
 71
     1
 72
     1
  1
90°
  7
SLDTEXTSTYLE0
 11
0.7071067811865406
 21
-0.7071067811865545
 31
0.0
 73
     1
 44
1.0
  0
ENDBLK
  5
1A3
330
1A1
100
AcDbEntity
  8
0
100
AcDbBlockEnd
  0
BLOCK
  5
1AB
330
1AA
100
AcDbEntity
  8
0
100
AcDbBlockBegin
  2
_D_7
 70
     0
 10
0.0
 20
0.0
 30
0.0
  3
_D_7
  1

  0
SOLID
  5
1AD
330
1AA
100
AcDbEntity
  8
SLD-0
100
AcDbTrace
 10
123.5742983027
 20
76.4863319763
 30
0.0
 11
123.3242983027
 21
74.4863319763
 31
0.0
 12
123.8242983027
 22
74.4863319763
 32
0.0
 13
123.8242983027
 23
74.4863319763
 33
0.0
  0
SOLID
  5
1AE
330
1AA
100
AcDbEntity
  8
SLD-0
100
AcDbTrace
 10
123.5742983027
 20
69.4863319763
 30
0.0
 11
123.8242983027
 21
71.4863319763
 31
0.0
 12
123.3242983027
 22
71.4863319763
 32
0.0
 13
123.3242983027
 23
71.4863319763
 33
0.0
  0
LINE
  5
1AF
330
1AA
100
AcDbEntity
  8
SLD-0
100
AcDbLine
 10
131.7154019506
 20
76.4863319763
 30
0.0
 11
122.5742983027
 21
76.4863319763
 31
0.0
  0
LINE
  5
1B0
330
1AA
100
AcDbEntity
  8
SLD-0
100
AcDbLine
 10
131.7154019506
 20
69.4863319763
 30
0.0
 11
122.5742983027
 21
69.4863319763
 31
0.0
  0
LINE
  5
1B1
330
1AA
100
AcDbEntity
  8
SLD-0
100
AcDbLine
 10
123.5742983027
 20
76.4863319763
 30
0.0
 11
123.5742983027
 21
69.4863319763
 31
0.0
  0
MTEXT
  5
1B2
330
1AA
100
AcDbEntity
  8
SLD-0
100
AcDbMText
 10
120.3516291279
 20
72.0314708639
 30
0.0
 40
2.5
 41
0.0
 71
     1
 72
     1
  1
7
  7
SLDTEXTSTYLE0
 11
-7.044195017643634E-15
 21
1.0
 31
0.0
 73
     1
 44
1.0
  0
ENDBLK
  5
1AC
330
1AA
100
AcDbEntity
  8
0
100
AcDbBlockEnd
  0
BLOCK
  5
1B4
330
1B3
100
AcDbEntity
  8
0
100
AcDbBlockBegin
  2
SW_CENTERMARKSYMBOL_1
 70
     0
 10
0.0
 20
0.0
 30
0.0
  3
SW_CENTERMARKSYMBOL_1
  1

  0
LINE
  5
1B6
330
1B3
100
AcDbEntity
  8
SLD-0
 62
     0
100
AcDbLine
 10
0.0
 20
0.0
 30
0.0
 11
0.0
 21
1.0
 31
0.0
  0
LINE
  5
1B7
330
1B3
100
AcDbEntity
  8
SLD-0
 62
     0
100
AcDbLine
 10
0.0
 20
0.0
 30
0.0
 11
-1.0
 21
0.0
 31
0.0
  0
LINE
  5
1B8
330
1B3
100
AcDbEntity
  8
SLD-0
 62
     0
100
AcDbLine
 10
0.0
 20
0.0
 30
0.0
 11
0.0
 21
-1.0
 31
0.0
  0
LINE
  5
1B9
330
1B3
100
AcDbEntity
  8
SLD-0
 62
     0
100
AcDbLine
 10
0.0
 20
0.0
 30
0.0
 11
1.0
 21
0.0
 31
0.0
  0
LINE
  5
1BA
330
1B3
100
AcDbEntity
  8
SLD-0
 62
     0
100
AcDbLine
 10
0.0
 20
2.0
 30
0.0
 11
0.0
 21
2.5
 31
0.0
  0
LINE
  5
1BB
330
1B3
100
AcDbEntity
  8
SLD-0
 62
     0
100
AcDbLine
 10
-2.0
 20
0.0
 30
0.0
 11
-2.5
 21
0.0
 31
0.0
  0
LINE
  5
1BC
330
1B3
100
AcDbEntity
  8
SLD-0
 62
     0
100
AcDbLine
 10
0.0
 20
-2.0
 30
0.0
 11
0.0
 21
-2.5
 31
0.0
  0
LINE
  5
1BD
330
1B3
100
AcDbEntity
  8
SLD-0
 62
     0
100
AcDbLine
 10
2.0
 20
0.0
 30
0.0
 11
2.5
 21
0.0
 31
0.0
  0
ENDBLK
  5
1B5
330
1B3
100
AcDbEntity
  8
0
100
AcDbBlockEnd
  0
ENDSEC
  0
SECTION
  2
ENTITIES
  0
HATCH
  5
75
330
1F
100
AcDbEntity
  8
DIM
 62
     7
100
AcDbHatch
 10
0.0
 20
0.0
 30
0.0
210
0.0
220
0.0
230
1.0
  2
SOLID
 70
     1
 71
     0
 91
        1
 92
        0
 93
       10
 72
     2
 10
191.9160757513297
 20
35.9014956213201
 40
3.045751395731247
 50
249.211220914341
 51
308.9221353953366
 73
     1
 72
     1
 10
193.8296107125642
 20
33.53189955516623
 11
194.7944303737813
 21
32.68461277152388
 72
     1
 10
194.7944303737813
 20
32.68461277152388
 11
191.5842904006255
 21
29.56757305876148
 72
     1
 10
191.5842904006255
 20
29.56757305876148
 11
190.6434899451316
 21
30.37757012887148
 72
     1
 10
190.6434899451316
 20
30.37757012887148
 11
191.2745418655467
 21
30.9934705193425
 72
     1
 10
191.2745418655467
 20
30.9934705193425
 11
187.2653395553511
 21
34.47807435961719
 72
     2
 10
188.2802809848918
 20
35.6256347353777
 40
1.531992467805808
 50
131.4906380929588
 51
229.7089352075141
 73
     0
 72
     1
 10
187.2895861373763
 20
36.79419138377774
 11
188.596214392258
 21
38.05577846028526
 72
     1
 10
188.596214392258
 20
38.05577846028526
 11
189.6114082396604
 21
37.16024655946747
 72
     2
 10
191.5846785430331
 20
35.51285387207268
 40
2.570544369711283
 50
140.1430462780655
 51
253.0452525074004
 73
     1
 97
        0
 75
     0
 76
     1
 98
        1
 10
0.0
 20
0.0
  0
HATCH
  5
76
330
1F
100
AcDbEntity
  8
DIM
 62
     1
100
AcDbHatch
 10
0.0
 20
0.0
 30
0.0
210
0.0
220
0.0
230
1.0
  2
SOLID
 70
     1
 71
     0
 91
        1
 92
        0
 93
       10
 72
     2
 10
192.0492411902935
 20
35.14729598261807
 40
3.18163670452787
 50
234.1674444878508
 51
314.4407074583991
 73
     0
 72
     2
 10
192.366897481018
 20
35.68811778809624
 40
2.57756748834625
 50
317.8184992995781
 51
398.0564711573081
 73
     0
 72
     1
 10
194.3964833240655
 20
34.0992076387546
 11
195.3819322170483
 21
33.24051069886511
 72
     1
 10
195.3819322170483
 20
33.24051069886511
 11
196.623613531842
 21
34.44494364127232
 72
     2
 10
195.7302212061799
 20
35.67289037309325
 40
1.518552937418266
 50
306.0377529468128
 51
403.4396461533869
 73
     1
 72
     1
 10
196.8328410708523
 20
36.71703234513139
 11
192.7060852125089
 21
40.30620861376535
 72
     1
 10
192.7060852125089
 20
40.30620861376535
 11
193.3303365144362
 21
40.91526704460266
 72
     1
 10
193.3303365144362
 20
40.91526704460266
 11
192.3998300042522
 21
41.74545926444721
 72
     1
 10
192.3998300042522
 20
41.74545926444721
 11
189.1642445558423
 21
38.61853901783309
 72
     1
 10
189.1642445558423
 20
38.61853901783309
 11
190.1866524331909
 21
37.7267484907123
 97
        0
 75
     0
 76
     1
 98
        1
 10
0.0
 20
0.0
  0
LINE
  5
77
330
1F
100
AcDbEntity
  8
0
  6
Continuous
 62
     7
370
     0
100
AcDbLine
 10
167.8593775185
 20
17.7745192513
 30
0.0
 11
168.8593775185
 21
17.7745192513
 31
0.0
  0
LINE
  5
78
330
1F
100
AcDbEntity
  8
0
  6
Continuous
 62
     7
370
     0
100
AcDbLine
 10
164.8593775185
 20
17.7745192513
 30
0.0
 11
167.3593775185
 21
17.7745192513
 31
0.0
  0
LINE
  5
79
330
1F
100
AcDbEntity
  8
0
  6
Continuous
 62
     7
370
     0
100
AcDbLine
 10
181.3593775185
 20
15.2745192513
 30
0.0
 11
181.3593775185
 21
20.2745192513
 31
0.0
  0
LINE
  5
7A
330
1F
100
AcDbEntity
  8
0
  6
Continuous
 62
     7
370
     0
100
AcDbLine
 10
174.3593775185
 20
16.2745192513
 30
0.0
 11
181.3593775185
 21
15.2745192513
 31
0.0
  0
LINE
  5
7B
330
1F
100
AcDbEntity
  8
0
  6
Continuous
 62
     7
370
     0
100
AcDbLine
 10
168.3593775185
 20
16.7745192513
 30
0.0
 11
168.3593775185
 21
14.2745192513
 31
0.0
  0
LINE
  5
7C
330
1F
100
AcDbEntity
  8
0
  6
Continuous
 62
     7
370
     0
100
AcDbLine
 10
181.3593775185
 20
20.2745192513
 30
0.0
 11
174.3593775185
 21
19.2745192513
 31
0.0
  0
LINE
  5
7D
330
1F
100
AcDbEntity
  8
0
  6
Continuous
 62
     7
370
     0
100
AcDbLine
 10
173.3593775185
 20
17.7745192513
 30
0.0
 11
182.3593775185
 21
17.7745192513
 31
0.0
  0
LINE
  5
7E
330
1F
100
AcDbEntity
  8
0
  6
Continuous
 62
     7
370
     0
100
AcDbLine
 10
168.3593775185
 20
18.2745192513
 30
0.0
 11
168.3593775185
 21
17.2745192513
 31
0.0
  0
LINE
  5
7F
330
1F
100
AcDbEntity
  8
0
  6
Continuous
 62
     7
370
     0
100
AcDbLine
 10
169.3593775185
 20
17.7745192513
 30
0.0
 11
171.8593775185
 21
17.7745192513
 31
0.0
  0
LINE
  5
80
330
1F
100
AcDbEntity
  8
0
  6
Continuous
 62
     7
370
     0
100
AcDbLine
 10
168.3593775185
 20
21.2745192513
 30
0.0
 11
168.3593775185
 21
18.7745192513
 31
0.0
  0
LINE
  5
81
330
1F
100
AcDbEntity
  8
0
  6
Continuous
 62
     7
370
     0
100
AcDbLine
 10
174.3593775185
 20
19.2745192513
 30
0.0
 11
174.3593775185
 21
16.2745192513
 31
0.0
  0
LINE
  5
82
330
1F
100
AcDbEntity
  8
0
370
     0
100
AcDbLine
 10
194.7944303738
 20
32.6846127715
 30
0.0
 11
191.5842904006
 21
29.5675730588
 31
0.0
  0
LINE
  5
83
330
1F
100
AcDbEntity
  8
0
370
     0
100
AcDbLine
 10
191.5842904006
 20
29.5675730588
 30
0.0
 11
190.6434899451
 21
30.3775701289
 31
0.0
  0
LINE
  5
84
330
1F
100
AcDbEntity
  8
0
370
     0
100
AcDbLine
 10
190.6434899451
 20
30.3775701289
 30
0.0
 11
191.2745418655
 21
30.9934705193
 31
0.0
  0
LINE
  5
85
330
1F
100
AcDbEntity
  8
0
370
     0
100
AcDbLine
 10
187.2653395554
 20
34.4780743596
 30
0.0
 11
191.2745418655
 21
30.9934705193
 31
0.0
  0
LINE
  5
86
330
1F
100
AcDbEntity
  8
0
370
     0
100
AcDbLine
 10
188.5962143923
 20
38.0557784603
 30
0.0
 11
187.2895861374
 21
36.7941913838
 31
0.0
  0
LINE
  5
87
330
1F
100
AcDbEntity
  8
0
370
     0
100
AcDbLine
 10
188.5962143923
 20
38.0557784603
 30
0.0
 11
189.6114082397
 21
37.1602465595
 31
0.0
  0
LINE
  5
88
330
1F
100
AcDbEntity
  8
0
370
     0
100
AcDbLine
 10
193.8296107126
 20
33.5318995552
 30
0.0
 11
194.7944303738
 21
32.6846127715
 31
0.0
  0
LINE
  5
89
330
1F
100
AcDbEntity
  8
0
 62
     1
370
     0
100
AcDbLine
 10
190.1866524332
 20
37.7267484907
 30
0.0
 11
189.1642445558
 21
38.6185390178
 31
0.0
  0
LINE
  5
8A
330
1F
100
AcDbEntity
  8
0
 62
     1
370
     0
100
AcDbLine
 10
189.1642445558
 20
38.6185390178
 30
0.0
 11
192.3998300043
 21
41.7454592644
 31
0.0
  0
LINE
  5
8B
330
1F
100
AcDbEntity
  8
0
 62
     1
370
     0
100
AcDbLine
 10
192.3998300043
 20
41.7454592644
 30
0.0
 11
193.3303365144
 21
40.9152670446
 31
0.0
  0
LINE
  5
8C
330
1F
100
AcDbEntity
  8
0
 62
     1
370
     0
100
AcDbLine
 10
193.3303365144
 20
40.9152670446
 30
0.0
 11
192.7060852125
 21
40.3062086138
 31
0.0
  0
LINE
  5
8D
330
1F
100
AcDbEntity
  8
0
 62
     1
370
     0
100
AcDbLine
 10
192.7060852125
 20
40.3062086138
 30
0.0
 11
196.8328410709
 21
36.7170323451
 31
0.0
  0
LINE
  5
8E
330
1F
100
AcDbEntity
  8
0
 62
     1
370
     0
100
AcDbLine
 10
194.3964833241
 20
34.0992076388
 30
0.0
 11
195.381932217
 21
33.2405106989
 31
0.0
  0
LINE
  5
8F
330
1F
100
AcDbEntity
  8
0
 62
     1
370
     0
100
AcDbLine
 10
195.381932217
 20
33.2405106989
 30
0.0
 11
196.6236135318
 21
34.4449436413
 31
0.0
  0
LINE
  5
90
330
1F
100
AcDbEntity
  8
0
  6
Continuous
 62
     7
370
     0
100
AcDbLine
 10
185.6907965209
 20
13.1152464079
 30
0.0
 11
285.6907965209
 21
13.1152464079
 31
0.0
  0
LINE
  5
91
330
1F
100
AcDbEntity
  8
0
  6
Continuous
 62
     7
370
     0
100
AcDbLine
 10
185.6907965209
 20
18.1152464079
 30
0.0
 11
235.6907965209
 21
18.1152464079
 31
0.0
  0
LINE
  5
92
330
1F
100
AcDbEntity
  8
0
  6
Continuous
 62
     7
370
     0
100
AcDbLine
 10
185.6907965209
 20
23.1152464079
 30
0.0
 11
235.6907965209
 21
23.1152464079
 31
0.0
  0
LINE
  5
93
330
1F
100
AcDbEntity
  8
0
  6
Continuous
 62
     7
370
     0
100
AcDbLine
 10
185.6907965209
 20
28.1152464079
 30
0.0
 11
285.6907965209
 21
28.1152464079
 31
0.0
  0
LINE
  5
94
330
1F
100
AcDbEntity
  8
0
  6
Continuous
 62
     7
370
     0
100
AcDbLine
 10
235.6907965209
 20
33.1152464079
 30
0.0
 11
285.6907965209
 21
33.1152464079
 31
0.0
  0
LINE
  5
95
330
1F
100
AcDbEntity
  8
0
  6
Continuous
 62
     7
370
    15
100
AcDbLine
 10
235.6907965209
 20
18.1152464079
 30
0.0
 11
285.6907965209
 21
18.1152464079
 31
0.0
  0
LINE
  5
96
330
1F
100
AcDbEntity
  8
0
  6
Continuous
 62
     7
370
     0
100
AcDbLine
 10
185.6907965209
 20
43.1152464079
 30
0.0
 11
285.6907965209
 21
43.1152464079
 31
0.0
  0
LINE
  5
97
330
1F
100
AcDbEntity
  8
0
  6
Continuous
 62
     7
370
     0
100
AcDbLine
 10
251.237217675
 20
8.1152464079
 30
0.0
 11
251.237217675
 21
18.1152464079
 31
0.0
  0
LINE
  5
98
330
1F
100
AcDbEntity
  8
0
  6
Continuous
 62
     7
370
     0
100
AcDbLine
 10
235.6907965209
 20
8.1152464079
 30
0.0
 11
235.6907965209
 21
43.1152464079
 31
0.0
  0
LINE
  5
99
330
1F
100
AcDbEntity
  8
0
  6
Continuous
 62
     7
370
     0
100
AcDbLine
 10
251.237217675
 20
28.1152464079
 30
0.0
 11
251.237217675
 21
33.1152464079
 31
0.0
  0
LINE
  5
9A
330
1F
100
AcDbEntity
  8
0
  6
Continuous
 62
     7
370
     0
100
AcDbLine
 10
214.4164086353
 20
8.1152464079
 30
0.0
 11
214.4164086353
 21
28.1152464079
 31
0.0
  0
LINE
  5
9B
330
1F
100
AcDbEntity
  8
0
  6
Continuous
 62
     7
370
     0
100
AcDbLine
 10
199.7785887506
 20
8.1152464079
 30
0.0
 11
199.7785887506
 21
28.1152464079
 31
0.0
  0
LINE
  5
9C
330
1F
100
AcDbEntity
  8
0
  6
Continuous
 62
     7
370
     0
100
AcDbLine
 10
185.6907965209
 20
8.1152464079
 30
0.0
 11
185.6907965209
 21
43.1152464079
 31
0.0
  0
LINE
  5
9D
330
1F
100
AcDbEntity
  8
0
  6
Continuous
 62
     7
370
    15
100
AcDbLine
 10
8.6907965209
 20
104.7436369915
 30
0.0
 11
14.6907965209
 21
104.7436369915
 31
0.0
  0
LINE
  5
9E
330
1F
100
AcDbEntity
  8
0
  6
Continuous
 62
     7
370
    15
100
AcDbLine
 10
285.6907965209
 20
104.7436369915
 30
0.0
 11
279.6907965209
 21
104.7436369915
 31
0.0
  0
LINE
  5
9F
330
1F
100
AcDbEntity
  8
0
  6
Continuous
 62
     7
370
    15
100
AcDbLine
 10
147.1907965209
 20
8.1152464079
 30
0.0
 11
147.1907965209
 21
14.1152464079
 31
0.0
  0
LINE
  5
A0
330
1F
100
AcDbEntity
  8
0
  6
Continuous
 62
     7
370
    15
100
AcDbLine
 10
147.1907965209
 20
201.3720275751
 30
0.0
 11
147.1907965209
 21
195.3720275751
 31
0.0
  0
LINE
  5
A1
330
1F
100
AcDbEntity
  8
0
  6
Continuous
 62
     7
370
    15
100
AcDbLine
 10
43.3207965209
 20
201.3720275751
 30
0.0
 11
43.3207965209
 21
202.8720275751
 31
0.0
  0
LINE
  5
A2
330
1F
100
AcDbEntity
  8
0
  6
Continuous
 62
     7
370
    15
100
AcDbLine
 10
77.9507965209
 20
201.3720275751
 30
0.0
 11
77.9507965209
 21
202.8720275751
 31
0.0
  0
LINE
  5
A3
330
1F
100
AcDbEntity
  8
0
  6
Continuous
 62
     7
370
    15
100
AcDbLine
 10
112.5807965209
 20
201.3720275751
 30
0.0
 11
112.5807965209
 21
202.8720275751
 31
0.0
  0
LINE
  5
A4
330
1F
100
AcDbEntity
  8
0
  6
Continuous
 62
     7
370
    15
100
AcDbLine
 10
147.2107965209
 20
201.3720275751
 30
0.0
 11
147.2107965209
 21
202.8720275751
 31
0.0
  0
LINE
  5
A5
330
1F
100
AcDbEntity
  8
0
  6
Continuous
 62
     7
370
    15
100
AcDbLine
 10
181.8407965209
 20
201.3720275751
 30
0.0
 11
181.8407965209
 21
202.8720275751
 31
0.0
  0
LINE
  5
A6
330
1F
100
AcDbEntity
  8
0
  6
Continuous
 62
     7
370
    15
100
AcDbLine
 10
216.4707965209
 20
201.3720275751
 30
0.0
 11
216.4707965209
 21
202.8720275751
 31
0.0
  0
LINE
  5
A7
330
1F
100
AcDbEntity
  8
0
  6
Continuous
 62
     7
370
    15
100
AcDbLine
 10
251.1007965209
 20
201.3720275751
 30
0.0
 11
251.1007965209
 21
202.8720275751
 31
0.0
  0
LINE
  5
A8
330
1F
100
AcDbEntity
  8
0
  6
Continuous
 62
     7
370
    15
100
AcDbLine
 10
43.3157965209
 20
8.1152464079
 30
0.0
 11
43.3157965209
 21
6.6152464079
 31
0.0
  0
LINE
  5
A9
330
1F
100
AcDbEntity
  8
0
  6
Continuous
 62
     7
370
    15
100
AcDbLine
 10
77.9407965209
 20
8.1152464079
 30
0.0
 11
77.9407965209
 21
6.6152464079
 31
0.0
  0
LINE
  5
AA
330
1F
100
AcDbEntity
  8
0
  6
Continuous
 62
     7
370
    15
100
AcDbLine
 10
112.5657965209
 20
8.1152464079
 30
0.0
 11
112.5657965209
 21
6.6152464079
 31
0.0
  0
LINE
  5
AB
330
1F
100
AcDbEntity
  8
0
  6
Continuous
 62
     7
370
    15
100
AcDbLine
 10
147.1907965209
 20
8.1152464079
 30
0.0
 11
147.1907965209
 21
6.6152464079
 31
0.0
  0
LINE
  5
AC
330
1F
100
AcDbEntity
  8
0
  6
Continuous
 62
     7
370
    15
100
AcDbLine
 10
181.8157965209
 20
8.1152464079
 30
0.0
 11
181.8157965209
 21
6.6152464079
 31
0.0
  0
LINE
  5
AD
330
1F
100
AcDbEntity
  8
0
  6
Continuous
 62
     7
370
    15
100
AcDbLine
 10
216.4407965209
 20
8.1152464079
 30
0.0
 11
216.4407965209
 21
6.6152464079
 31
0.0
  0
LINE
  5
AE
330
1F
100
AcDbEntity
  8
0
  6
Continuous
 62
     7
370
     0
100
AcDbLine
 10
285.6907965209
 20
201.3720275751
 30
0.0
 11
8.6907965209
 21
201.3720275751
 31
0.0
  0
LINE
  5
AF
330
1F
100
AcDbEntity
  8
0
  6
Continuous
 62
     7
370
     0
100
AcDbLine
 10
285.6907965209
 20
8.1152464079
 30
0.0
 11
285.6907965209
 21
201.3720275751
 31
0.0
  0
LINE
  5
B0
330
1F
100
AcDbEntity
  8
0
  6
Continuous
 62
     7
370
     0
100
AcDbLine
 10
8.6907965209
 20
201.3720275751
 30
0.0
 11
8.6907965209
 21
8.1152464079
 31
0.0
  0
LINE
  5
B1
330
1F
100
AcDbEntity
  8
0
  6
Continuous
 62
     7
370
     0
100
AcDbLine
 10
8.6907965209
 20
8.1152464079
 30
0.0
 11
285.6907965209
 21
8.1152464079
 31
0.0
  0
LINE
  5
B2
330
1F
100
AcDbEntity
  8
0
  6
Continuous
 62
     7
370
    15
100
AcDbLine
 10
251.0657965209
 20
8.1152464079
 30
0.0
 11
251.0657965209
 21
6.6152464079
 31
0.0
  0
LINE
  5
B3
330
1F
100
AcDbEntity
  8
0
  6
Continuous
 62
     7
370
    15
100
AcDbLine
 10
8.6907965209
 20
40.3252464079
 30
0.0
 11
7.1907965209
 21
40.3252464079
 31
0.0
  0
LINE
  5
B4
330
1F
100
AcDbEntity
  8
0
  6
Continuous
 62
     7
370
    15
100
AcDbLine
 10
8.6907965209
 20
72.5352464079
 30
0.0
 11
7.1907965209
 21
72.5352464079
 31
0.0
  0
LINE
  5
B5
330
1F
100
AcDbEntity
  8
0
  6
Continuous
 62
     7
370
    15
100
AcDbLine
 10
8.6907965209
 20
104.7452464079
 30
0.0
 11
7.1907965209
 21
104.7452464079
 31
0.0
  0
LINE
  5
B6
330
1F
100
AcDbEntity
  8
0
  6
Continuous
 62
     7
370
    15
100
AcDbLine
 10
8.6907965209
 20
136.9552464079
 30
0.0
 11
7.1907965209
 21
136.9552464079
 31
0.0
  0
LINE
  5
B7
330
1F
100
AcDbEntity
  8
0
  6
Continuous
 62
     7
370
    15
100
AcDbLine
 10
8.6907965209
 20
169.1652464079
 30
0.0
 11
7.1907965209
 21
169.1652464079
 31
0.0
  0
LINE
  5
B8
330
1F
100
AcDbEntity
  8
0
  6
Continuous
 62
     7
370
    15
100
AcDbLine
 10
285.6907965209
 20
40.3252464079
 30
0.0
 11
287.1907965209
 21
40.3252464079
 31
0.0
  0
LINE
  5
B9
330
1F
100
AcDbEntity
  8
0
  6
Continuous
 62
     7
370
    15
100
AcDbLine
 10
285.6907965209
 20
72.5352464079
 30
0.0
 11
287.1907965209
 21
72.5352464079
 31
0.0
  0
LINE
  5
BA
330
1F
100
AcDbEntity
  8
0
  6
Continuous
 62
     7
370
    15
100
AcDbLine
 10
285.6907965209
 20
104.7452464079
 30
0.0
 11
287.1907965209
 21
104.7452464079
 31
0.0
  0
LINE
  5
BB
330
1F
100
AcDbEntity
  8
0
  6
Continuous
 62
     7
370
    15
100
AcDbLine
 10
285.6907965209
 20
136.9552464079
 30
0.0
 11
287.1907965209
 21
136.9552464079
 31
0.0
  0
LINE
  5
BC
330
1F
100
AcDbEntity
  8
0
  6
Continuous
 62
     7
370
    15
100
AcDbLine
 10
285.6907965209
 20
169.1652464079
 30
0.0
 11
287.1907965209
 21
169.1652464079
 31
0.0
  0
CIRCLE
  5
BD
330
1F
100
AcDbEntity
  8
0
  6
Continuous
 62
     7
370
     0
100
AcDbCircle
 10
168.3593775185
 20
17.7745192513
 30
0.0
 40
1.5
  0
CIRCLE
  5
BE
330
1F
100
AcDbEntity
  8
0
  6
Continuous
 62
     7
370
     0
100
AcDbCircle
 10
168.3593775185
 20
17.7745192513
 30
0.0
 40
2.5
  0
ARC
  5
BF
330
1F
100
AcDbEntity
  8
0
370
     0
100
AcDbCircle
 10
188.2802809849
 20
35.6256347354
 30
0.0
 40
1.531992467805807
100
AcDbArc
 50
130.2910647925
 51
228.509361907
  0
ARC
  5
C0
330
1F
100
AcDbEntity
  8
0
370
     0
100
AcDbCircle
 10
191.584678543
 20
35.5128538721
 30
0.0
 40
2.570544369711294
100
AcDbArc
 50
140.1430462781
 51
253.0452525074
  0
ARC
  5
C1
330
1F
100
AcDbEntity
  8
0
370
     0
100
AcDbCircle
 10
191.9160757513
 20
35.9014956213
 30
0.0
 40
3.045751395731247
100
AcDbArc
 50
249.2112209143
 51
308.9221353953
  0
ARC
  5
C2
330
1F
100
AcDbEntity
  8
0
 62
     1
370
     0
100
AcDbCircle
 10
195.7302212062
 20
35.6728903731
 30
0.0
 40
1.518552937418275
100
AcDbArc
 50
306.0377529468
 51
43.4396461534
  0
ARC
  5
C3
330
1F
100
AcDbEntity
  8
0
 62
     1
370
     0
100
AcDbCircle
 10
192.0492411903
 20
35.1472959826
 30
0.0
 40
3.181636704527866
100
AcDbArc
 50
45.5592925416
 51
125.8325555121
  0
ARC
  5
C4
330
1F
100
AcDbEntity
  8
0
 62
     1
370
     0
100
AcDbCircle
 10
192.366897481
 20
35.6881177881
 30
0.0
 40
2.57756748834625
100
AcDbArc
 50
321.9435288427
 51
42.1815007004
  0
MTEXT
  5
C6
330
1F
100
AcDbEntity
  8
0
  6
Continuous
 62
     7
370
     0
100
AcDbMText
 10
165.5426850804
 20
13.2208440369
 30
0.0
 40
2.6458333333
 41
0.0
 71
     1
 72
     1
  1
UNIT:m/m
  7
SLDTEXTSTYLE0
 73
     1
 44
1.0
  0
INSERT
  5
CD
330
1F
100
AcDbEntity
  8
0
  6
Continuous
 62
     7
370
     0
100
AcDbBlockReference
  2
SW_NOTE_0
 10
12.2315076053
 20
193.8904304251
 30
0.0
  0
MTEXT
  5
CF
330
1F
100
AcDbEntity
  8
0
  6
Continuous
 62
     7
370
     0
100
AcDbMText
 10
198.7251893935
 20
40.4406774139
 30
0.0
 40
2.38125
 41
0.0
 71
     1
 72
     1
  1
Unice E-O Services Inc.
  7
SLDTEXTSTYLE1
 73
     1
 44
1.0
  0
MTEXT
  5
D0
330
1F
100
AcDbEntity
  8
0
  6
Continuous
 62
     7
370
     0
100
AcDbMText
 10
217.5590538149
 20
21.5867148511
 30
0.0
 40
1.8520833333
 41
0.0
 71
     1
 72
     1
  1
2010/12/30
  7
SLDTEXTSTYLE0
 73
     1
 44
1.0
  0
MTEXT
  5
D1
330
1F
100
AcDbEntity
  8
0
  6
Continuous
 62
     7
370
     0
100
AcDbMText
 10
252.6088982507
 20
16.87117774
 30
0.0
 40
2.5
 41
0.0
 71
     1
 72
     1
  1
1:1
  7
SLDTEXTSTYLE0
 73
     1
 44
1.0
  0
MTEXT
  5
D2
330
1F
100
AcDbEntity
  8
0
  6
Continuous
 62
     7
370
     0
100
AcDbMText
 10
252.3075599985
 20
32.1519195438
 30
0.0
 40
2.5
 41
0.0
 71
     1
 72
     1
  1
04FOM-1
  7
SLDTEXTSTYLE0
 73
     1
 44
1.0
  0
MTEXT
  5
D3
330
1F
100
AcDbEntity
  8
0
  6
Continuous
 62
     7
370
     0
100
AcDbMText
 10
252.3075599985
 20
38.1082117879
 30
0.0
 40
2.5
 41
0.0
 71
     1
 72
     1
  1
04FOM-1
  7
SLDTEXTSTYLE0
 73
     1
 44
1.0
  0
MTEXT
  5
D4
330
1F
100
AcDbEntity
  8
0
  6
Continuous
 62
     7
370
     0
100
AcDbMText
 10
236.3921866786
 20
16.5064795728
 30
0.0
 40
2.1166666667
 41
0.0
 71
     1
 72
     1
  1
SCALE:
  7
SLDTEXTSTYLE0
 73
     1
 44
1.0
  0
MTEXT
  5
D5
330
1F
100
AcDbEntity
  8
0
  6
Continuous
 62
     7
370
     0
100
AcDbMText
 10
186.3336086789
 20
21.5867148511
 30
0.0
 40
1.8520833333
 41
0.0
 71
     1
 72
     1
  1
DRAWN
  7
SLDTEXTSTYLE0
 73
     1
 44
1.0
  0
MTEXT
  5
D6
330
1F
100
AcDbEntity
  8
0
  6
Continuous
 62
     7
370
     0
100
AcDbMText
 10
203.2228367937
 20
26.683208308
 30
0.0
 40
1.8520833333
 41
0.0
 71
     1
 72
     1
  1
NAME
  7
SLDTEXTSTYLE0
 73
     1
 44
1.0
  0
MTEXT
  5
D7
330
1F
100
AcDbEntity
  8
0
  6
Continuous
 62
     7
370
     0
100
AcDbMText
 10
220.8710155758
 20
26.683208308
 30
0.0
 40
1.8520833333
 41
0.0
 71
     1
 72
     1
  1
DATE
  7
SLDTEXTSTYLE0
 73
     1
 44
1.0
  0
MTEXT
  5
D8
330
1F
100
AcDbEntity
  8
0
  6
Continuous
 62
     7
370
     0
100
AcDbMText
 10
236.2756316645
 20
31.7872213766
 30
0.0
 40
2.1166666667
 41
0.0
 71
     1
 72
     1
  1
DWG. NO.
  7
SLDTEXTSTYLE0
 73
     1
 44
1.0
  0
MTEXT
  5
D9
330
1F
100
AcDbEntity
  8
0
  6
Continuous
 62
     7
370
     0
100
AcDbMText
 10
236.3629907088
 20
41.8840658243
 30
0.0
 40
2.1166666667
 41
0.0
 71
     1
 72
     1
  1
TITLE:
  7
SLDTEXTSTYLE0
 73
     1
 44
1.0
  0
MTEXT
  5
DA
330
1F
100
AcDbEntity
  8
0
  6
Continuous
 62
     7
370
     0
100
AcDbMText
 10
203.0314209802
 20
16.2403789724
 30
0.0
 40
1.8520833333
 41
0.0
 71
     1
 72
     1
  1
Johnny
  7
SLDTEXTSTYLE0
 73
     1
 44
1.0
  0
MTEXT
  5
DB
330
1F
100
AcDbEntity
  8
0
  6
Continuous
 62
     7
370
     0
100
AcDbMText
 10
217.5590538149
 20
16.2403789724
 30
0.0
 40
1.8520833333
 41
0.0
 71
     1
 72
     1
  1
2010/12/30
  7
SLDTEXTSTYLE0
 73
     1
 44
1.0
  0
MTEXT
  5
DC
330
1F
100
AcDbEntity
  8
0
  6
Continuous
 62
     7
370
     0
100
AcDbMText
 10
186.3336086789
 20
16.2403789724
 30
0.0
 40
1.8520833333
 41
0.0
 71
     1
 72
     1
  1
ENG APPR.
  7
SLDTEXTSTYLE0
 73
     1
 44
1.0
  0
MTEXT
  5
DD
330
1F
100
AcDbEntity
  8
0
  6
Continuous
 62
     7
370
     0
100
AcDbMText
 10
236.3921866786
 20
11.6853389288
 30
0.0
 40
2.1166666667
 41
0.0
 71
     1
 72
     1
  1
REV
  7
SLDTEXTSTYLE0
 73
     1
 44
1.0
  0
MTEXT
  5
DE
330
1F
100
AcDbEntity
  8
0
  6
Continuous
 62
     7
370
     0
100
AcDbMText
 10
236.3629907088
 20
26.9493089085
 30
0.0
 40
2.1166666667
 41
0.0
 71
     1
 72
     1
  1
MATERIAL:
  7
SLDTEXTSTYLE0
 73
     1
 44
1.0
  0
MTEXT
  5
DF
330
1F
100
AcDbEntity
  8
0
  6
Continuous
 62
     7
370
     0
100
AcDbMText
 10
252.6088982507
 20
22.2175136187
 30
0.0
 40
2.5
 41
0.0
 71
     1
 72
     1
  1
N/A
  7
SLDTEXTSTYLE0
 73
     1
 44
1.0
  0
MTEXT
  5
E0
330
1F
100
AcDbEntity
  8
0
  6
Continuous
 62
     7
370
     0
100
AcDbMText
 10
26.6029931533
 20
204.453351657
 30
0.0
 40
2.1166666667
 41
0.0
 71
     1
 72
     1
  1
1
  7
SLDTEXTSTYLE0
 73
     1
 44
1.0
  0
MTEXT
  5
E1
330
1F
100
AcDbEntity
  8
0
  6
Continuous
 62
     7
370
     0
100
AcDbMText
 10
60.7170995724
 20
204.453351657
 30
0.0
 40
2.1166666667
 41
0.0
 71
     1
 72
     1
  1
2
  7
SLDTEXTSTYLE0
 73
     1
 44
1.0
  0
MTEXT
  5
E2
330
1F
100
AcDbEntity
  8
0
  6
Continuous
 62
     7
370
     0
100
AcDbMText
 10
94.9009943906
 20
204.453351657
 30
0.0
 40
2.1166666667
 41
0.0
 71
     1
 72
     1
  1
3
  7
SLDTEXTSTYLE0
 73
     1
 44
1.0
  0
MTEXT
  5
E3
330
1F
100
AcDbEntity
  8
0
  6
Continuous
 62
     7
370
     0
100
AcDbMText
 10
129.2533362851
 20
204.2992584364
 30
0.0
 40
2.1166666667
 41
0.0
 71
     1
 72
     1
  1
4
  7
SLDTEXTSTYLE0
 73
     1
 44
1.0
  0
MTEXT
  5
E4
330
1F
100
AcDbEntity
  8
0
  6
Continuous
 62
     7
370
     0
100
AcDbMText
 10
163.702323464
 20
204.453351657
 30
0.0
 40
2.1166666667
 41
0.0
 71
     1
 72
     1
  1
5
  7
SLDTEXTSTYLE0
 73
     1
 44
1.0
  0
MTEXT
  5
E5
330
1F
100
AcDbEntity
  8
0
  6
Continuous
 62
     7
370
     0
100
AcDbMText
 10
198.6382170415
 20
204.453351657
 30
0.0
 40
2.1166666667
 41
0.0
 71
     1
 72
     1
  1
6
  7
SLDTEXTSTYLE0
 73
     1
 44
1.0
  0
MTEXT
  5
E6
330
1F
100
AcDbEntity
  8
0
  6
Continuous
 62
     7
370
     0
100
AcDbMText
 10
234.3630657407
 20
204.453351657
 30
0.0
 40
2.1166666667
 41
0.0
 71
     1
 72
     1
  1
7
  7
SLDTEXTSTYLE0
 73
     1
 44
1.0
  0
MTEXT
  5
E7
330
1F
100
AcDbEntity
  8
0
  6
Continuous
 62
     7
370
     0
100
AcDbMText
 10
266.2787820494
 20
204.453351657
 30
0.0
 40
2.1166666667
 41
0.0
 71
     1
 72
     1
  1
8
  7
SLDTEXTSTYLE0
 73
     1
 44
1.0
  0
MTEXT
  5
E8
330
1F
100
AcDbEntity
  8
0
  6
Continuous
 62
     7
370
     0
100
AcDbMText
 10
5.3568236555
 20
185.8113022879
 30
0.0
 40
2.1166666667
 41
0.0
 71
     1
 72
     1
  1
A
  7
SLDTEXTSTYLE0
 73
     1
 44
1.0
  0
MTEXT
  5
E9
330
1F
100
AcDbEntity
  8
0
  6
Continuous
 62
     7
370
     0
100
AcDbMText
 10
5.5910431831
 20
154.2993048238
 30
0.0
 40
2.1166666667
 41
0.0
 71
     1
 72
     1
  1
B
  7
SLDTEXTSTYLE0
 73
     1
 44
1.0
  0
MTEXT
  5
EA
330
1F
100
AcDbEntity
  8
0
  6
Continuous
 62
     7
370
     0
100
AcDbMText
 10
5.5910431831
 20
121.274351423
 30
0.0
 40
2.1166666667
 41
0.0
 71
     1
 72
     1
  1
C
  7
SLDTEXTSTYLE0
 73
     1
 44
1.0
  0
MTEXT
  5
EB
330
1F
100
AcDbEntity
  8
0
  6
Continuous
 62
     7
370
     0
100
AcDbMText
 10
5.5910431831
 20
88.7453220221
 30
0.0
 40
2.1166666667
 41
0.0
 71
     1
 72
     1
  1
D
  7
SLDTEXTSTYLE0
 73
     1
 44
1.0
  0
MTEXT
  5
EC
330
1F
100
AcDbEntity
  8
0
  6
Continuous
 62
     7
370
     0
100
AcDbMText
 10
5.5910431831
 20
57.5558849197
 30
0.0
 40
2.1166666667
 41
0.0
 71
     1
 72
     1
  1
E
  7
SLDTEXTSTYLE0
 73
     1
 44
1.0
  0
MTEXT
  5
ED
330
1F
100
AcDbEntity
  8
0
  6
Continuous
 62
     7
370
     0
100
AcDbMText
 10
5.5910431831
 20
25.5694212252
 30
0.0
 40
2.1166666667
 41
0.0
 71
     1
 72
     1
  1
F
  7
SLDTEXTSTYLE0
 73
     1
 44
1.0
  0
MTEXT
  5
EE
330
1F
100
AcDbEntity
  8
0
  6
Continuous
 62
     7
370
     0
100
AcDbMText
 10
266.1858616964
 20
6.6236223963
 30
0.0
 40
2.1166666667
 41
0.0
 71
     1
 72
     1
  1
8
  7
SLDTEXTSTYLE0
 73
     1
 44
1.0
  0
MTEXT
  5
EF
330
1F
100
AcDbEntity
  8
0
  6
Continuous
 62
     7
370
     0
100
AcDbMText
 10
234.2701453876
 20
6.6236223963
 30
0.0
 40
2.1166666667
 41
0.0
 71
     1
 72
     1
  1
7
  7
SLDTEXTSTYLE0
 73
     1
 44
1.0
  0
MTEXT
  5
F0
330
1F
100
AcDbEntity
  8
0
  6
Continuous
 62
     7
370
     0
100
AcDbMText
 10
198.5452966885
 20
6.6236223963
 30
0.0
 40
2.1166666667
 41
0.0
 71
     1
 72
     1
  1
6
  7
SLDTEXTSTYLE0
 73
     1
 44
1.0
  0
MTEXT
  5
F1
330
1F
100
AcDbEntity
  8
0
  6
Continuous
 62
     7
370
     0
100
AcDbMText
 10
163.6094031109
 20
6.6236223963
 30
0.0
 40
2.1166666667
 41
0.0
 71
     1
 72
     1
  1
5
  7
SLDTEXTSTYLE0
 73
     1
 44
1.0
  0
MTEXT
  5
F2
330
1F
100
AcDbEntity
  8
0
  6
Continuous
 62
     7
370
     0
100
AcDbMText
 10
129.1604159321
 20
6.4695291758
 30
0.0
 40
2.1166666667
 41
0.0
 71
     1
 72
     1
  1
4
  7
SLDTEXTSTYLE0
 73
     1
 44
1.0
  0
MTEXT
  5
F3
330
1F
100
AcDbEntity
  8
0
  6
Continuous
 62
     7
370
     0
100
AcDbMText
 10
94.8080740376
 20
6.6236223963
 30
0.0
 40
2.1166666667
 41
0.0
 71
     1
 72
     1
  1
3
  7
SLDTEXTSTYLE0
 73
     1
 44
1.0
  0
MTEXT
  5
F4
330
1F
100
AcDbEntity
  8
0
  6
Continuous
 62
     7
370
     0
100
AcDbMText
 10
60.6241792194
 20
6.6236223963
 30
0.0
 40
2.1166666667
 41
0.0
 71
     1
 72
     1
  1
2
  7
SLDTEXTSTYLE0
 73
     1
 44
1.0
  0
MTEXT
  5
F5
330
1F
100
AcDbEntity
  8
0
  6
Continuous
 62
     7
370
     0
100
AcDbMText
 10
26.5100728003
 20
6.6236223963
 30
0.0
 40
2.1166666667
 41
0.0
 71
     1
 72
     1
  1
1
  7
SLDTEXTSTYLE0
 73
     1
 44
1.0
  0
MTEXT
  5
F6
330
1F
100
AcDbEntity
  8
0
  6
Continuous
 62
     7
370
     0
100
AcDbMText
 10
287.1023846145
 20
186.6424909092
 30
0.0
 40
2.1166666667
 41
0.0
 71
     1
 72
     1
  1
A
  7
SLDTEXTSTYLE0
 73
     1
 44
1.0
  0
MTEXT
  5
F7
330
1F
100
AcDbEntity
  8
0
  6
Continuous
 62
     7
370
     0
100
AcDbMText
 10
287.3366041421
 20
155.1304934451
 30
0.0
 40
2.1166666667
 41
0.0
 71
     1
 72
     1
  1
B
  7
SLDTEXTSTYLE0
 73
     1
 44
1.0
  0
MTEXT
  5
F8
330
1F
100
AcDbEntity
  8
0
  6
Continuous
 62
     7
370
     0
100
AcDbMText
 10
287.3366041421
 20
122.1055400442
 30
0.0
 40
2.1166666667
 41
0.0
 71
     1
 72
     1
  1
C
  7
SLDTEXTSTYLE0
 73
     1
 44
1.0
  0
MTEXT
  5
F9
330
1F
100
AcDbEntity
  8
0
  6
Continuous
 62
     7
370
     0
100
AcDbMText
 10
287.3366041421
 20
89.5765106433
 30
0.0
 40
2.1166666667
 41
0.0
 71
     1
 72
     1
  1
D
  7
SLDTEXTSTYLE0
 73
     1
 44
1.0
  0
MTEXT
  5
FA
330
1F
100
AcDbEntity
  8
0
  6
Continuous
 62
     7
370
     0
100
AcDbMText
 10
287.3366041421
 20
58.3870735409
 30
0.0
 40
2.1166666667
 41
0.0
 71
     1
 72
     1
  1
E
  7
SLDTEXTSTYLE0
 73
     1
 44
1.0
  0
MTEXT
  5
FB
330
1F
100
AcDbEntity
  8
0
  6
Continuous
 62
     7
370
     0
100
AcDbMText
 10
287.3366041421
 20
26.4006098464
 30
0.0
 40
2.1166666667
 41
0.0
 71
     1
 72
     1
  1
F
  7
SLDTEXTSTYLE0
 73
     1
 44
1.0
  0
MTEXT
  5
FC
330
1F
100
AcDbEntity
  8
0
  6
Continuous
 62
     7
370
     0
100
AcDbMText
 10
203.1553128802
 20
21.5867148511
 30
0.0
 40
1.8520833333
 41
0.0
 71
     1
 72
     1
  1
Jimmy
  7
SLDTEXTSTYLE0
 73
     1
 44
1.0
  0
MTEXT
  5
FD
330
1F
100
AcDbEntity
  8
0
  6
Continuous
 62
     7
370
     0
100
AcDbMText
 10
252.8482239645
 20
12.0500370959
 30
0.0
 40
2.5
 41
0.0
 71
     1
 72
     1
  1
0
  7
SLDTEXTSTYLE0
 73
     1
 44
1.0
  0
INSERT
  5
103
330
1F
100
AcDbEntity
  8
SLD-0
 62
     7
100
AcDbBlockReference
  2
SW_NOTE_1
 10
198.7251893935
 20
33.512939085
 30
0.0
  0
LINE
  5
104
330
1F
100
AcDbEntity
  8
0
  6
Continuous
 62
     7
370
    30
100
AcDbLine
 10
80.315618439
 20
125.0863319763
 30
0.0
 11
80.315618439
 21
124.971670627
 31
0.0
  0
LINE
  5
105
330
1F
100
AcDbEntity
  8
0
  6
Continuous
 62
     7
370
    30
100
AcDbLine
 10
84.315618439
 20
124.971670627
 30
0.0
 11
84.315618439
 21
125.0863319763
 31
0.0
  0
LINE
  5
106
330
1F
100
AcDbEntity
  8
0
  6
Continuous
 62
     7
370
    30
100
AcDbLine
 10
81.065618439
 20
121.0283370351
 30
0.0
 11
81.065618439
 21
120.0863319763
 31
0.0
  0
LINE
  5
107
330
1F
100
AcDbEntity
  8
0
  6
Continuous
 62
     7
370
    30
100
AcDbLine
 10
83.565618439
 20
120.0863319763
 30
0.0
 11
83.565618439
 21
121.0283370351
 31
0.0
  0
LINE
  5
108
330
1F
100
AcDbEntity
  8
0
  6
Continuous
 62
     7
370
    30
100
AcDbLine
 10
89.815618439
 20
69.4863319763
 30
0.0
 11
89.815618439
 21
76.4863319763
 31
0.0
  0
LINE
  5
109
330
1F
100
AcDbEntity
  8
0
  6
Continuous
 62
     7
370
    30
100
AcDbLine
 10
74.815618439
 20
76.4863319763
 30
0.0
 11
74.815618439
 21
69.4863319763
 31
0.0
  0
LINE
  5
10A
330
1F
100
AcDbEntity
  8
0
  6
Continuous
 62
     7
370
    30
100
AcDbLine
 10
82.6164460085
 20
125.0863319763
 30
0.0
 11
80.315618439
 21
125.0863319763
 31
0.0
  0
LINE
  5
10B
330
1F
100
AcDbEntity
  8
0
  6
Continuous
 62
     7
370
    30
100
AcDbLine
 10
84.315618439
 20
125.0863319763
 30
0.0
 11
82.6164460085
 21
125.0863319763
 31
0.0
  0
LINE
  5
10C
330
1F
100
AcDbEntity
  8
0
  6
Continuous
 62
     7
370
    30
100
AcDbLine
 10
82.50363567
 20
120.0863319763
 30
0.0
 11
81.065618439
 21
120.0863319763
 31
0.0
  0
LINE
  5
10D
330
1F
100
AcDbEntity
  8
0
  6
Continuous
 62
     7
370
    30
100
AcDbLine
 10
83.565618439
 20
120.0863319763
 30
0.0
 11
82.50363567
 21
120.0863319763
 31
0.0
  0
LINE
  5
10E
330
1F
100
AcDbEntity
  8
0
  6
Continuous
 62
     7
370
    30
100
AcDbLine
 10
82.315618439
 20
69.4863319763
 30
0.0
 11
89.815618439
 21
69.4863319763
 31
0.0
  0
LINE
  5
10F
330
1F
100
AcDbEntity
  8
0
  6
Continuous
 62
     7
370
    30
100
AcDbLine
 10
74.815618439
 20
69.4863319763
 30
0.0
 11
82.315618439
 21
69.4863319763
 31
0.0
  0
LINE
  5
110
330
1F
100
AcDbEntity
  8
0
  6
Continuous
 62
     7
370
    30
100
AcDbLine
 10
82.315618439
 20
76.4863319763
 30
0.0
 11
89.815618439
 21
76.4863319763
 31
0.0
  0
LINE
  5
111
330
1F
100
AcDbEntity
  8
0
  6
Continuous
 62
     7
370
    30
100
AcDbLine
 10
74.815618439
 20
76.4863319763
 30
0.0
 11
82.315618439
 21
76.4863319763
 31
0.0
  0
LINE
  5
112
330
1F
100
AcDbEntity
  8
0
  6
Continuous
 62
     7
370
    30
100
AcDbLine
 10
87.315618439
 20
84.9863319763
 30
0.0
 11
77.315618439
 21
84.9863319763
 31
0.0
  0
LINE
  5
113
330
1F
100
AcDbEntity
  8
0
  6
Continuous
 62
     7
370
    30
100
AcDbLine
 10
87.315618439
 20
84.9863319763
 30
0.0
 11
87.315618439
 21
76.4863319763
 31
0.0
  0
LINE
  5
114
330
1F
100
AcDbEntity
  8
0
  6
Continuous
 62
     7
370
    30
100
AcDbLine
 10
77.315618439
 20
84.9863319763
 30
0.0
 11
77.315618439
 21
76.4863319763
 31
0.0
  0
ARC
  5
115
330
1F
100
AcDbEntity
  8
0
  6
Continuous
 62
     7
370
    30
100
AcDbCircle
 10
82.315618439
 20
107.5863319763
 30
0.0
 40
17.5
100
AcDbArc
 50
0.0
 51
180.0
  0
LINE
  5
116
330
1F
100
AcDbEntity
  8
0
  6
Continuous
 62
     7
370
    30
100
AcDbLine
 10
99.815618439
 20
81.9863319763
 30
0.0
 11
99.815618439
 21
107.5863319763
 31
0.0
  0
LINE
  5
117
330
1F
100
AcDbEntity
  8
0
  6
Continuous
 62
     7
370
    30
100
AcDbLine
 10
87.315618439
 20
81.9863319763
 30
0.0
 11
99.815618439
 21
81.9863319763
 31
0.0
  0
LINE
  5
118
330
1F
100
AcDbEntity
  8
0
  6
Continuous
 62
     7
370
    30
100
AcDbLine
 10
87.315618439
 20
89.9863319763
 30
0.0
 11
87.315618439
 21
81.9863319763
 31
0.0
  0
LINE
  5
119
330
1F
100
AcDbEntity
  8
0
  6
Continuous
 62
     7
370
    30
100
AcDbLine
 10
77.315618439
 20
89.9863319763
 30
0.0
 11
87.315618439
 21
89.9863319763
 31
0.0
  0
LINE
  5
11A
330
1F
100
AcDbEntity
  8
0
  6
Continuous
 62
     7
370
    30
100
AcDbLine
 10
77.315618439
 20
81.9863319763
 30
0.0
 11
77.315618439
 21
89.9863319763
 31
0.0
  0
LINE
  5
11B
330
1F
100
AcDbEntity
  8
0
  6
Continuous
 62
     7
370
    30
100
AcDbLine
 10
64.815618439
 20
81.9863319763
 30
0.0
 11
77.315618439
 21
81.9863319763
 31
0.0
  0
LINE
  5
11C
330
1F
100
AcDbEntity
  8
0
  6
Continuous
 62
     7
370
    30
100
AcDbLine
 10
64.815618439
 20
107.5863319763
 30
0.0
 11
64.815618439
 21
81.9863319763
 31
0.0
  0
ARC
  5
11D
330
1F
100
AcDbEntity
  8
0
  6
Continuous
 62
     7
370
    30
100
AcDbCircle
 10
88.8103914
 20
98.0959197521
 30
0.0
 40
2.000000000000017
100
AcDbArc
 50
304.3858259347
 51
343.0809978007
  0
ARC
  5
11E
330
1F
100
AcDbEntity
  8
0
  6
Continuous
 62
     7
370
    30
100
AcDbCircle
 10
93.115618439
 20
96.7863319763
 30
0.0
 40
2.500000000000005
100
AcDbArc
 50
106.9190021993
 51
163.0809978007
  0
ARC
  5
11F
330
1F
100
AcDbEntity
  8
0
  6
Continuous
 62
     7
370
    30
100
AcDbCircle
 10
91.8060306632
 20
101.0915590153
 30
0.0
 40
2.000000000000008
100
AcDbArc
 50
286.9190021993
 51
325.6141740653
  0
ARC
  5
120
330
1F
100
AcDbEntity
  8
0
  6
Continuous
 62
     7
370
    30
100
AcDbCircle
 10
72.8252062148
 20
101.0915590153
 30
0.0
 40
2.000000000000008
100
AcDbArc
 50
214.3858259347
 51
253.0809978007
  0
ARC
  5
121
330
1F
100
AcDbEntity
  8
0
  6
Continuous
 62
     7
370
    30
100
AcDbCircle
 10
71.515618439
 20
96.7863319763
 30
0.0
 40
2.499999999999992
100
AcDbArc
 50
16.9190021993
 51
73.0809978007
  0
ARC
  5
122
330
1F
100
AcDbEntity
  8
0
  6
Continuous
 62
     7
370
    30
100
AcDbCircle
 10
82.315618439
 20
107.5863319763
 30
0.0
 40
13.50000000000001
100
AcDbArc
 50
235.6141740653
 51
304.3858259347
  0
ARC
  5
123
330
1F
100
AcDbEntity
  8
0
  6
Continuous
 62
     7
370
    30
100
AcDbCircle
 10
75.8208454781
 20
98.0959197521
 30
0.0
 40
2.000000000000009
100
AcDbArc
 50
196.9190021993
 51
235.6141740653
  0
ARC
  5
124
330
1F
100
AcDbEntity
  8
0
  6
Continuous
 62
     7
370
    30
100
AcDbCircle
 10
82.315618439
 20
107.5863319763
 30
0.0
 40
13.50000000000001
100
AcDbArc
 50
325.6141740653
 51
214.3858259347
  0
LINE
  5
125
330
1F
100
AcDbEntity
  8
0
  6
Continuous
 62
     7
370
    30
100
AcDbLine
 10
99.815618439
 20
81.9863319763
 30
0.0
 11
99.815618439
 21
76.9863319763
 31
0.0
  0
LINE
  5
126
330
1F
100
AcDbEntity
  8
0
  6
Continuous
 62
     7
370
    30
100
AcDbLine
 10
99.815618439
 20
76.9863319763
 30
0.0
 11
87.315618439
 21
76.9863319763
 31
0.0
  0
LINE
  5
127
330
1F
100
AcDbEntity
  8
0
  6
Continuous
 62
     7
370
    30
100
AcDbLine
 10
64.815618439
 20
76.9863319763
 30
0.0
 11
77.315618439
 21
76.9863319763
 31
0.0
  0
LINE
  5
128
330
1F
100
AcDbEntity
  8
0
  6
Continuous
 62
     7
370
    30
100
AcDbLine
 10
64.815618439
 20
76.9863319763
 30
0.0
 11
64.815618439
 21
81.9863319763
 31
0.0
  0
CIRCLE
  5
129
330
1F
100
AcDbEntity
  8
0
  6
Continuous
 62
     7
370
    30
100
AcDbCircle
 10
82.315618439
 20
107.5863319763
 30
0.0
 40
11.00000000000001
  0
LINE
  5
12A
330
1F
100
AcDbEntity
  8
SLD-0
  6
CENTERX2
100
AcDbLine
 10
84.868318439
 20
69.4863319763
 30
0.0
 11
84.868318439
 21
77.4863319763
 31
0.0
  0
LINE
  5
12B
330
1F
100
AcDbEntity
  8
SLD-0
  6
CENTERX2
100
AcDbLine
 10
84.868318439
 20
77.4863319763
 30
0.0
 11
82.315618439
 21
79.0201488785
 31
0.0
  0
LINE
  5
12C
330
1F
100
AcDbEntity
  8
SLD-0
  6
CENTERX2
100
AcDbLine
 10
82.315618439
 20
79.0201488785
 30
0.0
 11
79.762918439
 21
77.4863319763
 31
0.0
  0
LINE
  5
12D
330
1F
100
AcDbEntity
  8
SLD-0
  6
CENTERX2
100
AcDbLine
 10
79.762918439
 20
77.4863319763
 30
0.0
 11
84.868318439
 21
77.4863319763
 31
0.0
  0
LINE
  5
12E
330
1F
100
AcDbEntity
  8
SLD-0
  6
CENTERX2
100
AcDbLine
 10
79.762918439
 20
77.4863319763
 30
0.0
 11
79.762918439
 21
69.4863319763
 31
0.0
  0
DIMENSION
  5
12F
330
1F
100
AcDbEntity
  8
SLD-0
 62
     7
100
AcDbDimension
  2
_D
 10
74.815618439
 20
55.4863319763
 30
0.0
 11
82.315618439
 21
55.4863319763
 31
0.0
 70
   160
  1
%%c<>
 71
     2
 42
-1.0
  3
SLDDIMSTYLE0
100
AcDbAlignedDimension
 13
89.815618439
 23
69.4863319763
 33
0.0
 14
74.815618439
 24
69.4863319763
 34
0.0
100
AcDbRotatedDimension
  0
DIMENSION
  5
13B
330
1F
100
AcDbEntity
  8
SLD-0
 62
     7
100
AcDbDimension
  2
_D_1
 10
55.6967546341
 20
69.4863319763
 30
0.0
 11
55.6967546341
 21
88.5363319763
 31
0.0
 70
   160
  1
<>
 71
     2
 42
-1.0
  3
SLDDIMSTYLE0
100
AcDbAlignedDimension
 13
70.315618439
 23
107.5863319763
 33
0.0
 14
74.815618439
 24
69.4863319763
 34
0.0
 50
90.0
100
AcDbRotatedDimension
  0
DIMENSION
  5
145
330
1F
100
AcDbEntity
  8
SLD-0
 62
     7
100
AcDbDimension
  2
_D_2
 10
64.815618439
 20
134.9637768412
 30
0.0
 11
82.315618439
 21
134.9637768412
 31
0.0
 70
   160
  1
<>
 71
     2
 42
-1.0
  3
SLDDIMSTYLE0
100
AcDbAlignedDimension
 13
99.815618439
 23
107.5863319763
 33
0.0
 14
64.815618439
 24
107.5863319763
 34
0.0
100
AcDbRotatedDimension
  0
DIMENSION
  5
14F
330
1F
100
AcDbEntity
  8
SLD-0
100
AcDbDimension
  2
_D_3
 10
47.9237400849
 20
125.0863319763
 30
0.0
 11
47.9237400849
 21
97.2863319763
 31
0.0
 70
   160
  1
<>
 71
     2
 42
-1.0
  3
SLDDIMSTYLE0
100
AcDbAlignedDimension
 13
74.815618439
 23
69.4863319763
 33
0.0
 14
82.315618439
 24
125.0863319763
 34
0.0
 50
90.0
100
AcDbRotatedDimension
  0
DIMENSION
  5
159
330
1F
100
AcDbEntity
  8
SLD-0
100
AcDbDimension
  2
_D_4
 10
82.315618439
 20
107.5863319763
 30
0.0
 11
42.4386386914
 21
134.6616741536
 31
0.0
 70
   164
  1
ACCEPTS\P%%c1" OPTICS
 71
     1
 42
-1.0
  3
SLDDIMSTYLE1
100
AcDbRadialDimension
 15
71.8713211176
 25
116.140082818
 35
0.0
 40
0.0
  0
INSERT
  5
16A
330
1F
100
AcDbEntity
  8
SLD-0
100
AcDbBlockReference
  2
SW_NOTE_2
 10
62.8523819234
 20
54.7990652045
 30
0.0
  0
LEADER
  5
16C
330
1F
100
AcDbEntity
  8
SLD-0
100
AcDbLeader
  3
SLDDIMSTYLE2
 76
     2
 10
82.315618439
 20
70.8388808769
 30
0.0
 10
62.8523819234
 20
54.7990652045
 30
0.0
  0
INSERT
  5
178
330
1F
100
AcDbEntity
  8
SLD-0
100
AcDbBlockReference
  2
SW_CENTERMARKSYMBOL_0
 10
82.315618439
 20
107.5863319763
 30
0.0
  0
LINE
  5
179
330
1F
100
AcDbEntity
  8
SLD-0
  6
CENTERX2
370
     0
100
AcDbLine
 10
82.315618439
 20
67.4863319763
 30
0.0
 11
82.315618439
 21
79.4863319763
 31
0.0
  0
LINE
  5
17A
330
1F
100
AcDbEntity
  8
0
  6
Continuous
 62
     7
370
    30
100
AcDbLine
 10
147.7154019506
 20
69.4863319763
 30
0.0
 11
147.7154019506
 21
76.4863319763
 31
0.0
  0
LINE
  5
17B
330
1F
100
AcDbEntity
  8
0
  6
Continuous
 62
     7
370
    30
100
AcDbLine
 10
132.7154019506
 20
76.4863319763
 30
0.0
 11
132.7154019506
 21
69.4863319763
 31
0.0
  0
LINE
  5
17C
330
1F
100
AcDbEntity
  8
0
  6
Continuous
 62
     7
370
    30
100
AcDbLine
 10
136.2154019506
 20
125.0863319763
 30
0.0
 11
135.2154019506
 21
125.0863319763
 31
0.0
  0
LINE
  5
17D
330
1F
100
AcDbEntity
  8
0
  6
Continuous
 62
     7
370
    30
100
AcDbLine
 10
145.2154019506
 20
125.0863319763
 30
0.0
 11
140.2154019506
 21
125.0863319763
 31
0.0
  0
LINE
  5
17E
330
1F
100
AcDbEntity
  8
0
  6
HIDDEN
 62
     7
370
    30
100
AcDbLine
 10
183.3154019506
 20
85.9863319763
 30
0.0
 11
183.3154019506
 21
86.9863319763
 31
0.0
  0
LINE
  5
17F
330
1F
100
AcDbEntity
  8
0
  6
HIDDEN
 62
     7
370
    30
100
AcDbLine
 10
183.3154019506
 20
76.9863319763
 30
0.0
 11
183.3154019506
 21
81.9863319763
 31
0.0
  0
LINE
  5
180
330
1F
100
AcDbEntity
  8
0
  6
HIDDEN
 62
     7
370
    30
100
AcDbLine
 10
183.3154019506
 20
85.9635782365
 30
0.0
 11
183.3154019506
 21
85.9863319763
 31
0.0
  0
LINE
  5
181
330
1F
100
AcDbEntity
  8
0
  6
HIDDEN
 62
     7
370
    30
100
AcDbLine
 10
183.3154019506
 20
81.9863319763
 30
0.0
 11
183.3154019506
 21
85.9635782365
 31
0.0
  0
LINE
  5
182
330
1F
100
AcDbEntity
  8
0
  6
Continuous
 62
     7
370
    30
100
AcDbLine
 10
136.2381556904
 20
125.0863319763
 30
0.0
 11
136.2154019506
 21
125.0863319763
 31
0.0
  0
LINE
  5
183
330
1F
100
AcDbEntity
  8
0
  6
Continuous
 62
     7
370
    30
100
AcDbLine
 10
140.2154019506
 20
125.0863319763
 30
0.0
 11
136.2381556904
 21
125.0863319763
 31
0.0
  0
LINE
  5
184
330
1F
100
AcDbEntity
  8
0
  6
Continuous
 62
     7
370
    30
100
AcDbLine
 10
132.7154019506
 20
69.4863319763
 30
0.0
 11
147.7154019506
 21
69.4863319763
 31
0.0
  0
LINE
  5
185
330
1F
100
AcDbEntity
  8
0
  6
Continuous
 62
     7
370
    30
100
AcDbLine
 10
132.7154019506
 20
76.4863319763
 30
0.0
 11
147.7154019506
 21
76.4863319763
 31
0.0
  0
LINE
  5
186
330
1F
100
AcDbEntity
  8
0
  6
Continuous
 62
     7
370
    30
100
AcDbLine
 10
145.2154019506
 20
81.9863319763
 30
0.0
 11
145.2154019506
 21
80.5721184139
 31
0.0
  0
LINE
  5
187
330
1F
100
AcDbEntity
  8
0
  6
Continuous
 62
     7
370
    30
100
AcDbLine
 10
145.2154019506
 20
76.9863319763
 30
0.0
 11
145.2154019506
 21
76.4863319763
 31
0.0
  0
LINE
  5
188
330
1F
100
AcDbEntity
  8
0
  6
Continuous
 62
     7
370
    30
100
AcDbLine
 10
135.2154019506
 20
81.9863319763
 30
0.0
 11
135.2154019506
 21
76.4863319763
 31
0.0
  0
LINE
  5
189
330
1F
100
AcDbEntity
  8
0
  6
Continuous
 62
     7
370
    30
100
AcDbLine
 10
135.2154019506
 20
81.9863319763
 30
0.0
 11
135.2154019506
 21
107.5863319763
 31
0.0
  0
LINE
  5
18A
330
1F
100
AcDbEntity
  8
0
  6
Continuous
 62
     7
370
    30
100
AcDbLine
 10
145.2154019506
 20
81.9863319763
 30
0.0
 11
145.2154019506
 21
107.5863319763
 31
0.0
  0
ARC
  5
18B
330
1F
100
AcDbEntity
  8
0
  6
Continuous
 62
     7
370
    30
100
AcDbCircle
 10
140.2154019506
 20
81.9863319763
 30
0.0
 40
5.0
100
AcDbArc
 50
270.0
 51
0.0
  0
ARC
  5
18C
330
1F
100
AcDbEntity
  8
0
  6
Continuous
 62
     7
370
    30
100
AcDbCircle
 10
140.2154019506
 20
81.9863319763
 30
0.0
 40
5.0
100
AcDbArc
 50
180.0
 51
270.0
  0
CIRCLE
  5
18D
330
1F
100
AcDbEntity
  8
0
  6
Continuous
 62
     7
370
    30
100
AcDbCircle
 10
140.2154019506
 20
81.9863319763
 30
0.0
 40
1.5
  0
LINE
  5
18E
330
1F
100
AcDbEntity
  8
0
  6
Continuous
 62
     7
370
    30
100
AcDbLine
 10
135.2154019506
 20
107.5863319763
 30
0.0
 11
135.2154019506
 21
125.0863319763
 31
0.0
  0
LINE
  5
18F
330
1F
100
AcDbEntity
  8
0
  6
Continuous
 62
     7
370
    30
100
AcDbLine
 10
145.2154019506
 20
107.5863319763
 30
0.0
 11
145.2154019506
 21
125.0863319763
 31
0.0
  0
LINE
  5
190
330
1F
100
AcDbEntity
  8
0
  6
HIDDEN
 62
     7
370
    30
100
AcDbLine
 10
165.8154019506
 20
86.9863319763
 30
0.0
 11
183.3154019506
 21
86.9863319763
 31
0.0
  0
LINE
  5
191
330
1F
100
AcDbEntity
  8
0
  6
HIDDEN
 62
     7
370
    30
100
AcDbLine
 10
165.8154019506
 20
76.9863319763
 30
0.0
 11
183.3154019506
 21
76.9863319763
 31
0.0
  0
ARC
  5
192
330
1F
100
AcDbEntity
  8
0
  6
HIDDEN
 62
     7
370
    30
100
AcDbCircle
 10
140.2154019506
 20
81.9863319763
 30
0.0
 40
5.0
100
AcDbArc
 50
90.0
 51
180.0
  0
LINE
  5
193
330
1F
100
AcDbEntity
  8
0
  6
HIDDEN
 62
     7
370
    30
100
AcDbLine
 10
140.2154019506
 20
86.9863319763
 30
0.0
 11
165.8154019506
 21
86.9863319763
 31
0.0
  0
LINE
  5
194
330
1F
100
AcDbEntity
  8
0
  6
HIDDEN
 62
     7
370
    30
100
AcDbLine
 10
140.2154019506
 20
76.9863319763
 30
0.0
 11
165.8154019506
 21
76.9863319763
 31
0.0
  0
DIMENSION
  5
195
330
1F
100
AcDbEntity
  8
SLD-0
 62
     7
100
AcDbDimension
  2
_D_5
 10
135.2154019506
 20
132.0863319763
 30
0.0
 11
140.2154019506
 21
132.0863319763
 31
0.0
 70
   160
  1
<>
 71
     2
 42
-1.0
  3
SLDDIMSTYLE0
100
AcDbAlignedDimension
 13
145.2154019506
 23
125.0863319763
 33
0.0
 14
135.2154019506
 24
125.0863319763
 34
0.0
100
AcDbRotatedDimension
  0
DIMENSION
  5
19F
330
1F
100
AcDbEntity
  8
SLD-0
 62
     7
100
AcDbDimension
  2
_D_6
 10
140.2154019506
 20
86.9863319763
 30
0.0
 11
163.1955425262
 21
104.9664725519
 31
0.0
 70
   162
  1
<>
 71
     1
 42
-1.0
  3
SLDDIMSTYLE3
100
AcDb2LineAngularDimension
 13
145.2154019506
 23
125.0863319763
 33
0.0
 14
145.2154019506
 24
81.9863319763
 34
0.0
 15
165.8154019506
 25
86.9863319763
 35
0.0
 16
163.1955425262
 26
104.9664725519
 36
0.0
  0
DIMENSION
  5
1A9
330
1F
100
AcDbEntity
  8
SLD-0
100
AcDbDimension
  2
_D_7
 10
123.5742983027
 20
69.4863319763
 30
0.0
 11
123.5742983027
 21
72.9863319763
 31
0.0
 70
   160
  1
<>
 71
     2
 42
-1.0
  3
SLDDIMSTYLE0
100
AcDbAlignedDimension
 13
132.7154019506
 23
76.4863319763
 33
0.0
 14
132.7154019506
 24
69.4863319763
 34
0.0
 50
90.0
100
AcDbRotatedDimension
  0
INSERT
  5
1BE
330
1F
100
AcDbEntity
  8
SLD-0
100
AcDbBlockReference
  2
SW_CENTERMARKSYMBOL_1
 10
140.2154019506
 20
81.9863319763
 30
0.0
  0
LINE
  5
1BF
330
1F
100
AcDbEntity
  8
0
  6
Continuous
 62
     7
370
    30
100
AcDbLine
 10
226.4299899964
 20
169.7042890112
 30
0.0
 11
226.4299899964
 21
169.6575531077
 31
0.0
  0
LINE
  5
1C0
330
1F
100
AcDbEntity
  8
0
  6
Continuous
 62
     7
370
    30
100
AcDbLine
 10
230.4299899964
 20
169.6575531077
 30
0.0
 11
230.4299899964
 21
169.7042890112
 31
0.0
  0
LINE
  5
1C1
330
1F
100
AcDbEntity
  8
0
  6
Continuous
 62
     7
370
    30
100
AcDbLine
 10
237.3442035588
 20
125.1210279822
 30
0.0
 11
237.3442035588
 21
125.2247839846
 31
0.0
  0
LINE
  5
1C2
330
1F
100
AcDbEntity
  8
0
  6
Continuous
 62
     7
370
    30
100
AcDbLine
 10
222.3442035588
 20
130.8368136654
 30
0.0
 11
222.3442035588
 21
125.1210279822
 31
0.0
  0
LINE
  5
1C3
330
1F
100
AcDbEntity
  8
0
  6
Continuous
 62
     7
370
    30
100
AcDbLine
 10
224.6304485542
 20
173.4281082862
 30
0.0
 11
217.5593807423
 21
169.3460677271
 31
0.0
  0
LINE
  5
1C4
330
1F
100
AcDbEntity
  8
0
  6
Continuous
 62
     7
370
    30
100
AcDbLine
 10
234.8795454434
 20
144.3888986879
 30
0.0
 11
232.6955244739
 21
143.1280902192
 31
0.0
  0
LINE
  5
1C5
330
1F
100
AcDbEntity
  8
0
  6
Continuous
 62
     7
370
    30
100
AcDbLine
 10
230.8799406331
 20
128.9565235393
 30
0.0
 11
239.718775398
 21
123.8539728404
 31
0.0
  0
LINE
  5
1C6
330
1F
100
AcDbEntity
  8
0
  6
Continuous
 62
     7
370
    30
100
AcDbLine
 10
214.9700380564
 20
138.1411147973
 30
0.0
 11
222.7731357469
 21
133.6364823844
 31
0.0
  0
LWPOLYLINE
  5
1C7
330
1F
100
AcDbEntity
  8
0
  6
Continuous
 62
     7
370
    30
100
AcDbPolyline
 90
       27
 70
   128
 43
0.0
 10
243.0663734581
 20
131.1976612663
 10
242.8033233863
 20
130.8449423298
 10
242.5062897028
 20
130.5511364453
 10
242.1925349255
 20
130.3333185428
 10
241.8802933417
 20
130.204147407
 10
241.5877112973
 20
130.171129995
 10
241.3317925971
 20
130.2361851585
 10
241.1274103059
 20
130.395532128
 10
240.9864423795
 20
130.6399102369
 10
240.9170813614
 20
130.9551171177
 10
240.9233582618
 20
131.3228340922
 10
241.0049082901
 20
131.7216907865
 10
241.1569920551
 20
132.1285070993
 10
241.3707710011
 20
132.5196403452
 10
241.6338210729
 20
132.8723592816
 10
241.9308547565
 20
133.1661651661
 10
242.2446095337
 20
133.3839830687
 10
242.5568511176
 20
133.5131542044
 10
242.849433162
 20
133.5461716165
 10
243.1053518621
 20
133.481116453
 10
243.3097341533
 20
133.3217694834
 10
243.4507020797
 20
133.0773913746
 10
243.5200630979
 20
132.7621844938
 10
243.5137861975
 20
132.3944675193
 10
243.4322361692
 20
131.995610825
 10
243.2801524042
 20
131.5887945122
 10
243.0663734581
 20
131.1976612663
  0
LINE
  5
1C8
330
1F
100
AcDbEntity
  8
0
  6
Continuous
 62
     7
370
    30
100
AcDbLine
 10
242.7477379241
 20
131.4460859533
 30
0.0
 11
243.0216601843
 21
132.4924351213
 31
0.0
  0
LINE
  5
1C9
330
1F
100
AcDbEntity
  8
0
  6
Continuous
 62
     7
370
    30
100
AcDbLine
 10
243.0216601843
 20
132.4924351213
 30
0.0
 11
242.4924944897
 21
132.9049999738
 31
0.0
  0
LINE
  5
1CA
330
1F
100
AcDbEntity
  8
0
  6
Continuous
 62
     7
370
    30
100
AcDbLine
 10
242.4924944897
 20
132.9049999738
 30
0.0
 11
241.689406535
 21
132.2712156582
 31
0.0
  0
LINE
  5
1CB
330
1F
100
AcDbEntity
  8
0
  6
Continuous
 62
     7
370
    30
100
AcDbLine
 10
241.689406535
 20
132.2712156582
 30
0.0
 11
241.4154842748
 21
131.2248664902
 31
0.0
  0
LINE
  5
1CC
330
1F
100
AcDbEntity
  8
0
  6
Continuous
 62
     7
370
    30
100
AcDbLine
 10
241.4154842748
 20
131.2248664902
 30
0.0
 11
241.9446499694
 21
130.8123016378
 31
0.0
  0
LINE
  5
1CD
330
1F
100
AcDbEntity
  8
0
  6
Continuous
 62
     7
370
    30
100
AcDbLine
 10
241.9446499694
 20
130.8123016378
 30
0.0
 11
242.7477379241
 21
131.4460859533
 31
0.0
  0
LINE
  5
1CE
330
1F
100
AcDbEntity
  8
0
  6
Continuous
 62
     7
370
    30
100
AcDbLine
 10
242.4141291759
 20
132.8431553072
 30
0.0
 11
243.0216601843
 21
132.4924351213
 31
0.0
  0
LINE
  5
1CF
330
1F
100
AcDbEntity
  8
0
  6
Continuous
 62
     7
370
    30
100
AcDbLine
 10
242.7477379241
 20
131.4460859533
 30
0.0
 11
241.6407005975
 21
132.0851649987
 31
0.0
  0
LWPOLYLINE
  5
1D0
330
1F
100
AcDbEntity
  8
0
  6
Continuous
 62
     7
370
    30
100
AcDbPolyline
 90
       28
 70
   128
 43
0.0
 10
227.2445829721
 20
168.7743700342
 10
226.9050501676
 20
168.9572513829
 10
226.6477272639
 20
169.1804057235
 10
226.4864866054
 20
169.4318027477
 10
226.4300207179
 20
169.6978895769
 10
226.4813736918
 20
169.9643214012
 10
226.6377770751
 20
170.2167348121
 10
226.8907991208
 20
170.4415221373
 10
227.2267993451
 20
170.6265650338
 10
227.6276638888
 20
170.7618877912
 10
228.0717820406
 20
170.8401951246
 10
228.5352112761
 20
170.8572654654
 10
228.9929680051
 20
170.8121785471
 10
229.420374444
 20
170.7073650172
 10
229.794389001
 20
170.5484754002
 10
230.0948484544
 20
170.3440754764
 10
230.3055549575
 20
170.1051844987
 10
230.415149268
 20
169.8446811415
 10
230.4177231283
 20
169.5766092082
 10
230.313137781
 20
169.3154205261
 10
230.1070314492
 20
169.0751958447
 10
229.8105153786
 20
168.8688857388
 10
229.4395748273
 20
168.7076124395
 10
229.0142072965
 20
168.6000702322
 10
228.5573444598
 20
168.552056745
 10
228.093615911
 20
168.5661603976
 10
227.6480213762
 20
168.6416208583
 10
227.2445829721
 20
168.7743700342
  0
LINE
  5
1D1
330
1F
100
AcDbEntity
  8
0
  6
Continuous
 62
     7
370
    30
100
AcDbLine
 10
228.7263508209
 20
170.6999505456
 30
0.0
 11
227.0845162666
 21
170.350284135
 31
0.0
  0
LINE
  5
1D2
330
1F
100
AcDbEntity
  8
0
  6
Continuous
 62
     7
370
    30
100
AcDbLine
 10
227.0845162666
 20
170.350284135
 30
0.0
 11
226.788155442
 21
169.3546226006
 31
0.0
  0
LINE
  5
1D3
330
1F
100
AcDbEntity
  8
0
  6
Continuous
 62
     7
370
    30
100
AcDbLine
 10
226.788155442
 20
169.3546226006
 30
0.0
 11
228.1336291719
 21
168.7086274768
 31
0.0
  0
LINE
  5
1D4
330
1F
100
AcDbEntity
  8
0
  6
Continuous
 62
     7
370
    30
100
AcDbLine
 10
228.1336291719
 20
168.7086274768
 30
0.0
 11
229.7754637263
 21
169.0582938874
 31
0.0
  0
LINE
  5
1D5
330
1F
100
AcDbEntity
  8
0
  6
Continuous
 62
     7
370
    30
100
AcDbLine
 10
229.7754637263
 20
169.0582938874
 30
0.0
 11
230.0718245508
 21
170.0539554218
 31
0.0
  0
LINE
  5
1D6
330
1F
100
AcDbEntity
  8
0
  6
Continuous
 62
     7
370
    30
100
AcDbLine
 10
230.0718245508
 20
170.0539554218
 30
0.0
 11
228.7263508209
 21
170.6999505456
 31
0.0
  0
LINE
  5
1D7
330
1F
100
AcDbEntity
  8
0
  6
Continuous
 62
     7
370
    30
100
AcDbLine
 10
227.046819071
 20
169.4070948445
 30
0.0
 11
227.0008100858
 21
169.252521861
 31
0.0
  0
LINE
  5
1D8
330
1F
100
AcDbEntity
  8
0
  6
Continuous
 62
     7
370
    30
100
AcDbLine
 10
228.5175089191
 20
169.8389320499
 30
0.0
 11
227.2933581683
 21
169.5782210069
 31
0.0
  0
LINE
  5
1D9
330
1F
100
AcDbEntity
  8
0
  6
Continuous
 62
     7
370
    30
100
AcDbLine
 10
229.859169907
 20
169.3395153495
 30
0.0
 11
228.8974955272
 21
169.8012389389
 31
0.0
  0
LINE
  5
1DA
330
1F
100
AcDbEntity
  8
0
  6
Continuous
 62
     7
370
    30
100
AcDbLine
 10
227.0845162666
 20
170.2792584999
 30
0.0
 11
227.0845162666
 21
170.350284135
 31
0.0
  0
LINE
  5
1DB
330
1F
100
AcDbEntity
  8
0
  6
Continuous
 62
     7
370
    30
100
AcDbLine
 10
228.7263508209
 20
170.676131805
 30
0.0
 11
228.7263508209
 21
170.6999505456
 31
0.0
  0
LWPOLYLINE
  5
1DC
330
1F
100
AcDbEntity
  8
0
  6
Continuous
 62
     7
370
    30
100
AcDbPolyline
 90
        9
 70
   128
 43
0.0
 10
243.0734458245
 20
128.5973293872
 10
242.9687198756
 20
128.2260102904
 10
242.7952481886
 20
127.8591602447
 10
242.5658963651
 20
127.5239868396
 10
242.2976743806
 20
127.2453483533
 10
242.0104750326
 20
127.0439101276
 10
241.7255985829
 20
126.9346119142
 10
241.4641730146
 20
126.9255598617
 10
241.3854701
 20
126.9452207753
  0
ARC
  5
1DD
330
1F
100
AcDbEntity
  8
0
  6
Continuous
 62
     7
370
    30
100
AcDbCircle
 10
242.1697864438
 20
128.8891844843
 30
0.0
 40
0.9496208053914219
100
AcDbArc
 50
342.1010868654
 51
42.0535842772
  0
LINE
  5
1DE
330
1F
100
AcDbEntity
  8
0
  6
Continuous
 62
     7
370
    30
100
AcDbLine
 10
229.8442035588
 20
133.6953700073
 30
0.0
 11
222.7731357469
 21
137.7774105664
 31
0.0
  0
ARC
  5
1DF
330
1F
100
AcDbEntity
  8
0
  6
Continuous
 62
     7
370
    30
100
AcDbCircle
 10
230.0816606851
 20
137.5017942781
 30
0.0
 40
7.313720059596236
100
AcDbArc
 50
149.0582326246
 51
177.8403069722
  0
LINE
  5
1E0
330
1F
100
AcDbEntity
  8
0
  6
Continuous
 62
     7
370
    30
100
AcDbLine
 10
229.8442035588
 20
126.7547731063
 30
0.0
 11
232.2690505288
 21
128.1546074657
 31
0.0
  0
LINE
  5
1E1
330
1F
100
AcDbEntity
  8
0
  6
Continuous
 62
     7
370
    30
100
AcDbLine
 10
229.8442035588
 20
133.6953700073
 30
0.0
 11
229.8442035588
 21
126.7547731063
 31
0.0
  0
LINE
  5
1E2
330
1F
100
AcDbEntity
  8
0
  6
Continuous
 62
     7
370
    30
100
AcDbLine
 10
222.7731357469
 20
130.8368136654
 30
0.0
 11
229.8442035588
 21
126.7547731063
 31
0.0
  0
LINE
  5
1E3
330
1F
100
AcDbEntity
  8
0
  6
Continuous
 62
     7
370
    30
100
AcDbLine
 10
222.7731357469
 20
137.7774105664
 30
0.0
 11
222.7731357469
 21
130.8368136654
 31
0.0
  0
LWPOLYLINE
  5
1E4
330
1F
100
AcDbEntity
  8
0
  6
Continuous
 62
     7
370
    30
100
AcDbPolyline
 90
       21
 70
   128
 43
0.0
 10
224.5409026999
 20
122.0594975628
 10
225.2053642684
 20
121.7188892403
 10
225.934944972
 20
121.4260394882
 10
226.719403097
 20
121.185059275
 10
227.5477265709
 20
120.9993314347
 10
228.4082875477
 20
120.871463179
 10
229.2890056377
 20
120.803249498
 10
230.1775174896
 20
120.7956479623
 10
231.0613503444
 20
120.8487652807
 10
231.9280971265
 20
120.9618558025
 10
232.7655906108
 20
121.1333319847
 10
233.5620742246
 20
121.3607866775
 10
234.306367084
 20
121.6410269157
 10
234.9880209487
 20
121.9701187407
 10
235.5974668926
 20
122.3434424245
 10
236.1261496306
 20
122.755757321
 10
236.5666476159
 20
123.2012754328
 10
236.9127772225
 20
123.6737426623
 10
237.1596795493
 20
124.1665266052
 10
237.3038886289
 20
124.6727096551
 10
237.3442035588
 20
125.1210279822
  0
ARC
  5
1E5
330
1F
100
AcDbEntity
  8
0
  6
Continuous
 62
     7
370
    30
100
AcDbCircle
 10
226.167642685
 20
125.5455599822
 30
0.0
 40
3.846935685799209
100
AcDbArc
 50
186.3358312974
 51
244.9843096602
  0
ARC
  5
1E6
330
1F
100
AcDbEntity
  8
0
  6
Continuous
 62
     7
370
    30
100
AcDbCircle
 10
229.8877064891
 20
138.2469947062
 30
0.0
 40
11.75776558979321
100
AcDbArc
 50
242.9513695323
 51
290.0524204348
  0
ARC
  5
1E7
330
1F
100
AcDbEntity
  8
0
  6
Continuous
 62
     7
370
    30
100
AcDbCircle
 10
225.6435907458
 20
130.807234259
 30
0.0
 40
3.226243616326943
100
AcDbArc
 50
152.8381427438
 51
250.0142163116
  0
LINE
  5
1E8
330
1F
100
AcDbEntity
  8
0
  6
Continuous
 62
     7
370
    30
100
AcDbLine
 10
238.6830383236
 20
147.046641657
 30
0.0
 11
245.7541061355
 21
151.1286822161
 31
0.0
  0
LWPOLYLINE
  5
1E9
330
1F
100
AcDbEntity
  8
0
  6
Continuous
 62
     7
370
    30
100
AcDbPolyline
 90
       41
 70
   128
 43
0.0
 10
238.6830383236
 20
147.046641657
 10
238.6448922747
 20
148.1898013425
 10
238.5306893112
 20
149.3699555589
 10
238.3411335322
 20
150.5798282631
 10
238.0773936122
 20
151.8119601876
 10
237.7410955955
 20
153.0587548292
 10
237.3343128712
 20
154.3125252845
 10
236.8595533901
 20
155.5655416416
 10
236.3197442022
 20
156.810078638
 10
235.7182134106
 20
158.0384632893
 10
235.0586696529
 20
159.2431221957
 10
234.3451792354
 20
160.4166282344
 10
233.582141064
 20
161.5517463504
 10
232.7742595226
 20
162.6414781631
 10
231.9265154697
 20
163.6791051135
 10
231.0441355291
 20
164.6582298864
 10
230.1325598668
 20
165.572815852
 10
229.1974086497
 20
166.4172242836
 10
228.2444473961
 20
167.1862491226
 10
227.279551429
 20
167.8751490749
 10
226.3086696529
 20
168.4796768435
 10
225.3377878767
 20
168.9961053134
 10
224.3728919096
 20
169.4212505315
 10
223.419930656
 20
169.7524913362
 10
222.4847794389
 20
169.9877855177
 10
221.5732037766
 20
170.1256824092
 10
220.6908238361
 20
170.1653318304
 10
219.8430797831
 20
170.1064893295
 10
219.0351982417
 20
169.9495176901
 10
218.2721600703
 20
169.6953846945
 10
217.5586696529
 20
169.3456571572
 10
216.8991258951
 20
168.9024912647
 10
216.2975951035
 20
168.3686192822
 10
215.7577859156
 20
167.7473327078
 10
215.2830264345
 20
167.0424619801
 10
214.8762437102
 20
166.2583528613
 10
214.5399456935
 20
165.3998396449
 10
214.2762057735
 20
164.4722153505
 10
214.0866499945
 20
163.4811990902
 10
213.972447031
 20
162.4329008088
 10
213.9343009821
 20
161.3337836139
  0
LWPOLYLINE
  5
1EA
330
1F
100
AcDbEntity
  8
0
  6
Continuous
 62
     7
370
    30
100
AcDbPolyline
 90
       31
 70
   128
 43
0.0
 10
245.7541061355
 20
151.1286822161
 10
245.7159600866
 20
152.2718419016
 10
245.6017571231
 20
153.451996118
 10
245.4122013441
 20
154.6618688222
 10
245.1484614241
 20
155.8940007467
 10
244.8121634074
 20
157.1407953883
 10
244.4053806831
 20
158.3945658436
 10
243.9306212019
 20
159.6475822007
 10
243.390812014
 20
160.8921191971
 10
242.7892812225
 20
162.1205038484
 10
242.1297374647
 20
163.3251627548
 10
241.4162470473
 20
164.4986687935
 10
240.6532088758
 20
165.6337869095
 10
239.8453273345
 20
166.7235187222
 10
238.9975832815
 20
167.7611456726
 10
238.115203341
 20
168.7402704455
 10
237.2036276786
 20
169.6548564111
 10
236.2684764616
 20
170.4992648427
 10
235.3155152079
 20
171.2682896817
 10
234.3506192408
 20
171.957189634
 10
233.3797374647
 20
172.5617174026
 10
232.4088556886
 20
173.0781458725
 10
231.4439597215
 20
173.5032910907
 10
230.4909984679
 20
173.8345318953
 10
229.5558472508
 20
174.0698260768
 10
228.6442715884
 20
174.2077229683
 10
227.7618916479
 20
174.2473723895
 10
226.914147595
 20
174.1885298886
 10
226.1062660536
 20
174.0315582492
 10
225.3432278822
 20
173.7774252536
 10
224.6304485542
 20
173.4281082862
  0
SPLINE
  5
1EB
330
1F
100
AcDbEntity
  8
0
  6
Continuous
 62
     7
370
    30
100
AcDbSpline
210
0.0
220
0.0
230
1.0
 70
     8
 71
     3
 72
    13
 73
     9
 74
     0
 42
0.000000001
 43
0.00000001
 40
0.0
 40
0.0
 40
0.0
 40
0.0
 40
0.1471304988663264
 40
0.2952861805790715
 40
0.4466725432305094
 40
0.5991736485456384
 40
0.7463034112511238
 40
0.9999999999999999
 40
0.9999999999999999
 40
0.9999999999999999
 40
0.9999999999999999
 10
227.2632638074542
 20
169.0307523189356
 30
0.0
 10
227.2318910782207
 20
169.0496649349473
 30
0.0
 10
227.1689270193678
 20
169.0876219471909
 30
0.0
 10
227.084611865703
 20
169.1494507013587
 30
0.0
 10
227.0081592452171
 20
169.2148101387105
 30
0.0
 10
226.9427007570281
 20
169.2828266460461
 30
0.0
 10
226.8734365352389
 20
169.3687457654315
 30
0.0
 10
226.8431886330817
 20
169.433933948382
 30
0.0
 10
226.8240437101838
 20
169.4751937597224
 30
0.0
  0
SPLINE
  5
1EC
330
1F
100
AcDbEntity
  8
0
  6
Continuous
 62
     7
370
    30
100
AcDbSpline
210
0.0
220
0.0
230
1.0
 70
     8
 71
     3
 72
     9
 73
     5
 74
     0
 42
0.000000001
 43
0.00000001
 40
0.0
 40
0.0
 40
0.0
 40
0.0
 40
0.2920667890222068
 40
1.0
 40
1.0
 40
1.0
 40
1.0
 10
227.0474878505545
 20
170.1625108690755
 30
0.0
 10
227.0682810567241
 20
170.180051627588
 30
0.0
 10
227.139474382878
 20
170.240108981494
 30
0.0
 10
227.2297315666764
 20
170.2933465125406
 30
0.0
 10
227.2936276246166
 20
170.3310351288388
 30
0.0
  0
SPLINE
  5
1ED
330
1F
100
AcDbEntity
  8
0
  6
Continuous
 62
     7
370
    30
100
AcDbSpline
210
0.0
220
0.0
230
1.0
 70
     8
 71
     3
 72
    19
 73
    15
 74
     0
 42
0.000000001
 43
0.00000001
 40
0.0
 40
0.0
 40
0.0
 40
0.0
 40
0.0238085034587323
 40
0.1561239055087827
 40
0.2235450496208483
 40
0.2885988894388371
 40
0.420931428495963
 40
0.4883718861398612
 40
0.5531794084049433
 40
0.6850048640823877
 40
0.7521808785345879
 40
0.8168799071080614
 40
0.9484655681949568
 40
1.0
 40
1.0
 40
1.0
 40
1.0
 10
228.5174543092314
 20
170.6262837984449
 30
0.0
 10
228.5341227080962
 20
170.6265974890819
 30
0.0
 10
228.643425484471
 20
170.6286545107445
 30
0.0
 10
228.7985596840764
 20
170.6173519815521
 30
0.0
 10
228.9762648018624
 20
170.5925036207271
 30
0.0
 10
229.1487914898292
 20
170.557907959061
 30
0.0
 10
229.3121469385269
 20
170.5096341339604
 30
0.0
 10
229.4618716019619
 20
170.4483742754841
 30
0.0
 10
229.6015736735931
 20
170.3790460612394
 30
0.0
 10
229.7253435916982
 20
170.2980638295523
 30
0.0
 10
229.8301008550525
 20
170.207401028407
 30
0.0
 10
229.9211822161145
 20
170.1109464325455
 30
0.0
 10
229.98984870309
 20
170.0133160470498
 30
0.0
 10
230.0217296564511
 20
169.9372148439314
 30
0.0
 10
230.0307017293182
 20
169.9157981211652
 30
0.0
  0
LINE
  5
1EE
330
1F
100
AcDbEntity
  8
0
  6
Continuous
 62
     7
370
    30
100
AcDbLine
 10
229.7909450328
 20
169.1103052874
 30
0.0
 11
229.7122755567
 21
169.0448365141
 31
0.0
  0
SPLINE
  5
1EF
330
1F
100
AcDbEntity
  8
0
  6
Continuous
 62
     7
370
    30
100
AcDbSpline
210
0.0
220
0.0
230
1.0
 70
     8
 71
     3
 72
    14
 73
    10
 74
     0
 42
0.000000001
 43
0.00000001
 40
0.0
 40
0.0
 40
0.0
 40
0.0
 40
0.051291110462604
 40
0.1778388217952729
 40
0.3001609633643931
 40
0.5489816339013274
 40
0.6757839933818743
 40
0.8369009253141548
 40
1.0
 40
1.0
 40
1.0
 40
1.0
 10
228.2542682702038
 20
168.7343203460187
 30
0.0
 10
228.235147758019
 20
168.7354980097092
 30
0.0
 10
228.1688522668822
 20
168.7395812576893
 30
0.0
 10
228.0590713089173
 20
168.7577676682969
 30
0.0
 10
227.8799074676572
 20
168.7915025374962
 30
0.0
 10
227.7075023052887
 20
168.8384488270295
 30
0.0
 10
227.5340147763248
 20
168.9000770120168
 30
0.0
 10
227.3960070768719
 20
168.9584177373304
 30
0.0
 10
227.3076915406466
 20
169.0065427186581
 30
0.0
 10
227.2632638074542
 20
169.0307523189356
 30
0.0
  0
LINE
  5
1F0
330
1F
100
AcDbEntity
  8
0
  6
Continuous
 62
     7
370
    30
100
AcDbLine
 10
238.6830383236
 20
126.1431968727
 30
0.0
 11
238.6830383236
 21
147.046641657
 31
0.0
  0
LINE
  5
1F1
330
1F
100
AcDbEntity
  8
0
  6
Continuous
 62
     7
370
    30
100
AcDbLine
 10
229.8442035588
 20
131.2457475716
 30
0.0
 11
238.6830383236
 21
126.1431968727
 31
0.0
  0
LINE
  5
1F2
330
1F
100
AcDbEntity
  8
0
  6
Continuous
 62
     7
370
    30
100
AcDbLine
 10
229.8442035588
 20
137.7780740667
 30
0.0
 11
229.8442035588
 21
131.2457475716
 31
0.0
  0
LINE
  5
1F3
330
1F
100
AcDbEntity
  8
0
  6
Continuous
 62
     7
370
    30
100
AcDbLine
 10
222.7731357469
 20
141.8601146258
 30
0.0
 11
229.8442035588
 21
137.7780740667
 31
0.0
  0
LINE
  5
1F4
330
1F
100
AcDbEntity
  8
0
  6
Continuous
 62
     7
370
    30
100
AcDbLine
 10
222.7731357469
 20
135.3277881307
 30
0.0
 11
222.7731357469
 21
141.8601146258
 31
0.0
  0
LINE
  5
1F5
330
1F
100
AcDbEntity
  8
0
  6
Continuous
 62
     7
370
    30
100
AcDbLine
 10
213.9343009821
 20
140.4303388296
 30
0.0
 11
222.7731357469
 21
135.3277881307
 31
0.0
  0
LINE
  5
1F6
330
1F
100
AcDbEntity
  8
0
  6
Continuous
 62
     7
370
    30
100
AcDbLine
 10
213.9343009821
 20
161.3337836139
 30
0.0
 11
213.9343009821
 21
140.4303388296
 31
0.0
  0
ARC
  5
1F7
330
1F
100
AcDbEntity
  8
0
  6
Continuous
 62
     7
370
    30
100
AcDbCircle
 10
231.5234131022
 20
142.7122804506
 30
0.0
 40
0.7523368173021059
100
AcDbArc
 50
283.5642567497
 51
346.2437464733
  0
ARC
  5
1F8
330
1F
100
AcDbEntity
  8
0
  6
Continuous
 62
     7
370
    30
100
AcDbCircle
 10
233.1695322194
 20
142.3069728113
 30
0.0
 40
0.9429467761928231
100
AcDbArc
 50
73.9036018371
 51
166.1071499177
  0
ARC
  5
1F9
330
1F
100
AcDbEntity
  8
0
  6
Continuous
 62
     7
370
    30
100
AcDbCircle
 10
233.6412958401
 20
143.9351962554
 30
0.0
 40
0.7522454629476725
100
AcDbArc
 50
253.7636842298
 51
316.4483945126
  0
LWPOLYLINE
  5
1FA
330
1F
100
AcDbEntity
  8
0
  6
Continuous
 62
     7
370
    30
100
AcDbPolyline
 90
       50
 70
   128
 43
0.0
 10
234.1864888128
 20
143.4168933913
 10
234.6326699856
 20
143.9887741112
 10
235.0135362589
 20
144.6407011915
 10
235.3260991368
 20
145.3675592371
 10
235.5679060708
 20
146.1636449011
 10
235.7370597046
 20
147.0227116372
 10
235.8322327614
 20
147.938018713
 10
235.8526784585
 20
148.9023841022
 10
235.7982363673
 20
149.9082408387
 10
235.6693336717
 20
150.9476963914
 10
235.4669818166
 20
152.0125945935
 10
235.192768571
 20
153.0945796407
 10
234.84884557
 20
154.1851616551
 10
234.4379114315
 20
155.2757833025
 10
233.9631905813
 20
156.3578869373
 10
233.4284079526
 20
157.4229817515
 10
232.8377597578
 20
158.4627103978
 10
232.1958805627
 20
159.4689145666
 10
231.5078069211
 20
160.4336990008
 10
230.7789378548
 20
161.349493446
 10
230.0149924904
 20
162.2091120518
 10
229.221965183
 20
163.0058097556
 10
228.4060784814
 20
163.7333352086
 10
227.5737343024
 20
164.3859798271
 10
226.7314636979
 20
164.9586225857
 10
225.8858756078
 20
165.4467701996
 10
225.0436050033
 20
165.8465923815
 10
224.2112608243
 20
166.1549518964
 10
223.3953741227
 20
166.369429178
 10
222.6023468153
 20
166.488341314
 10
221.8384014509
 20
166.5107552514
 10
221.1095323846
 20
166.4364951175
 10
220.421458743
 20
166.2661436001
 10
219.7795795479
 20
166.0010373752
 10
219.1889313531
 20
165.6432566189
 10
218.6541487244
 20
165.1956086851
 10
218.1794278742
 20
164.6616060772
 10
217.7684937357
 20
164.0454388872
 10
217.4245707347
 20
163.3519419175
 10
217.1503574891
 20
162.5865567447
 10
216.948005634
 20
161.7552890215
 10
216.8191029384
 20
160.8646613532
 10
216.7646608472
 20
159.9216621173
 10
216.7851065443
 20
158.9336906286
 10
216.8802796011
 20
157.9084990804
 10
217.0494332349
 20
156.8541317159
 10
217.291240169
 20
155.7788617084
 10
217.6038030468
 20
154.6911262456
 10
217.9846693201
 20
153.5994603261
 10
218.4308504929
 20
152.5124297894
  0
ARC
  5
1FB
330
1F
100
AcDbEntity
  8
0
  6
Continuous
 62
     7
370
    30
100
AcDbCircle
 10
221.4641272702
 20
153.838469144
 30
0.0
 40
3.310460447940323
100
AcDbArc
 50
203.6132163353
 51
226.5241990092
  0
ARC
  5
1FC
330
1F
100
AcDbEntity
  8
0
  6
Continuous
 62
     7
370
    30
100
AcDbCircle
 10
216.3441513842
 20
148.4363778744
 30
0.0
 40
4.132438515965753
100
AcDbArc
 50
13.4548453344
 51
46.5451548112
  0
ARC
  5
1FD
330
1F
100
AcDbEntity
  8
0
  6
Continuous
 62
     7
370
    30
100
AcDbCircle
 10
223.582640033
 20
150.1694255698
 30
0.0
 40
3.310623632435779
100
AcDbArc
 50
193.4762656298
 51
216.3864871635
  0
LWPOLYLINE
  5
1FE
330
1F
100
AcDbEntity
  8
0
  6
Continuous
 62
     7
370
    30
100
AcDbPolyline
 90
       14
 70
   128
 43
0.0
 10
220.917476345
 20
148.2054674868
 10
221.6667667009
 20
147.237669566
 10
222.4556004972
 20
146.3290989655
 10
223.2772578172
 20
145.4874956162
 10
224.1247391266
 20
144.7200289681
 10
224.9908249024
 20
144.0332369158
 10
225.8681371333
 20
143.432970103
 10
226.7492021724
 20
142.9243420824
 10
227.6265144033
 20
142.511685754
 10
228.4926001791
 20
142.1985164544
 10
229.3400814886
 20
141.9875020101
 10
230.1617388085
 20
141.8804400108
 10
230.9505726048
 20
141.8782424963
 10
231.6998629607
 20
141.9809281866
  0
LWPOLYLINE
  5
1FF
330
1F
100
AcDbEntity
  8
0
  6
Continuous
 62
     7
370
    30
100
AcDbPolyline
 90
       14
 70
   128
 43
0.0
 10
221.7898493371
 20
166.5088616822
 10
221.6575810322
 20
166.2905611947
 10
221.3136580312
 20
165.597064225
 10
221.0394447857
 20
164.8316790522
 10
220.8370929305
 20
164.000411329
 10
220.7081902349
 20
163.1097836608
 10
220.6537481437
 20
162.1667844248
 10
220.6741938408
 20
161.1788129361
 10
220.7693668976
 20
160.153621388
 10
220.9385205314
 20
159.0992540234
 10
221.1803274655
 20
158.0239840159
 10
221.4928903433
 20
156.9362485531
 10
221.8737566166
 20
155.8445826336
 10
222.3199377894
 20
154.7575520969
  0
LINE
  5
200
330
1F
100
AcDbEntity
  8
0
  6
Continuous
 62
     7
370
    30
100
AcDbLine
 10
218.4308504929
 20
152.5124297894
 30
0.0
 11
222.3199377894
 21
154.7575520969
 31
0.0
  0
LWPOLYLINE
  5
201
330
1F
100
AcDbEntity
  8
0
  6
Continuous
 62
     7
370
    30
100
AcDbPolyline
 90
       34
 70
   128
 43
0.0
 10
235.6973099789
 20
146.9087974568
 10
235.1321786743
 20
146.6436134999
 10
234.5190792205
 20
146.4724711007
 10
233.864363071
 20
146.3972765266
 10
233.1743355002
 20
146.4187539424
 10
232.4556418508
 20
146.5366965088
 10
231.7152035354
 20
146.7499683745
 10
230.96015138
 20
147.0565156148
 10
230.1977569494
 20
147.4533860122
 10
229.4353625188
 20
147.9367574879
 10
228.6803103633
 20
148.5019749102
 10
227.939872048
 20
149.1435949265
 10
227.2211783986
 20
149.8554383852
 10
226.5311508278
 20
150.6306498447
 10
225.8764346782
 20
151.4617635949
 10
225.2633352245
 20
152.340775556
 10
224.6977569494
 20
153.2592203622
 10
224.1851466809
 20
154.2082528882
 10
223.7304411361
 20
155.1787334317
 10
223.338019378
 20
156.1613157348
 10
223.0116606426
 20
157.1465369926
 10
222.7545079429
 20
158.1249089859
 10
222.5690378001
 20
159.0870094576
 10
222.457036393
 20
160.0235728541
 10
222.4195823563
 20
160.925579558
 10
222.457036393
 20
161.7843427516
 10
222.5690378001
 20
162.591592076
 10
222.7545079429
 20
163.3395532789
 10
223.0116606426
 20
164.0210230849
 10
223.338019378
 20
164.6294385674
 10
223.7304411361
 20
165.1589403526
 10
224.1851466809
 20
165.6044290489
 10
224.6977569494
 20
165.9616143566
 10
224.6982039199
 20
165.9618724292
  0
LWPOLYLINE
  5
202
330
1F
100
AcDbEntity
  8
0
  6
Continuous
 62
     7
370
    30
100
AcDbPolyline
 90
       13
 70
   128
 43
0.0
 10
224.8065636415
 20
150.4505897943
 10
225.5558539974
 20
149.4827918735
 10
226.3446877938
 20
148.5742212731
 10
227.1663451137
 20
147.7326179237
 10
228.0138264232
 20
146.9651512756
 10
228.8799121989
 20
146.2783592233
 10
229.7572244298
 20
145.6780924105
 10
230.6382894689
 20
145.1694643899
 10
231.5156016999
 20
144.7568080615
 10
232.3816874756
 20
144.443638762
 10
233.2291687851
 20
144.2326243177
 10
234.050826105
 20
144.1255623184
 10
234.3993495129
 20
144.1116874778
  0
ARC
  5
203
330
1F
100
AcDbEntity
  8
0
  6
Continuous
 62
     7
370
    30
100
AcDbCircle
 10
227.4717273293
 20
152.4145478773
 30
0.0
 40
3.310623632278943
100
AcDbArc
 50
193.4762656295
 51
216.3864871643
  0
ARC
  5
204
330
1F
100
AcDbEntity
  8
0
  6
Continuous
 62
     7
370
    30
100
AcDbCircle
 10
220.2332386807
 20
150.681500182
 30
0.0
 40
4.132438515965235
100
AcDbArc
 50
13.4548453344
 51
46.5451548112
  0
ARC
  5
205
330
1F
100
AcDbEntity
  8
0
  6
Continuous
 62
     7
370
    30
100
AcDbCircle
 10
225.3532145668
 20
156.0835914516
 30
0.0
 40
3.310460448115769
100
AcDbArc
 50
203.6132163357
 51
226.5241990083
  0
ARC
  5
206
330
1F
100
AcDbEntity
  8
0
  6
Continuous
 62
     7
370
    30
100
AcDbCircle
 10
238.1328080393
 20
130.5429130535
 30
0.0
 40
7.627915997973783
100
AcDbArc
 50
302.3868559778
 51
357.6131438766
  0
LWPOLYLINE
  5
207
330
1F
100
AcDbEntity
  8
0
  6
Continuous
 62
     7
370
    30
100
AcDbPolyline
 90
       11
 70
   128
 43
0.0
 10
238.6830383236
 20
126.1431968727
 10
238.7265666129
 20
125.5296495938
 10
238.8560796697
 20
124.9814665782
 10
239.0683884529
 20
124.512145911
 10
239.3582652155
 20
124.1332438247
 10
239.7185722295
 20
123.8540901461
 10
240.1404375407
 20
123.6815585653
 10
240.6134734247
 20
123.6198973823
 10
241.1260321684
 20
123.6706249002
 10
241.6654928743
 20
123.8324920391
 10
242.2185722295
 20
124.1015130929
  0
LWPOLYLINE
  5
208
330
1F
100
AcDbEntity
  8
0
  6
Continuous
 62
     7
370
    30
100
AcDbPolyline
 90
       24
 70
   128
 43
0.0
 10
242.2185722295
 20
129.4090283701
 10
241.9324095399
 20
129.1984108433
 10
241.6674702279
 20
128.91257521
 10
241.4434036301
 20
128.5727205916
 10
241.2768277413
 20
128.2040524504
 10
241.1800967329
 20
127.8339132159
 10
241.1603847014
 20
127.4897544218
 10
241.219153598
 20
127.1971007515
 10
241.3520448025
 20
126.9776569888
 10
241.5492023821
 20
126.8476982739
 10
241.7960040612
 20
126.81686305
 10
242.0741456881
 20
126.8874382246
 10
242.362998771
 20
127.0541895599
 10
242.6411403979
 20
127.3047498722
 10
242.887942077
 20
127.6205362494
 10
243.0850996566
 20
127.9781282605
 10
243.2179908611
 20
128.3510049419
 10
243.2767597577
 20
128.7115117359
 10
243.2570477262
 20
129.0329115029
 10
243.1603167178
 20
129.2913674924
 10
242.993740829
 20
129.4677112061
 10
242.7696742312
 20
129.5488640374
 10
242.5047349192
 20
129.5288072521
 10
242.2185722295
 20
129.4090283701
  0
LWPOLYLINE
  5
209
330
1F
100
AcDbEntity
  8
0
  6
Continuous
 62
     7
370
    30
100
AcDbPolyline
 90
       25
 70
   128
 43
0.0
 10
243.3852984185
 20
132.532187498
 10
243.3455431877
 20
132.8579422086
 10
243.2289867484
 20
133.1155968615
 10
243.0435722295
 20
133.2875927178
 10
242.801935324
 20
133.3622085443
 10
242.5205431877
 20
133.3343593957
 10
242.2185722295
 20
133.2059431454
 10
241.9166012714
 20
132.9857111486
 10
241.6352091351
 20
132.6886718521
 10
241.3935722295
 20
132.3350679929
 10
241.2081577107
 20
131.9489970897
 10
241.0916012714
 20
131.5567692366
 10
241.0518460406
 20
131.1851141135
 10
241.0916012714
 20
130.859359403
 10
241.2081577107
 20
130.6017047501
 10
241.3935722295
 20
130.4297088937
 10
241.6352091351
 20
130.3550930672
 10
241.9166012714
 20
130.3829422159
 10
242.2185722295
 20
130.5113584662
 10
242.5205431877
 20
130.7315904629
 10
242.801935324
 20
131.0286297595
 10
243.0435722295
 20
131.3822336187
 10
243.2289867484
 20
131.7683045218
 10
243.3455431877
 20
132.160532375
 10
243.3852984185
 20
132.532187498
  0
LINE
  5
20A
330
1F
100
AcDbEntity
  8
0
  6
Continuous
 62
     7
370
    30
100
AcDbLine
 10
245.7541061355
 20
130.2252374318
 30
0.0
 11
245.7541061355
 21
151.1286822161
 31
0.0
  0
LWPOLYLINE
  5
20B
330
1F
100
AcDbEntity
  8
0
  6
Continuous
 62
     7
370
    30
100
AcDbPolyline
 90
       25
 70
   128
 43
0.0
 10
226.004557344
 20
165.383478608
 10
225.9364884583
 20
165.1764715305
 10
225.7510183154
 20
164.4285103276
 10
225.6390169083
 20
163.6212610032
 10
225.6015628717
 20
162.7624978096
 10
225.6390169083
 20
161.8604911057
 10
225.7510183154
 20
160.9239277092
 10
225.9364884583
 20
159.9618272375
 10
226.1936411579
 20
158.9834552442
 10
226.5199998933
 20
157.9982339864
 10
226.9124216514
 20
157.0156516833
 10
227.3671271962
 20
156.0451711398
 10
227.8797374647
 20
155.0961386138
 10
228.4453157398
 20
154.1776938076
 10
229.0584151936
 20
153.2986818465
 10
229.7131313431
 20
152.4675680963
 10
230.4031589139
 20
151.6923566368
 10
231.1218525633
 20
150.9805131781
 10
231.8622908787
 20
150.3388931618
 10
232.6173430341
 20
149.7736757395
 10
233.3797374647
 20
149.2903042638
 10
234.1421318953
 20
148.8934338664
 10
234.8971840508
 20
148.5868866261
 10
235.6376223661
 20
148.3736147604
 10
235.8497162479
 20
148.3293153237
  0
LINE
  5
20C
330
1F
100
AcDbEntity
  8
0
  6
Continuous
 62
     7
370
    30
100
AcDbLine
 10
224.8065636415
 20
150.4505897943
 30
0.0
 11
220.917476345
 21
148.2054674868
 31
0.0
  0
ARC
  5
20D
330
1F
100
AcDbEntity
  8
0
  6
Continuous
 62
     7
370
    30
100
AcDbCircle
 10
232.282569528
 20
130.9700458777
 30
0.0
 40
2.453903018452741
100
AcDbArc
 50
173.5490657261
 51
235.1387538805
  0
LINE
  5
20E
330
1F
100
AcDbEntity
  8
0
  6
Continuous
 62
     7
370
    30
100
AcDbLine
 10
220.3631693237
 20
149.397909408
 30
0.0
 11
224.2522566202
 21
151.6430317155
 31
0.0
  0
LINE
  5
20F
330
1F
100
AcDbEntity
  8
0
  6
Continuous
 62
     7
370
    30
100
AcDbLine
 10
223.0754583775
 20
153.6813060563
 30
0.0
 11
219.1863710809
 21
151.4361837488
 31
0.0
  0
ARC
  5
210
330
1F
100
AcDbEntity
  8
0
  6
Continuous
 62
     7
370
    30
100
AcDbCircle
 10
216.3726669512
 20
140.1546371356
 30
0.0
 40
2.453903018341585
100
AcDbArc
 50
173.5490657246
 51
235.138753882
  0
LINE
  5
211
330
1F
100
AcDbEntity
  8
0
  6
Continuous
 62
     8
370
    30
100
AcDbLine
 10
233.4309682248
 20
143.212952854
 30
0.0
 11
234.5366140586
 21
143.8512286078
 31
0.0
  0
LINE
  5
212
330
1F
100
AcDbEntity
  8
0
  6
Continuous
 62
     8
370
    30
100
AcDbLine
 10
231.6998629607
 20
141.9809281866
 30
0.0
 11
232.06812215
 21
142.1935196914
 31
0.0
  0
ENDSEC
  0
SECTION
  2
OBJECTS
  0
DICTIONARY
  5
C
330
0
100
AcDbDictionary
281
     1
  3
ACAD_GROUP
350
D
  3
ACAD_LAYOUT
350
1A
  3
ACAD_MLINESTYLE
350
17
  3
ACAD_PLOTSETTINGS
350
19
  3
ACAD_PLOTSTYLENAME
350
E
  3
ACAD_SCALELIST
350
47
  0
DICTIONARY
  5
D
102
{ACAD_REACTORS
330
C
102
}
330
C
100
AcDbDictionary
281
     1
  0
DICTIONARY
  5
1A
102
{ACAD_REACTORS
330
C
102
}
330
C
100
AcDbDictionary
281
     1
  3
Layout1
350
1E
  3
Layout2
350
26
  3
Model
350
22
  0
DICTIONARY
  5
17
102
{ACAD_REACTORS
330
C
102
}
330
C
100
AcDbDictionary
281
     1
  3
Standard
350
18
  0
DICTIONARY
  5
19
102
{ACAD_REACTORS
330
C
102
}
330
C
100
AcDbDictionary
281
     1
  0
ACDBDICTIONARYWDFLT
  5
E
102
{ACAD_REACTORS
330
C
102
}
330
C
100
AcDbDictionary
281
     1
  3
Normal
350
F
100
AcDbDictionaryWithDefault
340
F
  0
DICTIONARY
  5
47
102
{ACAD_REACTORS
330
C
102
}
330
C
100
AcDbDictionary
281
     1
  3
A0
350
48
  3
A1
350
49
  3
A2
350
4A
  3
A3
350
4B
  3
A4
350
4C
  3
A5
350
4D
  3
A6
350
4E
  3
A7
350
4F
  3
A8
350
50
  3
A9
350
51
  3
B0
350
52
  3
B1
350
53
  3
B2
350
54
  3
B3
350
55
  3
B4
350
56
  3
B5
350
57
  3
B6
350
58
  3
B7
350
59
  3
B8
350
5A
  3
B9
350
5B
  3
C0
350
5C
  3
C1
350
5D
  3
C2
350
5E
  3
C3
350
5F
  3
C4
350
60
  3
C5
350
61
  3
C6
350
62
  3
C7
350
63
  3
C8
350
64
  3
C9
350
65
  3
D0
350
66
  3
D1
350
67
  3
D2
350
68
  0
LAYOUT
  5
1E
102
{ACAD_REACTORS
330
1A
102
}
330
1A
100
AcDbPlotSettings
  1

  2
none_device
  4

  6

 40
0.0
 41
0.0
 42
0.0
 43
0.0
 44
0.0
 45
0.0
 46
0.0
 47
0.0
 48
0.0
 49
0.0
140
0.0
141
0.0
142
1.0
143
1.0
 70
   688
 72
     1
 73
     0
 74
     5
  7

 75
    16
147
1.0
148
0.0
149
0.0
100
AcDbLayout
  1
Layout1
 70
     1
 71
     1
 10
0.0
 20
0.0
 11
420.0
 21
297.0
 12
0.0
 22
0.0
 32
0.0
 14
1.0000000000E+20
 24
1.0000000000E+20
 34
1.0000000000E+20
 15
-1.0000000000E+20
 25
-1.0000000000E+20
 35
-1.0000000000E+20
146
0.0
 13
0.0
 23
0.0
 33
0.0
 16
1.0
 26
0.0
 36
0.0
 17
0.0
 27
1.0
 37
0.0
 76
     0
330
1B
  0
LAYOUT
  5
26
102
{ACAD_REACTORS
330
1A
102
}
330
1A
100
AcDbPlotSettings
  1

  2
none_device
  4

  6

 40
0.0
 41
0.0
 42
0.0
 43
0.0
 44
0.0
 45
0.0
 46
0.0
 47
0.0
 48
0.0
 49
0.0
140
0.0
141
0.0
142
1.0
143
1.0
 70
   688
 72
     1
 73
     0
 74
     5
  7

 75
    16
147
1.0
148
0.0
149
0.0
100
AcDbLayout
  1
Layout2
 70
     1
 71
     2
 10
0.0
 20
0.0
 11
0.0
 21
0.0
 12
0.0
 22
0.0
 32
0.0
 14
0.0
 24
0.0
 34
0.0
 15
0.0
 25
0.0
 35
0.0
146
0.0
 13
0.0
 23
0.0
 33
0.0
 16
1.0
 26
0.0
 36
0.0
 17
0.0
 27
1.0
 37
0.0
 76
     0
330
23
  0
LAYOUT
  5
22
102
{ACAD_REACTORS
330
1A
102
}
330
1A
100
AcDbPlotSettings
  1

  2
none_device
  4
Letter_(8.50_x_11.00_Inches)
  6

 40
6.35
 41
6.35
 42
6.35000508
 43
6.35000508
 44
215.9
 45
279.4
 46
0.0
 47
0.0
 48
0.0
 49
0.0
140
0.0
141
0.0
142
1.0
143
1.0
 70
  1712
 72
     1
 73
     0
 74
     0
  7

 75
     0
147
1.0
148
0.0
149
0.0
100
AcDbLayout
  1
Model
 70
     1
 71
     0
 10
0.0
 20
0.0
 11
297.0
 21
210.0
 12
0.0
 22
0.0
 32
0.0
 14
0.0
 24
0.0
 34
0.0
 15
297.0
 25
210.0
 35
0.0
146
0.0
 13
0.0
 23
0.0
 33
0.0
 16
1.0
 26
0.0
 36
0.0
 17
0.0
 27
1.0
 37
0.0
 76
     0
330
1F
331
29
  0
MLINESTYLE
  5
18
102
{ACAD_REACTORS
330
17
102
}
330
17
100
AcDbMlineStyle
  2
Standard
 70
     0
  3

 62
   256
 51
90.0
 52
90.0
 71
     2
 49
0.5
 62
   256
  6
BYLAYER
 49
-0.5
 62
   256
  6
BYLAYER
  0
ACDBPLACEHOLDER
  5
F
102
{ACAD_REACTORS
330
E
102
}
330
E
  0
SCALE
  5
48
102
{ACAD_REACTORS
330
47
102
}
330
47
100
AcDbScale
 70
     0
300
1:1
140
1.0
141
1.0
290
     1
  0
SCALE
  5
49
102
{ACAD_REACTORS
330
47
102
}
330
47
100
AcDbScale
 70
     0
300
1:2
140
1.0
141
2.0
290
     0
  0
SCALE
  5
4A
102
{ACAD_REACTORS
330
47
102
}
330
47
100
AcDbScale
 70
     0
300
1:4
140
1.0
141
4.0
290
     0
  0
SCALE
  5
4B
102
{ACAD_REACTORS
330
47
102
}
330
47
100
AcDbScale
 70
     0
300
1:5
140
1.0
141
5.0
290
     0
  0
SCALE
  5
4C
102
{ACAD_REACTORS
330
47
102
}
330
47
100
AcDbScale
 70
     0
300
1:8
140
1.0
141
8.0
290
     0
  0
SCALE
  5
4D
102
{ACAD_REACTORS
330
47
102
}
330
47
100
AcDbScale
 70
     0
300
1:10
140
1.0
141
10.0
290
     0
  0
SCALE
  5
4E
102
{ACAD_REACTORS
330
47
102
}
330
47
100
AcDbScale
 70
     0
300
1:16
140
1.0
141
16.0
290
     0
  0
SCALE
  5
4F
102
{ACAD_REACTORS
330
47
102
}
330
47
100
AcDbScale
 70
     0
300
1:20
140
1.0
141
20.0
290
     0
  0
SCALE
  5
50
102
{ACAD_REACTORS
330
47
102
}
330
47
100
AcDbScale
 70
     0
300
1:30
140
1.0
141
30.0
290
     0
  0
SCALE
  5
51
102
{ACAD_REACTORS
330
47
102
}
330
47
100
AcDbScale
 70
     0
300
1:40
140
1.0
141
40.0
290
     0
  0
SCALE
  5
52
102
{ACAD_REACTORS
330
47
102
}
330
47
100
AcDbScale
 70
     0
300
1:50
140
1.0
141
50.0
290
     0
  0
SCALE
  5
53
102
{ACAD_REACTORS
330
47
102
}
330
47
100
AcDbScale
 70
     0
300
1:100
140
1.0
141
100.0
290
     0
  0
SCALE
  5
54
102
{ACAD_REACTORS
330
47
102
}
330
47
100
AcDbScale
 70
     0
300
2:1
140
2.0
141
1.0
290
     0
  0
SCALE
  5
55
102
{ACAD_REACTORS
330
47
102
}
330
47
100
AcDbScale
 70
     0
300
4:1
140
4.0
141
1.0
290
     0
  0
SCALE
  5
56
102
{ACAD_REACTORS
330
47
102
}
330
47
100
AcDbScale
 70
     0
300
8:1
140
8.0
141
1.0
290
     0
  0
SCALE
  5
57
102
{ACAD_REACTORS
330
47
102
}
330
47
100
AcDbScale
 70
     0
300
10:1
140
10.0
141
1.0
290
     0
  0
SCALE
  5
58
102
{ACAD_REACTORS
330
47
102
}
330
47
100
AcDbScale
 70
     0
300
100:1
140
100.0
141
1.0
290
     0
  0
SCALE
  5
59
102
{ACAD_REACTORS
330
47
102
}
330
47
100
AcDbScale
 70
     0
300
1/128" = 1'-0"
140
0.0078125
141
12.0
290
     0
  0
SCALE
  5
5A
102
{ACAD_REACTORS
330
47
102
}
330
47
100
AcDbScale
 70
     0
300
1/64" = 1'-0"
140
0.015625
141
12.0
290
     0
  0
SCALE
  5
5B
102
{ACAD_REACTORS
330
47
102
}
330
47
100
AcDbScale
 70
     0
300
1/32" = 1'-0"
140
0.03125
141
12.0
290
     0
  0
SCALE
  5
5C
102
{ACAD_REACTORS
330
47
102
}
330
47
100
AcDbScale
 70
     0
300
1/16" = 1'-0"
140
0.0625
141
12.0
290
     0
  0
SCALE
  5
5D
102
{ACAD_REACTORS
330
47
102
}
330
47
100
AcDbScale
 70
     0
300
3/32" = 1'-0"
140
0.09375
141
12.0
290
     0
  0
SCALE
  5
5E
102
{ACAD_REACTORS
330
47
102
}
330
47
100
AcDbScale
 70
     0
300
1/8" = 1'-0"
140
0.125
141
12.0
290
     0
  0
SCALE
  5
5F
102
{ACAD_REACTORS
330
47
102
}
330
47
100
AcDbScale
 70
     0
300
3/16" = 1'-0"
140
0.1875
141
12.0
290
     0
  0
SCALE
  5
60
102
{ACAD_REACTORS
330
47
102
}
330
47
100
AcDbScale
 70
     0
300
1/4" = 1'-0"
140
0.25
141
12.0
290
     0
  0
SCALE
  5
61
102
{ACAD_REACTORS
330
47
102
}
330
47
100
AcDbScale
 70
     0
300
3/8" = 1'-0"
140
0.375
141
12.0
290
     0
  0
SCALE
  5
62
102
{ACAD_REACTORS
330
47
102
}
330
47
100
AcDbScale
 70
     0
300
1/2" = 1'-0"
140
0.5
141
12.0
290
     0
  0
SCALE
  5
63
102
{ACAD_REACTORS
330
47
102
}
330
47
100
AcDbScale
 70
     0
300
3/4" = 1'-0"
140
0.75
141
12.0
290
     0
  0
SCALE
  5
64
102
{ACAD_REACTORS
330
47
102
}
330
47
100
AcDbScale
 70
     0
300
1" = 1'-0"
140
1.0
141
12.0
290
     0
  0
SCALE
  5
65
102
{ACAD_REACTORS
330
47
102
}
330
47
100
AcDbScale
 70
     0
300
1-1/2" = 1'-0"
140
1.5
141
12.0
290
     0
  0
SCALE
  5
66
102
{ACAD_REACTORS
330
47
102
}
330
47
100
AcDbScale
 70
     0
300
3" = 1'-0"
140
3.0
141
12.0
290
     0
  0
SCALE
  5
67
102
{ACAD_REACTORS
330
47
102
}
330
47
100
AcDbScale
 70
     0
300
6" = 1'-0"
140
6.0
141
12.0
290
     0
  0
SCALE
  5
68
102
{ACAD_REACTORS
330
47
102
}
330
47
100
AcDbScale
 70
     0
300
1'-0" = 1'-0"
140
12.0
141
12.0
290
     0
  0
ENDSEC
  0
EOF
