  0
SECTION
  2
HEADER
  9
$ACADVER
  1
AC1015
  9
$ACADMAINTVER
 70
     6
  9
$DWGCODEPAGE
  3
ANSI_950
  9
$INSBASE
 10
0.0
 20
0.0
 30
0.0
  9
$EXTMIN
 10
0.0
 20
0.0
 30
0.0
  9
$EXTMAX
 10
297.0
 20
210.0
 30
0.0
  9
$LIMMIN
 10
0.0
 20
0.0
  9
$LIMMAX
 10
297.0
 20
210.0
  9
$ORTHOMODE
 70
     0
  9
$REGENMODE
 70
     1
  9
$FILLMODE
 70
     1
  9
$QTEXTMODE
 70
     0
  9
$MIRRTEXT
 70
     1
  9
$LTSCALE
 40
1.0
  9
$ATTMODE
 70
     1
  9
$TEXTSIZE
 40
3.175
  9
$TRACEWID
 40
1.0
  9
$TEXTSTYLE
  7
Standard
  9
$CLAYER
  8
0
  9
$CELTYPE
  6
ByLayer
  9
$CECOLOR
 62
   256
  9
$CELTSCALE
 40
1.0
  9
$DISPSILH
 70
     0
  9
$DIMSCALE
 40
1.0
  9
$DIMASZ
 40
2.0
  9
$DIMEXO
 40
1.0
  9
$DIMDLI
 40
3.75
  9
$DIMRND
 40
0.0
  9
$DIMDLE
 40
0.0
  9
$DIMEXE
 40
1.0
  9
$DIMTP
 40
0.0
  9
$DIMTM
 40
0.0
  9
$DIMTXT
 40
3.175
  9
$DIMCEN
 40
2.5
  9
$DIMTSZ
 40
0.0
  9
$DIMTOL
 70
     0
  9
$DIMLIM
 70
     0
  9
$DIMTIH
 70
     1
  9
$DIMTOH
 70
     1
  9
$DIMSE1
 70
     0
  9
$DIMSE2
 70
     0
  9
$DIMTAD
 70
     1
  9
$DIMZIN
 70
     0
  9
$DIMBLK
  1

  9
$DIMASO
 70
     1
  9
$DIMSHO
 70
     1
  9
$DIMPOST
  1

  9
$DIMAPOST
  1

  9
$DIMALT
 70
     0
  9
$DIMALTD
 70
     3
  9
$DIMALTF
 40
0.0393700787
  9
$DIMLFAC
 40
1.0
  9
$DIMTOFL
 70
     1
  9
$DIMTVP
 40
0.0
  9
$DIMTIX
 70
     0
  9
$DIMSOXD
 70
     0
  9
$DIMSAH
 70
     0
  9
$DIMBLK1
  1

  9
$DIMBLK2
  1

  9
$DIMSTYLE
  2
ISO-25
  9
$DIMCLRD
 70
     0
  9
$DIMCLRE
 70
     0
  9
$DIMCLRT
 70
     0
  9
$DIMTFAC
 40
1.0
  9
$DIMGAP
 40
1.0
  9
$DIMJUST
 70
     0
  9
$DIMSD1
 70
     0
  9
$DIMSD2
 70
     0
  9
$DIMTOLJ
 70
     0
  9
$DIMTZIN
 70
     0
  9
$DIMALTZ
 70
     0
  9
$DIMALTTZ
 70
     0
  9
$DIMUPT
 70
     0
  9
$DIMDEC
 70
     2
  9
$DIMTDEC
 70
     2
  9
$DIMALTU
 70
     2
  9
$DIMALTTD
 70
     3
  9
$DIMTXSTY
  7
Standard
  9
$DIMAUNIT
 70
     0
  9
$DIMADEC
 70
     2
  9
$DIMALTRND
 40
0.0
  9
$DIMAZIN
 70
     0
  9
$DIMDSEP
 70
    44
  9
$DIMATFIT
 70
     3
  9
$DIMFRAC
 70
     0
  9
$DIMLDRBLK
  1

  9
$DIMLUNIT
 70
     2
  9
$DIMLWD
 70
    -2
  9
$DIMLWE
 70
    -2
  9
$DIMTMOVE
 70
     0
  9
$LUNITS
 70
     2
  9
$LUPREC
 70
     2
  9
$SKETCHINC
 40
1.0
  9
$FILLETRAD
 40
10.0
  9
$AUNITS
 70
     0
  9
$AUPREC
 70
     2
  9
$MENU
  1
.
  9
$ELEVATION
 40
0.0
  9
$PELEVATION
 40
0.0
  9
$THICKNESS
 40
0.0
  9
$LIMCHECK
 70
     0
  9
$CHAMFERA
 40
0.0
  9
$CHAMFERB
 40
0.0
  9
$CHAMFERC
 40
0.0
  9
$CHAMFERD
 40
0.0
  9
$SKPOLY
 70
     0
  9
$TDCREATE
 40
2459804.644957708
  9
$TDUCREATE
 40
2459804.311624375
  9
$TDUPDATE
 40
2459804.644960382
  9
$TDUUPDATE
 40
2459804.311627049
  9
$TDINDWG
 40
0.0000000116
  9
$TDUSRTIMER
 40
0.0000000116
  9
$USRTIMER
 70
     1
  9
$ANGBASE
 50
0.0
  9
$ANGDIR
 70
     0
  9
$PDMODE
 70
     0
  9
$PDSIZE
 40
-1.0
  9
$PLINEWID
 40
0.0
  9
$SPLFRAME
 70
     0
  9
$SPLINETYPE
 70
     6
  9
$SPLINESEGS
 70
     8
  9
$HANDSEED
  5
1F7
  9
$SURFTAB1
 70
     6
  9
$SURFTAB2
 70
     6
  9
$SURFTYPE
 70
     6
  9
$SURFU
 70
     6
  9
$SURFV
 70
     6
  9
$UCSBASE
  2

  9
$UCSNAME
  2

  9
$UCSORG
 10
0.0
 20
0.0
 30
0.0
  9
$UCSXDIR
 10
1.0
 20
0.0
 30
0.0
  9
$UCSYDIR
 10
0.0
 20
1.0
 30
0.0
  9
$UCSORTHOREF
  2

  9
$UCSORTHOVIEW
 70
     0
  9
$UCSORGTOP
 10
0.0
 20
0.0
 30
0.0
  9
$UCSORGBOTTOM
 10
0.0
 20
0.0
 30
0.0
  9
$UCSORGLEFT
 10
0.0
 20
0.0
 30
0.0
  9
$UCSORGRIGHT
 10
0.0
 20
0.0
 30
0.0
  9
$UCSORGFRONT
 10
0.0
 20
0.0
 30
0.0
  9
$UCSORGBACK
 10
0.0
 20
0.0
 30
0.0
  9
$PUCSBASE
  2

  9
$PUCSNAME
  2

  9
$PUCSORG
 10
0.0
 20
0.0
 30
0.0
  9
$PUCSXDIR
 10
1.0
 20
0.0
 30
0.0
  9
$PUCSYDIR
 10
0.0
 20
1.0
 30
0.0
  9
$PUCSORTHOREF
  2

  9
$PUCSORTHOVIEW
 70
     0
  9
$PUCSORGTOP
 10
0.0
 20
0.0
 30
0.0
  9
$PUCSORGBOTTOM
 10
0.0
 20
0.0
 30
0.0
  9
$PUCSORGLEFT
 10
0.0
 20
0.0
 30
0.0
  9
$PUCSORGRIGHT
 10
0.0
 20
0.0
 30
0.0
  9
$PUCSORGFRONT
 10
0.0
 20
0.0
 30
0.0
  9
$PUCSORGBACK
 10
0.0
 20
0.0
 30
0.0
  9
$USERI1
 70
     0
  9
$USERI2
 70
     0
  9
$USERI3
 70
     0
  9
$USERI4
 70
     0
  9
$USERI5
 70
     0
  9
$USERR1
 40
0.0
  9
$USERR2
 40
0.0
  9
$USERR3
 40
0.0
  9
$USERR4
 40
0.0
  9
$USERR5
 40
0.0
  9
$WORLDVIEW
 70
     1
  9
$SHADEDGE
 70
     3
  9
$SHADEDIF
 70
    70
  9
$TILEMODE
 70
     1
  9
$MAXACTVP
 70
    64
  9
$PINSBASE
 10
0.0
 20
0.0
 30
0.0
  9
$PLIMCHECK
 70
     0
  9
$PEXTMIN
 10
1.0000000000E+20
 20
1.0000000000E+20
 30
1.0000000000E+20
  9
$PEXTMAX
 10
-1.0000000000E+20
 20
-1.0000000000E+20
 30
-1.0000000000E+20
  9
$PLIMMIN
 10
0.0
 20
0.0
  9
$PLIMMAX
 10
420.0
 20
297.0
  9
$UNITMODE
 70
     0
  9
$VISRETAIN
 70
     1
  9
$PLINEGEN
 70
     0
  9
$PSLTSCALE
 70
     1
  9
$TREEDEPTH
 70
  3020
  9
$CMLSTYLE
  2
Standard
  9
$CMLJUST
 70
     0
  9
$CMLSCALE
 40
20.0
  9
$PROXYGRAPHICS
 70
     1
  9
$MEASUREMENT
 70
     1
  9
$CELWEIGHT
370
    -1
  9
$ENDCAPS
280
     0
  9
$JOINSTYLE
280
     0
  9
$LWDISPLAY
290
     1
  9
$INSUNITS
 70
     4
  9
$HYPERLINKBASE
  1

  9
$STYLESHEET
  1

  9
$XEDIT
290
     1
  9
$CEPSNTYPE
380
     0
  9
$PSTYLEMODE
290
     1
  9
$FINGERPRINTGUID
  2
{e6c7ca32-6bc9-47cc-a993-5faa03110a35}
  9
$VERSIONGUID
  2
{FAEB1C32-E019-11D5-929B-00C0DF256EC4}
  9
$EXTNAMES
290
     1
  9
$PSVPSCALE
 40
0.0
  9
$OLESTARTUP
290
     0
  0
ENDSEC
  0
SECTION
  2
CLASSES
  0
CLASS
  1
ACDBDICTIONARYWDFLT
  2
AcDbDictionaryWithDefault
  3
ObjectDBX Classes
 90
        0
280
     0
281
     0
  0
CLASS
  1
VISUALSTYLE
  2
AcDbVisualStyle
  3
ObjectDBX Classes
 90
     4095
280
     0
281
     0
  0
CLASS
  1
MATERIAL
  2
AcDbMaterial
  3
ObjectDBX Classes
 90
     1153
280
     0
281
     0
  0
CLASS
  1
SCALE
  2
AcDbScale
  3
ObjectDBX Classes
 90
     1153
280
     0
281
     0
  0
CLASS
  1
TABLESTYLE
  2
AcDbTableStyle
  3
ObjectDBX Classes
 90
     4095
280
     0
281
     0
  0
CLASS
  1
MLEADERSTYLE
  2
AcDbMLeaderStyle
  3
ACDB_MLEADERSTYLE_CLASS
 90
     4095
280
     0
281
     0
  0
CLASS
  1
SUN
  2
AcDbSun
  3
SCENEOE
 90
     1153
280
     0
281
     0
  0
CLASS
  1
ACDBPLACEHOLDER
  2
AcDbPlaceHolder
  3
ObjectDBX Classes
 90
        0
280
     0
281
     0
  0
CLASS
  1
LAYOUT
  2
AcDbLayout
  3
ObjectDBX Classes
 90
        0
280
     0
281
     0
  0
ENDSEC
  0
SECTION
  2
TABLES
  0
TABLE
  2
VPORT
  5
8
330
0
100
AcDbSymbolTable
 70
     1
  0
VPORT
  5
29
330
8
100
AcDbSymbolTableRecord
100
AcDbViewportTableRecord
  2
*Active
 70
     0
 10
0.0
 20
0.0
 11
1.0
 21
1.0
 12
148.5
 22
105.0
 13
0.0
 23
0.0
 14
10.0
 24
10.0
 15
10.0
 25
10.0
 16
0.0
 26
0.0
 36
1.0
 17
0.0
 27
0.0
 37
0.0
 40
210.0
 41
1.4142857143
 42
50.0
 43
0.0
 44
0.0
 50
0.0
 51
0.0
 71
     0
 72
  2000
 73
     1
 74
     3
 75
     0
 76
     0
 77
     0
 78
     0
281
     0
 65
     1
110
0.0
120
0.0
130
0.0
111
1.0
121
0.0
131
0.0
112
0.0
122
1.0
132
0.0
 79
     0
146
0.0
  0
ENDTAB
  0
TABLE
  2
LTYPE
  5
5
330
0
100
AcDbSymbolTable
 70
     6
  0
LTYPE
  5
14
330
5
100
AcDbSymbolTableRecord
100
AcDbLinetypeTableRecord
  2
ByBlock
 70
     0
  3

 72
    65
 73
     0
 40
0.0
  0
LTYPE
  5
15
330
5
100
AcDbSymbolTableRecord
100
AcDbLinetypeTableRecord
  2
ByLayer
 70
     0
  3

 72
    65
 73
     0
 40
0.0
  0
LTYPE
  5
16
330
5
100
AcDbSymbolTableRecord
100
AcDbLinetypeTableRecord
  2
Continuous
 70
     0
  3
Solid line
 72
    65
 73
     0
 40
0.0
  0
LTYPE
  5
6E
330
5
100
AcDbSymbolTableRecord
100
AcDbLinetypeTableRecord
  2
HIDDEN
 70
     0
  3
Hidden __ __ __ __ __ __ __ __ __ __ __ __ __ __
 72
    65
 73
     2
 40
1.905
 49
1.27
 74
     0
 49
-0.635
 74
     0
  0
LTYPE
  5
6F
330
5
100
AcDbSymbolTableRecord
100
AcDbLinetypeTableRecord
  2
PHANTOM
 70
     0
  3
Phantom ______  __  __  ______  __  __  ______
 72
    65
 73
     6
 40
12.7
 49
6.35
 74
     0
 49
-1.27
 74
     0
 49
1.27
 74
     0
 49
-1.27
 74
     0
 49
1.27
 74
     0
 49
-1.27
 74
     0
  0
LTYPE
  5
70
330
5
100
AcDbSymbolTableRecord
100
AcDbLinetypeTableRecord
  2
CENTER
 70
     0
  3
Center ____ _ ____ _ ____ _ ____ _ ____ _ ____
 72
    65
 73
     4
 40
10.16
 49
6.35
 74
     0
 49
-1.27
 74
     0
 49
1.27
 74
     0
 49
-1.27
 74
     0
  0
LTYPE
  5
71
330
5
100
AcDbSymbolTableRecord
100
AcDbLinetypeTableRecord
  2
CENTERX2
 70
     0
  3
Center (2x) ________  __  ________  __  _____
 72
    65
 73
     4
 40
20.32
 49
12.7
 74
     0
 49
-2.54
 74
     0
 49
2.54
 74
     0
 49
-2.54
 74
     0
  0
LTYPE
  5
72
330
5
100
AcDbSymbolTableRecord
100
AcDbLinetypeTableRecord
  2
DOT2
 70
     0
  3
Dot (.5x) ........................................
 72
    65
 73
     2
 40
0.635
 49
0.0
 74
     0
 49
-0.635
 74
     0
  0
ENDTAB
  0
TABLE
  2
LAYER
  5
2
330
0
100
AcDbSymbolTable
 70
    10
  0
LAYER
  5
10
330
2
100
AcDbSymbolTableRecord
100
AcDbLayerTableRecord
  2
0
 70
     0
 62
     7
  6
Continuous
370
    -3
390
F
  0
LAYER
  5
73
330
2
100
AcDbSymbolTableRecord
100
AcDbLayerTableRecord
  2
SLD-0
 70
     0
 62
     7
  6
Continuous
370
    25
390
F
  0
LAYER
  5
74
330
2
100
AcDbSymbolTableRecord
100
AcDbLayerTableRecord
  2
輪廓線
 70
     0
 62
   219
  6
Continuous
370
    25
390
F
  0
LAYER
  5
75
330
2
100
AcDbSymbolTableRecord
100
AcDbLayerTableRecord
  2
DIM
 70
     0
 62
     7
  6
Continuous
370
    -3
390
F
  0
LAYER
  5
76
330
2
100
AcDbSymbolTableRecord
100
AcDbLayerTableRecord
  2
中心線
 70
     0
 62
     7
  6
CENTERX2
370
    -3
390
F
  0
LAYER
  5
77
330
2
100
AcDbSymbolTableRecord
100
AcDbLayerTableRecord
  2
虛線
 70
     0
 62
     7
  6
HIDDEN
370
    -3
390
F
  0
LAYER
  5
78
330
2
100
AcDbSymbolTableRecord
100
AcDbLayerTableRecord
  2
SECTION
 70
     0
 62
     7
  6
PHANTOM
370
    25
390
F
  0
LAYER
  5
79
330
2
100
AcDbSymbolTableRecord
100
AcDbLayerTableRecord
  2
假想線
 70
     0
 62
     7
  6
PHANTOM
370
    -3
390
F
  0
LAYER
  5
7A
330
2
100
AcDbSymbolTableRecord
100
AcDbLayerTableRecord
  2
圖層_1
 70
     0
 62
   179
  6
Continuous
370
    -3
390
F
  0
LAYER
  5
7B
330
2
100
AcDbSymbolTableRecord
100
AcDbLayerTableRecord
  2
工作區域參考線
 70
     0
 62
   179
  6
Continuous
370
    -3
390
F
  0
ENDTAB
  0
TABLE
  2
STYLE
  5
3
330
0
100
AcDbSymbolTable
 70
     3
  0
STYLE
  5
11
330
3
100
AcDbSymbolTableRecord
100
AcDbTextStyleTableRecord
  2
Standard
 70
     0
 40
0.0
 41
1.0
 50
0.0
 71
     0
 42
3.175
  3
txt
  4

  0
STYLE
  5
CC
330
3
100
AcDbSymbolTableRecord
100
AcDbTextStyleTableRecord
  2
SLDTEXTSTYLE0
 70
     0
 40
0.0
 41
0.605
 50
0.0
 71
     0
 42
3.175
  3
TXT
  4

  0
STYLE
  5
103
330
3
100
AcDbSymbolTableRecord
100
AcDbTextStyleTableRecord
  2
SLDTEXTSTYLE1
 70
     0
 40
0.0
 41
0.7
 50
0.0
 71
     0
 42
3.175
  3
TXT
  4

  0
ENDTAB
  0
TABLE
  2
VIEW
  5
6
330
0
100
AcDbSymbolTable
 70
     0
  0
ENDTAB
  0
TABLE
  2
UCS
  5
7
330
0
100
AcDbSymbolTable
 70
     0
  0
ENDTAB
  0
TABLE
  2
APPID
  5
9
330
0
100
AcDbSymbolTable
 70
     1
  0
APPID
  5
12
330
9
100
AcDbSymbolTableRecord
100
AcDbRegAppTableRecord
  2
ACAD
 70
     0
  0
ENDTAB
  0
TABLE
  2
DIMSTYLE
  5
A
330
0
100
AcDbSymbolTable
 70
     7
100
AcDbDimStyleTable
  0
DIMSTYLE
105
27
330
A
100
AcDbSymbolTableRecord
100
AcDbDimStyleTableRecord
  2
ISO-25
 70
     0
 41
2.5
 42
0.625
 43
3.75
 44
1.25
 73
     0
 74
     0
 77
     1
 78
     8
140
2.5
141
2.5
143
0.0393700787
147
0.625
171
     3
172
     1
178
     0
271
     2
272
     2
274
     3
278
    44
283
     0
284
     8
340
11
  0
DIMSTYLE
105
148
102
{ACAD_REACTORS
330
147
102
}
330
A
100
AcDbSymbolTableRecord
100
AcDbDimStyleTableRecord
  2
SLDDIMSTYLE0
 70
     0
 41
2.0
 44
0.0
 45
0.000000001
 78
     8
 79
     2
140
2.5424804688
147
0.6356201172
173
     1
178
     0
271
     0
272
     0
276
     2
284
    12
340
103
341
149
343
149
344
149
  0
DIMSTYLE
105
154
102
{ACAD_REACTORS
330
153
102
}
330
A
100
AcDbSymbolTableRecord
100
AcDbDimStyleTableRecord
  2
SLDDIMSTYLE1
 70
     0
 41
2.0
 44
0.0
 45
0.000000001
 78
     8
 79
     2
140
2.5424804688
147
0.6356201172
173
     1
178
     0
271
     2
272
     2
276
     2
284
    12
340
103
341
149
343
149
344
149
  0
DIMSTYLE
105
15D
102
{ACAD_REACTORS
330
15C
330
165
330
16B
102
}
330
A
100
AcDbSymbolTableRecord
100
AcDbDimStyleTableRecord
  2
SLDDIMSTYLE2
 70
     0
 41
2.0
 44
0.0
 45
0.000000001
 78
    12
 79
     3
140
2.5424804688
147
0.6356201172
173
     1
178
     0
271
     2
272
     2
276
     2
284
    12
340
103
341
149
343
149
344
149
  0
DIMSTYLE
105
172
102
{ACAD_REACTORS
330
171
330
17D
330
188
102
}
330
A
100
AcDbSymbolTableRecord
100
AcDbDimStyleTableRecord
  2
SLDDIMSTYLE3
 70
     0
 41
2.0
 44
0.0
 45
0.000000001
 73
     0
 74
     0
 77
     1
 78
    12
 79
     3
140
2.5424804688
147
0.6356201172
173
     1
178
     0
271
     2
272
     2
276
     2
284
    12
340
103
  0
DIMSTYLE
105
194
102
{ACAD_REACTORS
330
193
102
}
330
A
100
AcDbSymbolTableRecord
100
AcDbDimStyleTableRecord
  2
SLDDIMSTYLE4
 70
     0
 41
2.0
 44
0.0
 45
0.000000001
 78
    12
 79
     3
140
2.5424804688
141
0.0
147
0.6356201172
173
     1
178
     0
271
     2
272
     2
276
     2
284
    12
340
103
  0
DIMSTYLE
105
1A4
330
A
100
AcDbSymbolTableRecord
100
AcDbDimStyleTableRecord
  2
SLDDIMSTYLE5
 70
     0
 41
2.0
 44
0.0
 45
0.000000001
146
2.0
147
0.0
173
     1
178
     0
271
     0
272
     0
276
     2
340
11
  0
ENDTAB
  0
TABLE
  2
BLOCK_RECORD
  5
1
330
0
100
AcDbSymbolTable
 70
    19
  0
BLOCK_RECORD
  5
1F
330
1
100
AcDbSymbolTableRecord
100
AcDbBlockTableRecord
  2
*Model_Space
340
22
  0
BLOCK_RECORD
  5
1B
330
1
100
AcDbSymbolTableRecord
100
AcDbBlockTableRecord
  2
*Paper_Space
340
1E
  0
BLOCK_RECORD
  5
23
330
1
100
AcDbSymbolTableRecord
100
AcDbBlockTableRecord
  2
*Paper_Space0
340
26
  0
BLOCK_RECORD
  5
7C
330
1
100
AcDbSymbolTableRecord
100
AcDbBlockTableRecord
  2
圖塊6
340
0
102
{BLKREFS
331
CB
102
}
  0
BLOCK_RECORD
  5
CE
330
1
100
AcDbSymbolTableRecord
100
AcDbBlockTableRecord
  2
SW_NOTE_0
340
0
102
{BLKREFS
331
D4
102
}
  0
BLOCK_RECORD
  5
105
330
1
100
AcDbSymbolTableRecord
100
AcDbBlockTableRecord
  2
SW_NOTE_0_1
340
0
102
{BLKREFS
331
10A
102
}
  0
BLOCK_RECORD
  5
10B
330
1
100
AcDbSymbolTableRecord
100
AcDbBlockTableRecord
  2
SW_TABLEANNOTATION_0
340
0
102
{BLKREFS
331
11C
102
}
  0
BLOCK_RECORD
  5
149
330
1
100
AcDbSymbolTableRecord
100
AcDbBlockTableRecord
  2
_None
340
0
  0
BLOCK_RECORD
  5
14C
330
1
100
AcDbSymbolTableRecord
100
AcDbBlockTableRecord
  2
_D
340
0
  0
BLOCK_RECORD
  5
155
330
1
100
AcDbSymbolTableRecord
100
AcDbBlockTableRecord
  2
_D_1
340
0
  0
BLOCK_RECORD
  5
15E
330
1
100
AcDbSymbolTableRecord
100
AcDbBlockTableRecord
  2
_D_2
340
0
  0
BLOCK_RECORD
  5
166
330
1
100
AcDbSymbolTableRecord
100
AcDbBlockTableRecord
  2
_D_3
340
0
  0
BLOCK_RECORD
  5
16C
330
1
100
AcDbSymbolTableRecord
100
AcDbBlockTableRecord
  2
_D_4
340
0
  0
BLOCK_RECORD
  5
173
330
1
100
AcDbSymbolTableRecord
100
AcDbBlockTableRecord
  2
_D_5
340
0
  0
BLOCK_RECORD
  5
17E
330
1
100
AcDbSymbolTableRecord
100
AcDbBlockTableRecord
  2
_D_6
340
0
  0
BLOCK_RECORD
  5
189
330
1
100
AcDbSymbolTableRecord
100
AcDbBlockTableRecord
  2
_D_7
340
0
  0
BLOCK_RECORD
  5
195
330
1
100
AcDbSymbolTableRecord
100
AcDbBlockTableRecord
  2
_D_8
340
0
  0
BLOCK_RECORD
  5
19E
330
1
100
AcDbSymbolTableRecord
100
AcDbBlockTableRecord
  2
SW_NOTE_0_2
340
0
102
{BLKREFS
331
1A3
102
}
  0
BLOCK_RECORD
  5
1A6
330
1
100
AcDbSymbolTableRecord
100
AcDbBlockTableRecord
  2
SW_NOTE_0_3
340
0
102
{BLKREFS
331
1AB
102
}
  0
BLOCK_RECORD
  5
1AD
330
1
100
AcDbSymbolTableRecord
100
AcDbBlockTableRecord
  2
SW_CENTERMARKSYMBOL_0
340
0
102
{BLKREFS
331
1B8
102
}
  0
BLOCK_RECORD
  5
1D3
330
1
100
AcDbSymbolTableRecord
100
AcDbBlockTableRecord
  2
SW_CENTERMARKSYMBOL_1
340
0
102
{BLKREFS
331
1DE
102
}
  0
ENDTAB
  0
ENDSEC
  0
SECTION
  2
BLOCKS
  0
BLOCK
  5
20
330
1F
100
AcDbEntity
  8
0
100
AcDbBlockBegin
  2
*Model_Space
 70
     0
 10
0.0
 20
0.0
 30
0.0
  3
*Model_Space
  1

  0
ENDBLK
  5
21
330
1F
100
AcDbEntity
  8
0
100
AcDbBlockEnd
  0
BLOCK
  5
1C
330
1B
100
AcDbEntity
 67
     1
  8
0
100
AcDbBlockBegin
  2
*Paper_Space
 70
     0
 10
0.0
 20
0.0
 30
0.0
  3
*Paper_Space
  1

  0
ENDBLK
  5
1D
330
1B
100
AcDbEntity
 67
     1
  8
0
100
AcDbBlockEnd
  0
BLOCK
  5
24
330
23
100
AcDbEntity
  8
0
100
AcDbBlockBegin
  2
*Paper_Space0
 70
     0
 10
0.0
 20
0.0
 30
0.0
  3
*Paper_Space0
  1

  0
ENDBLK
  5
25
330
23
100
AcDbEntity
  8
0
100
AcDbBlockEnd
  0
BLOCK
  5
7D
330
7C
100
AcDbEntity
  8
0
100
AcDbBlockBegin
  2
圖塊6
 70
     0
 10
0.0
 20
0.0
 30
0.0
  3
圖塊6
  1

  0
ARC
  5
7F
330
7C
100
AcDbEntity
  8
圖層_1
 62
     7
370
    35
100
AcDbCircle
 10
1.5301544339
 20
6.1020682891
 30
0.0
 40
1.53015443394367
100
AcDbArc
 50
130.2115225915
 51
228.588904108
  0
ARC
  5
80
330
7C
100
AcDbEntity
  8
圖層_1
 62
     7
370
    35
100
AcDbCircle
 10
4.8509135981
 20
5.9949454415
 30
0.0
 40
2.577335426817622
100
AcDbArc
 50
140.4331765613
 51
251.0865666567
  0
ARC
  5
81
330
7C
100
AcDbEntity
  8
圖層_1
 62
     7
370
    35
100
AcDbCircle
 10
5.1765041982
 20
6.3117559713
 30
0.0
 40
2.989636657769863
100
AcDbArc
 50
247.1485306747
 51
309.6030773927
  0
LINE
  5
82
330
7C
100
AcDbEntity
  8
圖層_1
 62
     7
370
    35
100
AcDbLine
 10
1.8488977269
 20
8.5321825984
 30
0.0
 11
0.542269472
 21
7.2705955219
 31
0.0
  0
LINE
  5
83
330
7C
100
AcDbEntity
  8
圖層_1
 62
     7
370
    35
100
AcDbLine
 10
0.51802289
 20
4.9544784977
 30
0.0
 11
4.5272252002
 21
1.4698746574
 31
0.0
  0
LINE
  5
84
330
7C
100
AcDbEntity
  8
圖層_1
 62
     7
370
    35
100
AcDbLine
 10
4.5272252002
 20
1.4698746574
 30
0.0
 11
3.8961732797
 21
0.853974267
 31
0.0
  0
LINE
  5
85
330
7C
100
AcDbEntity
  8
圖層_1
 62
     7
370
    35
100
AcDbLine
 10
3.8961732797
 20
0.853974267
 30
0.0
 11
4.8880526445
 21
0.0
 31
0.0
  0
LINE
  5
86
330
7C
100
AcDbEntity
  8
圖層_1
 62
     7
370
    35
100
AcDbLine
 10
8.0977170788
 20
3.1165779655
 30
0.0
 11
7.0822940472
 21
4.0083036932
 31
0.0
  0
LINE
  5
87
330
7C
100
AcDbEntity
  8
圖層_1
 62
     7
370
    35
100
AcDbLine
 10
2.8640915743
 20
7.6366506975
 30
0.0
 11
1.8488977269
 21
8.5321825984
 31
0.0
  0
LINE
  5
88
330
7C
100
AcDbEntity
  8
圖層_1
 62
     7
370
    35
100
AcDbLine
 10
4.8880526445
 20
0.0
 30
0.0
 11
8.0977170788
 21
3.1165779655
 31
0.0
  0
ENDBLK
  5
7E
330
7C
100
AcDbEntity
  8
0
100
AcDbBlockEnd
  0
BLOCK
  5
CF
330
CE
100
AcDbEntity
  8
0
100
AcDbBlockBegin
  2
SW_NOTE_0
 70
     0
 10
0.0
 20
0.0
 30
0.0
  3
SW_NOTE_0
  1

  0
MTEXT
  5
D1
330
CE
100
AcDbEntity
  8
0
  6
Continuous
 62
     0
370
     0
100
AcDbMText
 10
0.0
 20
3.4106583948
 30
0.0
 40
2.6458333333
 41
0.0
 71
     1
 72
     1
  1
PROPRIETARY AND CONFIDENTIAL
  7
SLDTEXTSTYLE0
 73
     1
 44
1.0
  0
MTEXT
  5
D2
330
CE
100
AcDbEntity
  8
0
  6
Continuous
 62
     0
370
     0
100
AcDbMText
 10
0.0
 20
-0.08198348
 30
0.0
 40
1.8520833333
 41
0.0
 71
     1
 72
     1
  1
THE INFORMATION CONTAINED IN THIS DRAWING IS THE SOLE PROPERTY OF UNICE E-O SERVICES INC. ANY REPRODUCTION IN PART OR AS A WHOLE WITHOUT THE WRITTEN PERMISSION OF UNICE E-O SERVICES INC IS
  7
SLDTEXTSTYLE0
 73
     1
 44
1.0
  0
MTEXT
  5
D3
330
CE
100
AcDbEntity
  8
0
  6
Continuous
 62
     0
370
     0
100
AcDbMText
 10
0.0
 20
-2.5514278946
 30
0.0
 40
1.8520833333
 41
0.0
 71
     1
 72
     1
  1
PROHIBITED.
  7
SLDTEXTSTYLE0
 73
     1
 44
1.0
  0
ENDBLK
  5
D0
330
CE
100
AcDbEntity
  8
0
100
AcDbBlockEnd
  0
BLOCK
  5
106
330
105
100
AcDbEntity
  8
0
100
AcDbBlockBegin
  2
SW_NOTE_0_1
 70
     0
 10
0.0
 20
0.0
 30
0.0
  3
SW_NOTE_0_1
  1

  0
MTEXT
  5
108
330
105
100
AcDbEntity
  8
SLD-0
 62
     0
100
AcDbMText
 10
0.0
 20
2.0463950369
 30
0.0
 40
1.5875
 41
0.0
 71
     1
 72
     1
  1
No.5, Andong Rd., Chung Li District,
  7
SLDTEXTSTYLE0
 73
     1
 44
1.0
  0
MTEXT
  5
109
330
105
100
AcDbEntity
  8
SLD-0
 62
     0
100
AcDbMText
 10
0.0
 20
-0.0702716042
 30
0.0
 40
1.5875
 41
0.0
 71
     1
 72
     1
  1
Taoyuan City 32063, Taiwan, R.O.C.
  7
SLDTEXTSTYLE0
 73
     1
 44
1.0
  0
ENDBLK
  5
107
330
105
100
AcDbEntity
  8
0
100
AcDbBlockEnd
  0
BLOCK
  5
10C
330
10B
100
AcDbEntity
  8
0
100
AcDbBlockBegin
  2
SW_TABLEANNOTATION_0
 70
     0
 10
0.0
 20
0.0
 30
0.0
  3
SW_TABLEANNOTATION_0
  1

  0
LINE
  5
10E
330
10B
100
AcDbEntity
  8
DIM
 62
     0
100
AcDbLine
 10
0.0
 20
0.0
 30
0.0
 11
0.0
 21
-6.4735574558
 31
0.0
  0
LINE
  5
10F
330
10B
100
AcDbEntity
  8
DIM
 62
     0
100
AcDbLine
 10
41.2019662902
 20
0.0
 30
0.0
 11
41.2019662902
 21
-6.4735574558
 31
0.0
  0
LINE
  5
110
330
10B
100
AcDbEntity
  8
DIM
 62
     0
100
AcDbLine
 10
0.0
 20
-6.4735574558
 30
0.0
 11
0.0
 21
-12.9471149115
 31
0.0
  0
LINE
  5
111
330
10B
100
AcDbEntity
  8
DIM
 62
     0
100
AcDbLine
 10
41.2019662902
 20
-6.4735574558
 30
0.0
 11
41.2019662902
 21
-12.9471149115
 31
0.0
  0
LINE
  5
112
330
10B
100
AcDbEntity
  8
DIM
 62
     0
100
AcDbLine
 10
69.196887047
 20
0.0
 30
0.0
 11
69.196887047
 21
-6.4735574558
 31
0.0
  0
LINE
  5
113
330
10B
100
AcDbEntity
  8
DIM
 62
     0
100
AcDbLine
 10
69.196887047
 20
-6.4735574558
 30
0.0
 11
69.196887047
 21
-12.9471149115
 31
0.0
  0
LINE
  5
114
330
10B
100
AcDbEntity
  8
DIM
 62
     0
100
AcDbLine
 10
0.0
 20
0.0
 30
0.0
 11
41.2019662902
 21
0.0
 31
0.0
  0
LINE
  5
115
330
10B
100
AcDbEntity
  8
DIM
 62
     0
100
AcDbLine
 10
0.0
 20
-6.4735574558
 30
0.0
 11
41.2019662902
 21
-6.4735574558
 31
0.0
  0
LINE
  5
116
330
10B
100
AcDbEntity
  8
DIM
 62
     0
100
AcDbLine
 10
41.2019662902
 20
0.0
 30
0.0
 11
69.196887047
 21
0.0
 31
0.0
  0
LINE
  5
117
330
10B
100
AcDbEntity
  8
DIM
 62
     0
100
AcDbLine
 10
41.2019662902
 20
-6.4735574558
 30
0.0
 11
69.196887047
 21
-6.4735574558
 31
0.0
  0
LINE
  5
118
330
10B
100
AcDbEntity
  8
DIM
 62
     0
100
AcDbLine
 10
0.0
 20
-12.9471149115
 30
0.0
 11
41.2019662902
 21
-12.9471149115
 31
0.0
  0
LINE
  5
119
330
10B
100
AcDbEntity
  8
DIM
 62
     0
100
AcDbLine
 10
41.2019662902
 20
-12.9471149115
 30
0.0
 11
69.196887047
 21
-12.9471149115
 31
0.0
  0
MTEXT
  5
11A
330
10B
100
AcDbEntity
  8
DIM
 62
     0
100
AcDbMText
 10
16.0093165174
 20
-1.2424921563
 30
0.0
 40
3.0
 41
0.0
 71
     1
 72
     1
  1
Model
  7
SLDTEXTSTYLE1
 73
     1
 44
1.0
  0
MTEXT
  5
11B
330
10B
100
AcDbEntity
  8
DIM
 62
     0
100
AcDbMText
 10
49.9223434133
 20
-1.2424921563
 30
0.0
 40
3.0
 41
0.0
 71
     1
 72
     1
  1
W(kgs)
  7
SLDTEXTSTYLE1
 73
     1
 44
1.0
  0
ENDBLK
  5
10D
330
10B
100
AcDbEntity
  8
0
100
AcDbBlockEnd
  0
BLOCK
  5
14A
330
149
100
AcDbEntity
  8
0
100
AcDbBlockBegin
  2
_None
 70
     0
 10
0.0
 20
0.0
 30
0.0
  3
_None
  1

  0
ENDBLK
  5
14B
330
149
100
AcDbEntity
  8
0
100
AcDbBlockEnd
  0
BLOCK
  5
14D
330
14C
100
AcDbEntity
  8
0
100
AcDbBlockBegin
  2
_D
 70
     0
 10
0.0
 20
0.0
 30
0.0
  3
_D
  1

  0
LINE
  5
14F
330
14C
100
AcDbEntity
  8
DIM
100
AcDbLine
 10
73.3948228525
 20
41.0873150106
 30
0.0
 11
68.3948228525
 21
41.0873150106
 31
0.0
  0
LINE
  5
150
330
14C
100
AcDbEntity
  8
DIM
100
AcDbLine
 10
73.3948228525
 20
41.0873150106
 30
0.0
 11
78.3948228525
 21
41.0873150106
 31
0.0
  0
LINE
  5
151
330
14C
100
AcDbEntity
  8
DIM
100
AcDbLine
 10
78.3948228525
 20
41.0873150106
 30
0.0
 11
93.3045454545
 21
41.0873150106
 31
0.0
  0
MTEXT
  5
152
330
14C
100
AcDbEntity
  8
DIM
100
AcDbMText
 10
66.9043367653
 20
42.5694074687
 30
0.0
 40
2.38125
 41
0.0
 71
     1
 72
     1
  1
0
  7
SLDTEXTSTYLE1
 73
     1
 44
1.0
  0
ENDBLK
  5
14E
330
14C
100
AcDbEntity
  8
0
100
AcDbBlockEnd
  0
BLOCK
  5
156
330
155
100
AcDbEntity
  8
0
100
AcDbBlockBegin
  2
_D_1
 70
     0
 10
0.0
 20
0.0
 30
0.0
  3
_D_1
  1

  0
LINE
  5
158
330
155
100
AcDbEntity
  8
DIM
100
AcDbLine
 10
73.3948228525
 20
44.2940649718
 30
0.0
 11
68.3948228525
 21
44.2940649718
 31
0.0
  0
LINE
  5
159
330
155
100
AcDbEntity
  8
DIM
100
AcDbLine
 10
73.3948228525
 20
44.2940649718
 30
0.0
 11
78.3948228525
 21
41.5873150106
 31
0.0
  0
LINE
  5
15A
330
155
100
AcDbEntity
  8
DIM
100
AcDbLine
 10
78.3948228525
 20
41.5873150106
 30
0.0
 11
92.8045454545
 21
41.5873150106
 31
0.0
  0
MTEXT
  5
15B
330
155
100
AcDbEntity
  8
DIM
100
AcDbMText
 10
64.6686075179
 20
45.7761574299
 30
0.0
 40
2.38125
 41
0.0
 71
     1
 72
     1
  1
0.5
  7
SLDTEXTSTYLE1
 73
     1
 44
1.0
  0
ENDBLK
  5
157
330
155
100
AcDbEntity
  8
0
100
AcDbBlockEnd
  0
BLOCK
  5
15F
330
15E
100
AcDbEntity
  8
0
100
AcDbBlockBegin
  2
_D_2
 70
     0
 10
0.0
 20
0.0
 30
0.0
  3
_D_2
  1

  0
LINE
  5
161
330
15E
100
AcDbEntity
  8
DIM
100
AcDbLine
 10
73.3948228525
 20
47.5008149331
 30
0.0
 11
68.3948228525
 21
47.5008149331
 31
0.0
  0
LINE
  5
162
330
15E
100
AcDbEntity
  8
DIM
100
AcDbLine
 10
73.3948228525
 20
47.5008149331
 30
0.0
 11
78.3948228525
 21
45.8873150106
 31
0.0
  0
LINE
  5
163
330
15E
100
AcDbEntity
  8
DIM
100
AcDbLine
 10
78.3948228525
 20
45.8873150106
 30
0.0
 11
93.3045454545
 21
45.8873150106
 31
0.0
  0
MTEXT
  5
164
330
15E
100
AcDbEntity
  8
DIM
100
AcDbMText
 10
64.6686075179
 20
48.9829073912
 30
0.0
 40
2.38125
 41
0.0
 71
     1
 72
     1
  1
4.8
  7
SLDTEXTSTYLE1
 73
     1
 44
1.0
  0
ENDBLK
  5
160
330
15E
100
AcDbEntity
  8
0
100
AcDbBlockEnd
  0
BLOCK
  5
167
330
166
100
AcDbEntity
  8
0
100
AcDbBlockBegin
  2
_D_3
 70
     0
 10
0.0
 20
0.0
 30
0.0
  3
_D_3
  1

  0
LINE
  5
169
330
166
100
AcDbEntity
  8
DIM
100
AcDbLine
 10
104.3045454545
 20
97.2873150106
 30
0.0
 11
68.3948228525
 21
97.2873150106
 31
0.0
  0
MTEXT
  5
16A
330
166
100
AcDbEntity
  8
DIM
100
AcDbMText
 10
63.1781218963
 20
98.7694074687
 30
0.0
 40
2.38125
 41
0.0
 71
     1
 72
     1
  1
56.2
  7
SLDTEXTSTYLE1
 73
     1
 44
1.0
  0
ENDBLK
  5
168
330
166
100
AcDbEntity
  8
0
100
AcDbBlockEnd
  0
BLOCK
  5
16D
330
16C
100
AcDbEntity
  8
0
100
AcDbBlockBegin
  2
_D_4
 70
     0
 10
0.0
 20
0.0
 30
0.0
  3
_D_4
  1

  0
LINE
  5
16F
330
16C
100
AcDbEntity
  8
DIM
100
AcDbLine
 10
96.0045454545
 20
117.2873150106
 30
0.0
 11
68.3948228525
 21
117.2873150106
 31
0.0
  0
MTEXT
  5
170
330
16C
100
AcDbEntity
  8
DIM
100
AcDbMText
 10
63.1781218963
 20
118.7694074687
 30
0.0
 40
2.38125
 41
0.0
 71
     1
 72
     1
  1
76.2
  7
SLDTEXTSTYLE1
 73
     1
 44
1.0
  0
ENDBLK
  5
16E
330
16C
100
AcDbEntity
  8
0
100
AcDbBlockEnd
  0
BLOCK
  5
174
330
173
100
AcDbEntity
  8
0
100
AcDbBlockBegin
  2
_D_5
 70
     0
 10
0.0
 20
0.0
 30
0.0
  3
_D_5
  1

  0
SOLID
  5
176
330
173
100
AcDbEntity
  8
DIM
100
AcDbTrace
 10
96.8045454545
 20
26.4632020414
 30
0.0
 11
98.8045454545
 21
26.2132020414
 31
0.0
 12
98.8045454545
 22
26.7132020414
 32
0.0
 13
98.8045454545
 23
26.7132020414
 33
0.0
  0
SOLID
  5
177
330
173
100
AcDbEntity
  8
DIM
100
AcDbTrace
 10
122.3045454545
 20
26.4632020414
 30
0.0
 11
120.3045454545
 21
26.7132020414
 31
0.0
 12
120.3045454545
 22
26.2132020414
 32
0.0
 13
120.3045454545
 23
26.2132020414
 33
0.0
  0
LINE
  5
178
330
173
100
AcDbEntity
  8
DIM
100
AcDbLine
 10
96.8045454545
 20
40.1873150106
 30
0.0
 11
96.8045454545
 21
25.4632020414
 31
0.0
  0
LINE
  5
179
330
173
100
AcDbEntity
  8
DIM
100
AcDbLine
 10
122.3045454545
 20
40.1873150106
 30
0.0
 11
122.3045454545
 21
25.4632020414
 31
0.0
  0
LINE
  5
17A
330
173
100
AcDbEntity
  8
DIM
100
AcDbLine
 10
96.8045454545
 20
26.4632020414
 30
0.0
 11
122.3045454545
 21
26.4632020414
 31
0.0
  0
MTEXT
  5
17B
330
173
100
AcDbEntity
  8
DIM
100
AcDbMText
 10
105.4380698724
 20
29.5327947131
 30
0.0
 40
2.38125
 41
0.0
 71
     1
 72
     1
  1
%%c
  7
SLDTEXTSTYLE1
 73
     1
 44
1.0
  0
MTEXT
  5
17C
330
173
100
AcDbEntity
  8
DIM
100
AcDbMText
 10
108.4543198476
 20
29.5327947131
 30
0.0
 40
2.38125
 41
0.0
 71
     1
 72
     1
  1
25.5
  7
SLDTEXTSTYLE1
 73
     1
 44
1.0
  0
ENDBLK
  5
175
330
173
100
AcDbEntity
  8
0
100
AcDbBlockEnd
  0
BLOCK
  5
17F
330
17E
100
AcDbEntity
  8
0
100
AcDbBlockBegin
  2
_D_6
 70
     0
 10
0.0
 20
0.0
 30
0.0
  3
_D_6
  1

  0
SOLID
  5
181
330
17E
100
AcDbEntity
  8
DIM
100
AcDbTrace
 10
93.8045454545
 20
15.5761218103
 30
0.0
 11
95.8045454545
 21
15.3261218103
 31
0.0
 12
95.8045454545
 22
15.8261218103
 32
0.0
 13
95.8045454545
 23
15.8261218103
 33
0.0
  0
SOLID
  5
182
330
17E
100
AcDbEntity
  8
DIM
100
AcDbTrace
 10
125.3045454545
 20
15.5761218103
 30
0.0
 11
123.3045454545
 21
15.8261218103
 31
0.0
 12
123.3045454545
 22
15.3261218103
 32
0.0
 13
123.3045454545
 23
15.3261218103
 33
0.0
  0
LINE
  5
183
330
17E
100
AcDbEntity
  8
DIM
100
AcDbLine
 10
93.8045454545
 20
40.5873150106
 30
0.0
 11
93.8045454545
 21
14.5761218103
 31
0.0
  0
LINE
  5
184
330
17E
100
AcDbEntity
  8
DIM
100
AcDbLine
 10
125.3045454545
 20
40.5873150106
 30
0.0
 11
125.3045454545
 21
14.5761218103
 31
0.0
  0
LINE
  5
185
330
17E
100
AcDbEntity
  8
DIM
100
AcDbLine
 10
93.8045454545
 20
15.5761218103
 30
0.0
 11
125.3045454545
 21
15.5761218103
 31
0.0
  0
MTEXT
  5
186
330
17E
100
AcDbEntity
  8
DIM
100
AcDbMText
 10
105.4380698724
 20
18.6457144821
 30
0.0
 40
2.38125
 41
0.0
 71
     1
 72
     1
  1
%%c
  7
SLDTEXTSTYLE1
 73
     1
 44
1.0
  0
MTEXT
  5
187
330
17E
100
AcDbEntity
  8
DIM
100
AcDbMText
 10
108.4543198476
 20
18.6457144821
 30
0.0
 40
2.38125
 41
0.0
 71
     1
 72
     1
  1
31.5
  7
SLDTEXTSTYLE1
 73
     1
 44
1.0
  0
ENDBLK
  5
180
330
17E
100
AcDbEntity
  8
0
100
AcDbBlockEnd
  0
BLOCK
  5
18A
330
189
100
AcDbEntity
  8
0
100
AcDbBlockBegin
  2
_D_7
 70
     0
 10
0.0
 20
0.0
 30
0.0
  3
_D_7
  1

  0
SOLID
  5
18C
330
189
100
AcDbEntity
  8
DIM
100
AcDbTrace
 10
96.8045454545
 20
134.2873150106
 30
0.0
 11
98.8045454545
 21
134.0373150106
 31
0.0
 12
98.8045454545
 22
134.5373150106
 32
0.0
 13
98.8045454545
 23
134.5373150106
 33
0.0
  0
SOLID
  5
18D
330
189
100
AcDbEntity
  8
DIM
100
AcDbTrace
 10
122.3045454545
 20
134.2873150106
 30
0.0
 11
120.3045454545
 21
134.5373150106
 31
0.0
 12
120.3045454545
 22
134.0373150106
 32
0.0
 13
120.3045454545
 23
134.0373150106
 33
0.0
  0
LINE
  5
18E
330
189
100
AcDbEntity
  8
DIM
100
AcDbLine
 10
96.8045454545
 20
118.0873150106
 30
0.0
 11
96.8045454545
 21
135.2873150106
 31
0.0
  0
LINE
  5
18F
330
189
100
AcDbEntity
  8
DIM
100
AcDbLine
 10
122.3045454545
 20
118.0873150106
 30
0.0
 11
122.3045454545
 21
135.2873150106
 31
0.0
  0
LINE
  5
190
330
189
100
AcDbEntity
  8
DIM
100
AcDbLine
 10
96.8045454545
 20
134.2873150106
 30
0.0
 11
122.3045454545
 21
134.2873150106
 31
0.0
  0
MTEXT
  5
191
330
189
100
AcDbEntity
  8
DIM
100
AcDbMText
 10
105.4380698724
 20
137.3569076823
 30
0.0
 40
2.38125
 41
0.0
 71
     1
 72
     1
  1
%%c
  7
SLDTEXTSTYLE1
 73
     1
 44
1.0
  0
MTEXT
  5
192
330
189
100
AcDbEntity
  8
DIM
100
AcDbMText
 10
108.4543198476
 20
137.3569076823
 30
0.0
 40
2.38125
 41
0.0
 71
     1
 72
     1
  1
25.5
  7
SLDTEXTSTYLE1
 73
     1
 44
1.0
  0
ENDBLK
  5
18B
330
189
100
AcDbEntity
  8
0
100
AcDbBlockEnd
  0
BLOCK
  5
196
330
195
100
AcDbEntity
  8
0
100
AcDbBlockBegin
  2
_D_8
 70
     0
 10
0.0
 20
0.0
 30
0.0
  3
_D_8
  1

  0
SOLID
  5
198
330
195
100
AcDbEntity
  8
DIM
100
AcDbTrace
 10
106.8335453133
 20
99.0645764521
 30
0.0
 11
105.2957961065
 21
100.3675835039
 31
0.0
 12
105.0223712694
 22
99.9489680975
 32
0.0
 13
105.0223712694
 23
99.9489680975
 33
0.0
  0
LINE
  5
199
330
195
100
AcDbEntity
  8
DIM
100
AcDbLine
 10
106.8335453133
 20
99.0645764521
 30
0.0
 11
86.5963657242
 21
112.2827892788
 31
0.0
  0
LINE
  5
19A
330
195
100
AcDbEntity
  8
DIM
100
AcDbLine
 10
86.5963657242
 20
112.2827892788
 30
0.0
 11
69.8329623831
 21
112.2827892788
 31
0.0
  0
MTEXT
  5
19B
330
195
100
AcDbEntity
  8
DIM
100
AcDbMText
 10
69.8329623831
 20
115.3523819506
 30
0.0
 40
2.38125
 41
0.0
 71
     1
 72
     1
  1
%%c
  7
SLDTEXTSTYLE1
 73
     1
 44
1.0
  0
MTEXT
  5
19C
330
195
100
AcDbEntity
  8
DIM
100
AcDbMText
 10
72.8492123583
 20
115.3523819506
 30
0.0
 40
2.38125
 41
0.0
 71
     1
 72
     1
  1
6.5
  7
SLDTEXTSTYLE1
 73
     1
 44
1.0
  0
MTEXT
  5
19D
330
195
100
AcDbEntity
  8
DIM
100
AcDbMText
 10
77.3195683179
 20
115.3523819506
 30
0.0
 40
2.38125
 41
0.0
 71
     1
 72
     1
  1
HOLE
  7
SLDTEXTSTYLE1
 73
     1
 44
1.0
  0
ENDBLK
  5
197
330
195
100
AcDbEntity
  8
0
100
AcDbBlockEnd
  0
BLOCK
  5
19F
330
19E
100
AcDbEntity
  8
0
100
AcDbBlockBegin
  2
SW_NOTE_0_2
 70
     0
 10
0.0
 20
0.0
 30
0.0
  3
SW_NOTE_0_2
  1

  0
MTEXT
  5
1A1
330
19E
100
AcDbEntity
  8
DIM
 62
     0
100
AcDbMText
 10
-4.5628185449
 20
4.8456392758
 30
0.0
 40
2.38125
 41
0.0
 71
     1
 72
     1
  1
1 HOLE
  7
SLDTEXTSTYLE1
 73
     1
 44
1.0
  0
MTEXT
  5
1A2
330
19E
100
AcDbEntity
  8
DIM
 62
     0
100
AcDbMText
 10
-4.5628185449
 20
0.6706393831
 30
0.0
 40
2.38125
 41
0.0
 71
     1
 72
     1
  1
M4
  7
SLDTEXTSTYLE1
 73
     1
 44
1.0
  0
ENDBLK
  5
1A0
330
19E
100
AcDbEntity
  8
0
100
AcDbBlockEnd
  0
BLOCK
  5
1A7
330
1A6
100
AcDbEntity
  8
0
100
AcDbBlockBegin
  2
SW_NOTE_0_3
 70
     0
 10
0.0
 20
0.0
 30
0.0
  3
SW_NOTE_0_3
  1

  0
MTEXT
  5
1A9
330
1A6
100
AcDbEntity
  8
DIM
 62
     0
100
AcDbMText
 10
-4.5507530817
 20
4.7685640516
 30
0.0
 40
2.38125
 41
0.0
 71
     1
 72
     1
  1
1 HOLE
  7
SLDTEXTSTYLE1
 73
     1
 44
1.0
  0
MTEXT
  5
1AA
330
1A6
100
AcDbEntity
  8
DIM
 62
     0
100
AcDbMText
 10
-4.5507530817
 20
0.5935641589
 30
0.0
 40
2.38125
 41
0.0
 71
     1
 72
     1
  1
M6
  7
SLDTEXTSTYLE1
 73
     1
 44
1.0
  0
ENDBLK
  5
1A8
330
1A6
100
AcDbEntity
  8
0
100
AcDbBlockEnd
  0
BLOCK
  5
1AE
330
1AD
100
AcDbEntity
  8
0
100
AcDbBlockBegin
  2
SW_CENTERMARKSYMBOL_0
 70
     0
 10
0.0
 20
0.0
 30
0.0
  3
SW_CENTERMARKSYMBOL_0
  1

  0
LINE
  5
1B0
330
1AD
100
AcDbEntity
  8
DIM
 62
     0
100
AcDbLine
 10
0.0
 20
0.0
 30
0.0
 11
0.0
 21
1.0
 31
0.0
  0
LINE
  5
1B1
330
1AD
100
AcDbEntity
  8
DIM
 62
     0
100
AcDbLine
 10
0.0
 20
0.0
 30
0.0
 11
-1.0
 21
0.0
 31
0.0
  0
LINE
  5
1B2
330
1AD
100
AcDbEntity
  8
DIM
 62
     0
100
AcDbLine
 10
0.0
 20
0.0
 30
0.0
 11
0.0
 21
-1.0
 31
0.0
  0
LINE
  5
1B3
330
1AD
100
AcDbEntity
  8
DIM
 62
     0
100
AcDbLine
 10
0.0
 20
0.0
 30
0.0
 11
1.0
 21
0.0
 31
0.0
  0
LINE
  5
1B4
330
1AD
100
AcDbEntity
  8
DIM
 62
     0
100
AcDbLine
 10
0.0
 20
2.0
 30
0.0
 11
0.0
 21
4.25
 31
0.0
  0
LINE
  5
1B5
330
1AD
100
AcDbEntity
  8
DIM
 62
     0
100
AcDbLine
 10
-2.0
 20
0.0
 30
0.0
 11
-4.25
 21
0.0
 31
0.0
  0
LINE
  5
1B6
330
1AD
100
AcDbEntity
  8
DIM
 62
     0
100
AcDbLine
 10
0.0
 20
-2.0
 30
0.0
 11
0.0
 21
-4.25
 31
0.0
  0
LINE
  5
1B7
330
1AD
100
AcDbEntity
  8
DIM
 62
     0
100
AcDbLine
 10
2.0
 20
0.0
 30
0.0
 11
4.25
 21
0.0
 31
0.0
  0
ENDBLK
  5
1AF
330
1AD
100
AcDbEntity
  8
0
100
AcDbBlockEnd
  0
BLOCK
  5
1D4
330
1D3
100
AcDbEntity
  8
0
100
AcDbBlockBegin
  2
SW_CENTERMARKSYMBOL_1
 70
     0
 10
0.0
 20
0.0
 30
0.0
  3
SW_CENTERMARKSYMBOL_1
  1

  0
LINE
  5
1D6
330
1D3
100
AcDbEntity
  8
DIM
 62
     0
100
AcDbLine
 10
0.0
 20
0.0
 30
0.0
 11
0.0
 21
1.0
 31
0.0
  0
LINE
  5
1D7
330
1D3
100
AcDbEntity
  8
DIM
 62
     0
100
AcDbLine
 10
0.0
 20
0.0
 30
0.0
 11
-1.0
 21
0.0
 31
0.0
  0
LINE
  5
1D8
330
1D3
100
AcDbEntity
  8
DIM
 62
     0
100
AcDbLine
 10
0.0
 20
0.0
 30
0.0
 11
0.0
 21
-1.0
 31
0.0
  0
LINE
  5
1D9
330
1D3
100
AcDbEntity
  8
DIM
 62
     0
100
AcDbLine
 10
0.0
 20
0.0
 30
0.0
 11
1.0
 21
0.0
 31
0.0
  0
LINE
  5
1DA
330
1D3
100
AcDbEntity
  8
DIM
 62
     0
100
AcDbLine
 10
0.0
 20
2.0
 30
0.0
 11
0.0
 21
16.25
 31
0.0
  0
LINE
  5
1DB
330
1D3
100
AcDbEntity
  8
DIM
 62
     0
100
AcDbLine
 10
-2.0
 20
0.0
 30
0.0
 11
-16.25
 21
0.0
 31
0.0
  0
LINE
  5
1DC
330
1D3
100
AcDbEntity
  8
DIM
 62
     0
100
AcDbLine
 10
0.0
 20
-2.0
 30
0.0
 11
0.0
 21
-16.25
 31
0.0
  0
LINE
  5
1DD
330
1D3
100
AcDbEntity
  8
DIM
 62
     0
100
AcDbLine
 10
2.0
 20
0.0
 30
0.0
 11
16.25
 21
0.0
 31
0.0
  0
ENDBLK
  5
1D5
330
1D3
100
AcDbEntity
  8
0
100
AcDbBlockEnd
  0
ENDSEC
  0
SECTION
  2
ENTITIES
  0
HATCH
  5
89
330
1F
100
AcDbEntity
  8
0
  6
Continuous
 62
     7
100
AcDbHatch
 10
0.0
 20
0.0
 30
0.0
210
0.0
220
0.0
230
1.0
  2
SOLID
 70
     1
 71
     0
 91
        1
 92
        0
 93
       10
 72
     2
 10
192.1405965629367
 20
35.75580880988856
 40
2.989636657769859
 50
50.39692260731407
 51
112.8514693252983
 73
     0
 72
     2
 10
191.815005962812
 20
35.43899828006204
 40
2.577335426817619
 50
108.9134333432861
 51
219.5668234386827
 73
     0
 72
     1
 10
189.8281839389603
 20
37.0807035361501
 11
188.8129900915579
 21
37.97623543696786
 72
     1
 10
188.8129900915579
 20
37.97623543696786
 11
187.5063618366762
 21
36.71464836046036
 72
     2
 10
188.4942467986389
 20
35.54612112772446
 40
1.530154433943661
 50
130.2115225915088
 51
228.5889041080191
 73
     1
 72
     1
 10
187.482115254651
 20
34.39853133629978
 11
191.4913175648466
 21
30.9139274960251
 72
     1
 10
191.4913175648466
 20
30.9139274960251
 11
190.8602656444315
 21
30.29802710555407
 72
     1
 10
190.8602656444315
 20
30.29802710555407
 11
191.852145009157
 21
29.44405283860024
 72
     1
 10
191.852145009157
 20
29.44405283860024
 11
195.0618094435223
 21
32.56063080411572
 72
     1
 10
195.0618094435223
 20
32.56063080411572
 11
194.0463864118641
 21
33.45235653184883
 97
        0
 75
     0
 76
     1
 98
        1
 10
0.0
 20
0.0
  0
HATCH
  5
8A
330
1F
100
AcDbEntity
  8
0
  6
Continuous
 62
     1
100
AcDbHatch
 10
0.0
 20
0.0
 30
0.0
210
0.0
220
0.0
230
1.0
  2
SOLID
 70
     1
 71
     0
 91
        1
 92
        0
 93
       10
 72
     2
 10
192.5892455627688
 20
35.6630691563161
 40
2.57756748834625
 50
317.8184992995785
 51
398.0564711573078
 73
     0
 72
     1
 10
194.6188314058163
 20
34.07415900697447
 11
195.6042802987991
 21
33.21546206708498
 72
     1
 10
195.6042802987991
 20
33.21546206708498
 11
196.8459616135929
 21
34.41989500949219
 72
     2
 10
195.9525692879308
 20
35.64784174131312
 40
1.518552937418265
 50
306.0377529468138
 51
403.4396461533871
 73
     1
 72
     1
 10
197.0551891526031
 20
36.69198371335126
 11
192.9284332942598
 21
40.28115998198521
 72
     1
 10
192.9284332942598
 20
40.28115998198521
 11
193.552684596187
 21
40.89021841282256
 72
     1
 10
193.552684596187
 20
40.89021841282256
 11
192.622178086003
 21
41.72041063266705
 72
     1
 10
192.622178086003
 20
41.72041063266705
 11
189.3865926375931
 21
38.59349038605298
 72
     1
 10
189.3865926375931
 20
38.59349038605298
 11
190.4090005149417
 21
37.70169985893218
 72
     2
 10
192.2715892720444
 20
35.12224735083792
 40
3.181636704527876
 50
234.1674444878512
 51
314.4407074583994
 73
     0
 97
        0
 75
     0
 76
     1
 98
        1
 10
0.0
 20
0.0
  0
LINE
  5
8B
330
1F
100
AcDbEntity
  8
0
  6
Continuous
 62
     7
370
    18
100
AcDbLine
 10
167.8593775185
 20
17.7745192513
 30
0.0
 11
168.8593775185
 21
17.7745192513
 31
0.0
  0
LINE
  5
8C
330
1F
100
AcDbEntity
  8
0
  6
Continuous
 62
     7
370
    18
100
AcDbLine
 10
164.8593775185
 20
17.7745192513
 30
0.0
 11
167.3593775185
 21
17.7745192513
 31
0.0
  0
LINE
  5
8D
330
1F
100
AcDbEntity
  8
0
  6
Continuous
 62
     7
370
    18
100
AcDbLine
 10
181.3593775185
 20
15.2745192513
 30
0.0
 11
181.3593775185
 21
20.2745192513
 31
0.0
  0
LINE
  5
8E
330
1F
100
AcDbEntity
  8
0
  6
Continuous
 62
     7
370
    18
100
AcDbLine
 10
174.3593775185
 20
16.2745192513
 30
0.0
 11
181.3593775185
 21
15.2745192513
 31
0.0
  0
LINE
  5
8F
330
1F
100
AcDbEntity
  8
0
  6
Continuous
 62
     7
370
    18
100
AcDbLine
 10
168.3593775185
 20
16.7745192513
 30
0.0
 11
168.3593775185
 21
14.2745192513
 31
0.0
  0
LINE
  5
90
330
1F
100
AcDbEntity
  8
0
  6
Continuous
 62
     7
370
    18
100
AcDbLine
 10
181.3593775185
 20
20.2745192513
 30
0.0
 11
174.3593775185
 21
19.2745192513
 31
0.0
  0
LINE
  5
91
330
1F
100
AcDbEntity
  8
0
  6
Continuous
 62
     7
370
    18
100
AcDbLine
 10
173.3593775185
 20
17.7745192513
 30
0.0
 11
182.3593775185
 21
17.7745192513
 31
0.0
  0
LINE
  5
92
330
1F
100
AcDbEntity
  8
0
  6
Continuous
 62
     7
370
    18
100
AcDbLine
 10
168.3593775185
 20
18.2745192513
 30
0.0
 11
168.3593775185
 21
17.2745192513
 31
0.0
  0
LINE
  5
93
330
1F
100
AcDbEntity
  8
0
  6
Continuous
 62
     7
370
    18
100
AcDbLine
 10
169.3593775185
 20
17.7745192513
 30
0.0
 11
171.8593775185
 21
17.7745192513
 31
0.0
  0
LINE
  5
94
330
1F
100
AcDbEntity
  8
0
  6
Continuous
 62
     7
370
    18
100
AcDbLine
 10
168.3593775185
 20
21.2745192513
 30
0.0
 11
168.3593775185
 21
18.7745192513
 31
0.0
  0
LINE
  5
95
330
1F
100
AcDbEntity
  8
0
  6
Continuous
 62
     7
370
    18
100
AcDbLine
 10
174.3593775185
 20
19.2745192513
 30
0.0
 11
174.3593775185
 21
16.2745192513
 31
0.0
  0
LINE
  5
96
330
1F
100
AcDbEntity
  8
工作區域參考線
 62
     1
370
    35
100
AcDbLine
 10
190.4090005149
 20
37.7016998589
 30
0.0
 11
189.3865926376
 21
38.5934903861
 31
0.0
  0
LINE
  5
97
330
1F
100
AcDbEntity
  8
工作區域參考線
 62
     1
370
    35
100
AcDbLine
 10
189.3865926376
 20
38.5934903861
 30
0.0
 11
192.622178086
 21
41.7204106327
 31
0.0
  0
LINE
  5
98
330
1F
100
AcDbEntity
  8
工作區域參考線
 62
     1
370
    35
100
AcDbLine
 10
192.622178086
 20
41.7204106327
 30
0.0
 11
193.5526845962
 21
40.8902184128
 31
0.0
  0
LINE
  5
99
330
1F
100
AcDbEntity
  8
工作區域參考線
 62
     1
370
    35
100
AcDbLine
 10
193.5526845962
 20
40.8902184128
 30
0.0
 11
192.9284332943
 21
40.281159982
 31
0.0
  0
LINE
  5
9A
330
1F
100
AcDbEntity
  8
工作區域參考線
 62
     1
370
    35
100
AcDbLine
 10
192.9284332943
 20
40.281159982
 30
0.0
 11
197.0551891526
 21
36.6919837134
 31
0.0
  0
LINE
  5
9B
330
1F
100
AcDbEntity
  8
工作區域參考線
 62
     1
370
    35
100
AcDbLine
 10
194.6188314058
 20
34.074159007
 30
0.0
 11
195.6042802988
 21
33.2154620671
 31
0.0
  0
LINE
  5
9C
330
1F
100
AcDbEntity
  8
工作區域參考線
 62
     1
370
    35
100
AcDbLine
 10
195.6042802988
 20
33.2154620671
 30
0.0
 11
196.8459616136
 21
34.4198950095
 31
0.0
  0
LINE
  5
9D
330
1F
100
AcDbEntity
  8
0
  6
Continuous
 62
     7
370
    18
100
AcDbLine
 10
185.6907965209
 20
13.1152464079
 30
0.0
 11
285.6907965209
 21
13.1152464079
 31
0.0
  0
LINE
  5
9E
330
1F
100
AcDbEntity
  8
0
  6
Continuous
 62
     7
370
    18
100
AcDbLine
 10
185.6907965209
 20
18.1152464079
 30
0.0
 11
235.6907965209
 21
18.1152464079
 31
0.0
  0
LINE
  5
9F
330
1F
100
AcDbEntity
  8
0
  6
Continuous
 62
     7
370
    18
100
AcDbLine
 10
185.6907965209
 20
23.1152464079
 30
0.0
 11
235.6907965209
 21
23.1152464079
 31
0.0
  0
LINE
  5
A0
330
1F
100
AcDbEntity
  8
0
  6
Continuous
 62
     7
370
    18
100
AcDbLine
 10
185.6907965209
 20
28.1152464079
 30
0.0
 11
285.6907965209
 21
28.1152464079
 31
0.0
  0
LINE
  5
A1
330
1F
100
AcDbEntity
  8
0
  6
Continuous
 62
     7
370
    18
100
AcDbLine
 10
235.6907965209
 20
33.1152464079
 30
0.0
 11
285.6907965209
 21
33.1152464079
 31
0.0
  0
LINE
  5
A2
330
1F
100
AcDbEntity
  8
0
  6
Continuous
 62
     7
370
    25
100
AcDbLine
 10
235.6907965209
 20
18.1152464079
 30
0.0
 11
285.6907965209
 21
18.1152464079
 31
0.0
  0
LINE
  5
A3
330
1F
100
AcDbEntity
  8
0
  6
Continuous
 62
     7
370
    18
100
AcDbLine
 10
185.6907965209
 20
43.1152464079
 30
0.0
 11
285.6907965209
 21
43.1152464079
 31
0.0
  0
LINE
  5
A4
330
1F
100
AcDbEntity
  8
0
  6
Continuous
 62
     7
370
    18
100
AcDbLine
 10
251.237217675
 20
8.1152464079
 30
0.0
 11
251.237217675
 21
18.1152464079
 31
0.0
  0
LINE
  5
A5
330
1F
100
AcDbEntity
  8
0
  6
Continuous
 62
     7
370
    18
100
AcDbLine
 10
235.6907965209
 20
8.1152464079
 30
0.0
 11
235.6907965209
 21
43.1152464079
 31
0.0
  0
LINE
  5
A6
330
1F
100
AcDbEntity
  8
0
  6
Continuous
 62
     7
370
    18
100
AcDbLine
 10
251.237217675
 20
28.1152464079
 30
0.0
 11
251.237217675
 21
33.1152464079
 31
0.0
  0
LINE
  5
A7
330
1F
100
AcDbEntity
  8
0
  6
Continuous
 62
     7
370
    18
100
AcDbLine
 10
214.4164086353
 20
8.1152464079
 30
0.0
 11
214.4164086353
 21
28.1152464079
 31
0.0
  0
LINE
  5
A8
330
1F
100
AcDbEntity
  8
0
  6
Continuous
 62
     7
370
    18
100
AcDbLine
 10
199.7785887506
 20
8.1152464079
 30
0.0
 11
199.7785887506
 21
28.1152464079
 31
0.0
  0
LINE
  5
A9
330
1F
100
AcDbEntity
  8
0
  6
Continuous
 62
     7
370
    18
100
AcDbLine
 10
185.6907965209
 20
8.1152464079
 30
0.0
 11
185.6907965209
 21
43.1152464079
 31
0.0
  0
LINE
  5
AA
330
1F
100
AcDbEntity
  8
0
  6
Continuous
 62
     7
370
    25
100
AcDbLine
 10
43.3207965209
 20
201.3720275751
 30
0.0
 11
43.3207965209
 21
202.8720275751
 31
0.0
  0
LINE
  5
AB
330
1F
100
AcDbEntity
  8
0
  6
Continuous
 62
     7
370
    25
100
AcDbLine
 10
77.9507965209
 20
201.3720275751
 30
0.0
 11
77.9507965209
 21
202.8720275751
 31
0.0
  0
LINE
  5
AC
330
1F
100
AcDbEntity
  8
0
  6
Continuous
 62
     7
370
    25
100
AcDbLine
 10
112.5807965209
 20
201.3720275751
 30
0.0
 11
112.5807965209
 21
202.8720275751
 31
0.0
  0
LINE
  5
AD
330
1F
100
AcDbEntity
  8
0
  6
Continuous
 62
     7
370
    25
100
AcDbLine
 10
147.2107965209
 20
201.3720275751
 30
0.0
 11
147.2107965209
 21
202.8720275751
 31
0.0
  0
LINE
  5
AE
330
1F
100
AcDbEntity
  8
0
  6
Continuous
 62
     7
370
    25
100
AcDbLine
 10
181.8407965209
 20
201.3720275751
 30
0.0
 11
181.8407965209
 21
202.8720275751
 31
0.0
  0
LINE
  5
AF
330
1F
100
AcDbEntity
  8
0
  6
Continuous
 62
     7
370
    25
100
AcDbLine
 10
216.4707965209
 20
201.3720275751
 30
0.0
 11
216.4707965209
 21
202.8720275751
 31
0.0
  0
LINE
  5
B0
330
1F
100
AcDbEntity
  8
0
  6
Continuous
 62
     7
370
    25
100
AcDbLine
 10
251.1007965209
 20
201.3720275751
 30
0.0
 11
251.1007965209
 21
202.8720275751
 31
0.0
  0
LINE
  5
B1
330
1F
100
AcDbEntity
  8
0
  6
Continuous
 62
     7
370
    25
100
AcDbLine
 10
43.3157965209
 20
8.1152464079
 30
0.0
 11
43.3157965209
 21
6.6152464079
 31
0.0
  0
LINE
  5
B2
330
1F
100
AcDbEntity
  8
0
  6
Continuous
 62
     7
370
    25
100
AcDbLine
 10
77.9407965209
 20
8.1152464079
 30
0.0
 11
77.9407965209
 21
6.6152464079
 31
0.0
  0
LINE
  5
B3
330
1F
100
AcDbEntity
  8
0
  6
Continuous
 62
     7
370
    25
100
AcDbLine
 10
112.5657965209
 20
8.1152464079
 30
0.0
 11
112.5657965209
 21
6.6152464079
 31
0.0
  0
LINE
  5
B4
330
1F
100
AcDbEntity
  8
0
  6
Continuous
 62
     7
370
    25
100
AcDbLine
 10
147.1907965209
 20
8.1152464079
 30
0.0
 11
147.1907965209
 21
6.6152464079
 31
0.0
  0
LINE
  5
B5
330
1F
100
AcDbEntity
  8
0
  6
Continuous
 62
     7
370
    25
100
AcDbLine
 10
181.8157965209
 20
8.1152464079
 30
0.0
 11
181.8157965209
 21
6.6152464079
 31
0.0
  0
LINE
  5
B6
330
1F
100
AcDbEntity
  8
0
  6
Continuous
 62
     7
370
    25
100
AcDbLine
 10
216.4407965209
 20
8.1152464079
 30
0.0
 11
216.4407965209
 21
6.6152464079
 31
0.0
  0
LINE
  5
B7
330
1F
100
AcDbEntity
  8
0
  6
Continuous
 62
     7
370
    18
100
AcDbLine
 10
285.6907965209
 20
201.3720275751
 30
0.0
 11
8.6907965209
 21
201.3720275751
 31
0.0
  0
LINE
  5
B8
330
1F
100
AcDbEntity
  8
0
  6
Continuous
 62
     7
370
    18
100
AcDbLine
 10
285.6907965209
 20
8.1152464079
 30
0.0
 11
285.6907965209
 21
201.3720275751
 31
0.0
  0
LINE
  5
B9
330
1F
100
AcDbEntity
  8
0
  6
Continuous
 62
     7
370
    18
100
AcDbLine
 10
8.6907965209
 20
201.3720275751
 30
0.0
 11
8.6907965209
 21
8.1152464079
 31
0.0
  0
LINE
  5
BA
330
1F
100
AcDbEntity
  8
0
  6
Continuous
 62
     7
370
    18
100
AcDbLine
 10
8.6907965209
 20
8.1152464079
 30
0.0
 11
285.6907965209
 21
8.1152464079
 31
0.0
  0
LINE
  5
BB
330
1F
100
AcDbEntity
  8
0
  6
Continuous
 62
     7
370
    25
100
AcDbLine
 10
251.0657965209
 20
8.1152464079
 30
0.0
 11
251.0657965209
 21
6.6152464079
 31
0.0
  0
LINE
  5
BC
330
1F
100
AcDbEntity
  8
0
  6
Continuous
 62
     7
370
    25
100
AcDbLine
 10
8.6907965209
 20
40.3252464079
 30
0.0
 11
7.1907965209
 21
40.3252464079
 31
0.0
  0
LINE
  5
BD
330
1F
100
AcDbEntity
  8
0
  6
Continuous
 62
     7
370
    25
100
AcDbLine
 10
8.6907965209
 20
72.5352464079
 30
0.0
 11
7.1907965209
 21
72.5352464079
 31
0.0
  0
LINE
  5
BE
330
1F
100
AcDbEntity
  8
0
  6
Continuous
 62
     7
370
    25
100
AcDbLine
 10
8.6907965209
 20
104.7452464079
 30
0.0
 11
7.1907965209
 21
104.7452464079
 31
0.0
  0
LINE
  5
BF
330
1F
100
AcDbEntity
  8
0
  6
Continuous
 62
     7
370
    25
100
AcDbLine
 10
8.6907965209
 20
136.9552464079
 30
0.0
 11
7.1907965209
 21
136.9552464079
 31
0.0
  0
LINE
  5
C0
330
1F
100
AcDbEntity
  8
0
  6
Continuous
 62
     7
370
    25
100
AcDbLine
 10
8.6907965209
 20
169.1652464079
 30
0.0
 11
7.1907965209
 21
169.1652464079
 31
0.0
  0
LINE
  5
C1
330
1F
100
AcDbEntity
  8
0
  6
Continuous
 62
     7
370
    25
100
AcDbLine
 10
285.6907965209
 20
40.3252464079
 30
0.0
 11
287.1907965209
 21
40.3252464079
 31
0.0
  0
LINE
  5
C2
330
1F
100
AcDbEntity
  8
0
  6
Continuous
 62
     7
370
    25
100
AcDbLine
 10
285.6907965209
 20
72.5352464079
 30
0.0
 11
287.1907965209
 21
72.5352464079
 31
0.0
  0
LINE
  5
C3
330
1F
100
AcDbEntity
  8
0
  6
Continuous
 62
     7
370
    25
100
AcDbLine
 10
285.6907965209
 20
104.7452464079
 30
0.0
 11
287.1907965209
 21
104.7452464079
 31
0.0
  0
LINE
  5
C4
330
1F
100
AcDbEntity
  8
0
  6
Continuous
 62
     7
370
    25
100
AcDbLine
 10
285.6907965209
 20
136.9552464079
 30
0.0
 11
287.1907965209
 21
136.9552464079
 31
0.0
  0
LINE
  5
C5
330
1F
100
AcDbEntity
  8
0
  6
Continuous
 62
     7
370
    25
100
AcDbLine
 10
285.6907965209
 20
169.1652464079
 30
0.0
 11
287.1907965209
 21
169.1652464079
 31
0.0
  0
CIRCLE
  5
C6
330
1F
100
AcDbEntity
  8
0
  6
Continuous
 62
     7
370
    18
100
AcDbCircle
 10
168.3593775185
 20
17.7745192513
 30
0.0
 40
1.5
  0
CIRCLE
  5
C7
330
1F
100
AcDbEntity
  8
0
  6
Continuous
 62
     7
370
    18
100
AcDbCircle
 10
168.3593775185
 20
17.7745192513
 30
0.0
 40
2.5
  0
ARC
  5
C8
330
1F
100
AcDbEntity
  8
工作區域參考線
 62
     1
370
    35
100
AcDbCircle
 10
195.9525692879
 20
35.6478417413
 30
0.0
 40
1.518552937418275
100
AcDbArc
 50
306.0377529468
 51
43.4396461534
  0
ARC
  5
C9
330
1F
100
AcDbEntity
  8
工作區域參考線
 62
     1
370
    35
100
AcDbCircle
 10
192.271589272
 20
35.1222473508
 30
0.0
 40
3.181636704527891
100
AcDbArc
 50
45.5592925416
 51
125.8325555121
  0
ARC
  5
CA
330
1F
100
AcDbEntity
  8
工作區域參考線
 62
     1
370
    35
100
AcDbCircle
 10
192.5892455628
 20
35.6630691563
 30
0.0
 40
2.577567488346266
100
AcDbArc
 50
321.9435288427
 51
42.1815007004
  0
INSERT
  5
CB
330
1F
100
AcDbEntity
  8
0
  6
Continuous
 62
     7
100
AcDbBlockReference
  2
圖塊6
 10
186.9640923647
 20
29.4440528386
 30
0.0
  0
MTEXT
  5
CD
330
1F
100
AcDbEntity
  8
0
  6
Continuous
 62
     7
370
     0
100
AcDbMText
 10
165.5426850804
 20
13.2208440369
 30
0.0
 40
2.6458333333
 41
0.0
 71
     1
 72
     1
  1
UNIT:m/m
  7
SLDTEXTSTYLE0
 73
     1
 44
1.0
  0
INSERT
  5
D4
330
1F
100
AcDbEntity
  8
0
  6
Continuous
 62
     7
370
     0
100
AcDbBlockReference
  2
SW_NOTE_0
 10
12.2315076053
 20
193.8904304251
 30
0.0
  0
MTEXT
  5
D5
330
1F
100
AcDbEntity
  8
0
  6
Continuous
 62
     7
370
     0
100
AcDbMText
 10
198.7251893935
 20
40.4406774139
 30
0.0
 40
2.38125
 41
0.0
 71
     1
 72
     1
  1
Unice E-O Services Inc.
  7
SLDTEXTSTYLE0
 73
     1
 44
1.0
  0
MTEXT
  5
D6
330
1F
100
AcDbEntity
  8
0
  6
Continuous
 62
     7
370
     0
100
AcDbMText
 10
217.5590538149
 20
21.5867148511
 30
0.0
 40
1.8520833333
 41
0.0
 71
     1
 72
     1
  1
2022/8/12
  7
SLDTEXTSTYLE0
 73
     1
 44
1.0
  0
MTEXT
  5
D7
330
1F
100
AcDbEntity
  8
0
  6
Continuous
 62
     7
370
     0
100
AcDbMText
 10
252.6088982507
 20
16.87117774
 30
0.0
 40
2.5
 41
0.0
 71
     1
 72
     1
  1
1:1
  7
SLDTEXTSTYLE0
 73
     1
 44
1.0
  0
MTEXT
  5
D8
330
1F
100
AcDbEntity
  8
0
  6
Continuous
 62
     7
370
     0
100
AcDbMText
 10
252.3075599985
 20
32.1519195438
 30
0.0
 40
2.5
 41
0.0
 71
     1
 72
     1
  1
02FHP-3M
  7
SLDTEXTSTYLE0
 73
     1
 44
1.0
  0
MTEXT
  5
D9
330
1F
100
AcDbEntity
  8
0
  6
Continuous
 62
     7
370
     0
100
AcDbMText
 10
252.3075599985
 20
38.1082117879
 30
0.0
 40
2.5
 41
0.0
 71
     1
 72
     1
  1
02FHP-3M
  7
SLDTEXTSTYLE0
 73
     1
 44
1.0
  0
MTEXT
  5
DA
330
1F
100
AcDbEntity
  8
0
  6
Continuous
 62
     7
370
     0
100
AcDbMText
 10
236.3921866786
 20
16.5064795728
 30
0.0
 40
2.1166666667
 41
0.0
 71
     1
 72
     1
  1
SCALE:
  7
SLDTEXTSTYLE0
 73
     1
 44
1.0
  0
MTEXT
  5
DB
330
1F
100
AcDbEntity
  8
0
  6
Continuous
 62
     7
370
     0
100
AcDbMText
 10
186.3336086789
 20
21.5867148511
 30
0.0
 40
1.8520833333
 41
0.0
 71
     1
 72
     1
  1
DRAWN
  7
SLDTEXTSTYLE0
 73
     1
 44
1.0
  0
MTEXT
  5
DC
330
1F
100
AcDbEntity
  8
0
  6
Continuous
 62
     7
370
     0
100
AcDbMText
 10
203.2228367937
 20
26.683208308
 30
0.0
 40
1.8520833333
 41
0.0
 71
     1
 72
     1
  1
NAME
  7
SLDTEXTSTYLE0
 73
     1
 44
1.0
  0
MTEXT
  5
DD
330
1F
100
AcDbEntity
  8
0
  6
Continuous
 62
     7
370
     0
100
AcDbMText
 10
220.8710155758
 20
26.683208308
 30
0.0
 40
1.8520833333
 41
0.0
 71
     1
 72
     1
  1
DATE
  7
SLDTEXTSTYLE0
 73
     1
 44
1.0
  0
MTEXT
  5
DE
330
1F
100
AcDbEntity
  8
0
  6
Continuous
 62
     7
370
     0
100
AcDbMText
 10
236.2756316645
 20
31.7872213766
 30
0.0
 40
2.1166666667
 41
0.0
 71
     1
 72
     1
  1
DWG. NO.
  7
SLDTEXTSTYLE0
 73
     1
 44
1.0
  0
MTEXT
  5
DF
330
1F
100
AcDbEntity
  8
0
  6
Continuous
 62
     7
370
     0
100
AcDbMText
 10
236.3629907088
 20
41.8840658243
 30
0.0
 40
2.1166666667
 41
0.0
 71
     1
 72
     1
  1
TITLE:
  7
SLDTEXTSTYLE0
 73
     1
 44
1.0
  0
MTEXT
  5
E0
330
1F
100
AcDbEntity
  8
0
  6
Continuous
 62
     7
370
     0
100
AcDbMText
 10
203.0314209802
 20
16.2403789724
 30
0.0
 40
1.8520833333
 41
0.0
 71
     1
 72
     1
  1
Johnny
  7
SLDTEXTSTYLE0
 73
     1
 44
1.0
  0
MTEXT
  5
E1
330
1F
100
AcDbEntity
  8
0
  6
Continuous
 62
     7
370
     0
100
AcDbMText
 10
217.5590538149
 20
16.2403789724
 30
0.0
 40
1.8520833333
 41
0.0
 71
     1
 72
     1
  1
2022/8/12
  7
SLDTEXTSTYLE0
 73
     1
 44
1.0
  0
MTEXT
  5
E2
330
1F
100
AcDbEntity
  8
0
  6
Continuous
 62
     7
370
     0
100
AcDbMText
 10
186.3336086789
 20
16.2403789724
 30
0.0
 40
1.8520833333
 41
0.0
 71
     1
 72
     1
  1
ENG APPR.
  7
SLDTEXTSTYLE0
 73
     1
 44
1.0
  0
MTEXT
  5
E3
330
1F
100
AcDbEntity
  8
0
  6
Continuous
 62
     7
370
     0
100
AcDbMText
 10
236.3921866786
 20
11.6853389288
 30
0.0
 40
2.1166666667
 41
0.0
 71
     1
 72
     1
  1
REV
  7
SLDTEXTSTYLE0
 73
     1
 44
1.0
  0
MTEXT
  5
E4
330
1F
100
AcDbEntity
  8
0
  6
Continuous
 62
     7
370
     0
100
AcDbMText
 10
236.3629907088
 20
26.9493089085
 30
0.0
 40
2.1166666667
 41
0.0
 71
     1
 72
     1
  1
MATERIAL:
  7
SLDTEXTSTYLE0
 73
     1
 44
1.0
  0
MTEXT
  5
E5
330
1F
100
AcDbEntity
  8
0
  6
Continuous
 62
     7
370
     0
100
AcDbMText
 10
252.6088982507
 20
22.2175136187
 30
0.0
 40
2.5
 41
0.0
 71
     1
 72
     1
  1
N/A
  7
SLDTEXTSTYLE0
 73
     1
 44
1.0
  0
MTEXT
  5
E6
330
1F
100
AcDbEntity
  8
0
  6
Continuous
 62
     7
370
     0
100
AcDbMText
 10
26.6029931533
 20
204.453351657
 30
0.0
 40
2.1166666667
 41
0.0
 71
     1
 72
     1
  1
1
  7
SLDTEXTSTYLE0
 73
     1
 44
1.0
  0
MTEXT
  5
E7
330
1F
100
AcDbEntity
  8
0
  6
Continuous
 62
     7
370
     0
100
AcDbMText
 10
60.7170995724
 20
204.453351657
 30
0.0
 40
2.1166666667
 41
0.0
 71
     1
 72
     1
  1
2
  7
SLDTEXTSTYLE0
 73
     1
 44
1.0
  0
MTEXT
  5
E8
330
1F
100
AcDbEntity
  8
0
  6
Continuous
 62
     7
370
     0
100
AcDbMText
 10
94.9009943906
 20
204.453351657
 30
0.0
 40
2.1166666667
 41
0.0
 71
     1
 72
     1
  1
3
  7
SLDTEXTSTYLE0
 73
     1
 44
1.0
  0
MTEXT
  5
E9
330
1F
100
AcDbEntity
  8
0
  6
Continuous
 62
     7
370
     0
100
AcDbMText
 10
129.2533362851
 20
204.2992584364
 30
0.0
 40
2.1166666667
 41
0.0
 71
     1
 72
     1
  1
4
  7
SLDTEXTSTYLE0
 73
     1
 44
1.0
  0
MTEXT
  5
EA
330
1F
100
AcDbEntity
  8
0
  6
Continuous
 62
     7
370
     0
100
AcDbMText
 10
163.702323464
 20
204.453351657
 30
0.0
 40
2.1166666667
 41
0.0
 71
     1
 72
     1
  1
5
  7
SLDTEXTSTYLE0
 73
     1
 44
1.0
  0
MTEXT
  5
EB
330
1F
100
AcDbEntity
  8
0
  6
Continuous
 62
     7
370
     0
100
AcDbMText
 10
198.6382170415
 20
204.453351657
 30
0.0
 40
2.1166666667
 41
0.0
 71
     1
 72
     1
  1
6
  7
SLDTEXTSTYLE0
 73
     1
 44
1.0
  0
MTEXT
  5
EC
330
1F
100
AcDbEntity
  8
0
  6
Continuous
 62
     7
370
     0
100
AcDbMText
 10
234.3630657407
 20
204.453351657
 30
0.0
 40
2.1166666667
 41
0.0
 71
     1
 72
     1
  1
7
  7
SLDTEXTSTYLE0
 73
     1
 44
1.0
  0
MTEXT
  5
ED
330
1F
100
AcDbEntity
  8
0
  6
Continuous
 62
     7
370
     0
100
AcDbMText
 10
266.2787820494
 20
204.453351657
 30
0.0
 40
2.1166666667
 41
0.0
 71
     1
 72
     1
  1
8
  7
SLDTEXTSTYLE0
 73
     1
 44
1.0
  0
MTEXT
  5
EE
330
1F
100
AcDbEntity
  8
0
  6
Continuous
 62
     7
370
     0
100
AcDbMText
 10
5.3568236555
 20
185.8113022879
 30
0.0
 40
2.1166666667
 41
0.0
 71
     1
 72
     1
  1
A
  7
SLDTEXTSTYLE0
 73
     1
 44
1.0
  0
MTEXT
  5
EF
330
1F
100
AcDbEntity
  8
0
  6
Continuous
 62
     7
370
     0
100
AcDbMText
 10
5.5910431831
 20
154.2993048238
 30
0.0
 40
2.1166666667
 41
0.0
 71
     1
 72
     1
  1
B
  7
SLDTEXTSTYLE0
 73
     1
 44
1.0
  0
MTEXT
  5
F0
330
1F
100
AcDbEntity
  8
0
  6
Continuous
 62
     7
370
     0
100
AcDbMText
 10
5.5910431831
 20
121.274351423
 30
0.0
 40
2.1166666667
 41
0.0
 71
     1
 72
     1
  1
C
  7
SLDTEXTSTYLE0
 73
     1
 44
1.0
  0
MTEXT
  5
F1
330
1F
100
AcDbEntity
  8
0
  6
Continuous
 62
     7
370
     0
100
AcDbMText
 10
5.5910431831
 20
88.7453220221
 30
0.0
 40
2.1166666667
 41
0.0
 71
     1
 72
     1
  1
D
  7
SLDTEXTSTYLE0
 73
     1
 44
1.0
  0
MTEXT
  5
F2
330
1F
100
AcDbEntity
  8
0
  6
Continuous
 62
     7
370
     0
100
AcDbMText
 10
5.5910431831
 20
57.5558849197
 30
0.0
 40
2.1166666667
 41
0.0
 71
     1
 72
     1
  1
E
  7
SLDTEXTSTYLE0
 73
     1
 44
1.0
  0
MTEXT
  5
F3
330
1F
100
AcDbEntity
  8
0
  6
Continuous
 62
     7
370
     0
100
AcDbMText
 10
5.5910431831
 20
25.5694212252
 30
0.0
 40
2.1166666667
 41
0.0
 71
     1
 72
     1
  1
F
  7
SLDTEXTSTYLE0
 73
     1
 44
1.0
  0
MTEXT
  5
F4
330
1F
100
AcDbEntity
  8
0
  6
Continuous
 62
     7
370
     0
100
AcDbMText
 10
266.1858616964
 20
6.6236223963
 30
0.0
 40
2.1166666667
 41
0.0
 71
     1
 72
     1
  1
8
  7
SLDTEXTSTYLE0
 73
     1
 44
1.0
  0
MTEXT
  5
F5
330
1F
100
AcDbEntity
  8
0
  6
Continuous
 62
     7
370
     0
100
AcDbMText
 10
234.2701453876
 20
6.6236223963
 30
0.0
 40
2.1166666667
 41
0.0
 71
     1
 72
     1
  1
7
  7
SLDTEXTSTYLE0
 73
     1
 44
1.0
  0
MTEXT
  5
F6
330
1F
100
AcDbEntity
  8
0
  6
Continuous
 62
     7
370
     0
100
AcDbMText
 10
198.5452966885
 20
6.6236223963
 30
0.0
 40
2.1166666667
 41
0.0
 71
     1
 72
     1
  1
6
  7
SLDTEXTSTYLE0
 73
     1
 44
1.0
  0
MTEXT
  5
F7
330
1F
100
AcDbEntity
  8
0
  6
Continuous
 62
     7
370
     0
100
AcDbMText
 10
163.6094031109
 20
6.6236223963
 30
0.0
 40
2.1166666667
 41
0.0
 71
     1
 72
     1
  1
5
  7
SLDTEXTSTYLE0
 73
     1
 44
1.0
  0
MTEXT
  5
F8
330
1F
100
AcDbEntity
  8
0
  6
Continuous
 62
     7
370
     0
100
AcDbMText
 10
129.1604159321
 20
6.4695291758
 30
0.0
 40
2.1166666667
 41
0.0
 71
     1
 72
     1
  1
4
  7
SLDTEXTSTYLE0
 73
     1
 44
1.0
  0
MTEXT
  5
F9
330
1F
100
AcDbEntity
  8
0
  6
Continuous
 62
     7
370
     0
100
AcDbMText
 10
94.8080740376
 20
6.6236223963
 30
0.0
 40
2.1166666667
 41
0.0
 71
     1
 72
     1
  1
3
  7
SLDTEXTSTYLE0
 73
     1
 44
1.0
  0
MTEXT
  5
FA
330
1F
100
AcDbEntity
  8
0
  6
Continuous
 62
     7
370
     0
100
AcDbMText
 10
60.6241792194
 20
6.6236223963
 30
0.0
 40
2.1166666667
 41
0.0
 71
     1
 72
     1
  1
2
  7
SLDTEXTSTYLE0
 73
     1
 44
1.0
  0
MTEXT
  5
FB
330
1F
100
AcDbEntity
  8
0
  6
Continuous
 62
     7
370
     0
100
AcDbMText
 10
26.5100728003
 20
6.6236223963
 30
0.0
 40
2.1166666667
 41
0.0
 71
     1
 72
     1
  1
1
  7
SLDTEXTSTYLE0
 73
     1
 44
1.0
  0
MTEXT
  5
FC
330
1F
100
AcDbEntity
  8
0
  6
Continuous
 62
     7
370
     0
100
AcDbMText
 10
287.1023846145
 20
186.6424909092
 30
0.0
 40
2.1166666667
 41
0.0
 71
     1
 72
     1
  1
A
  7
SLDTEXTSTYLE0
 73
     1
 44
1.0
  0
MTEXT
  5
FD
330
1F
100
AcDbEntity
  8
0
  6
Continuous
 62
     7
370
     0
100
AcDbMText
 10
287.3366041421
 20
155.1304934451
 30
0.0
 40
2.1166666667
 41
0.0
 71
     1
 72
     1
  1
B
  7
SLDTEXTSTYLE0
 73
     1
 44
1.0
  0
MTEXT
  5
FE
330
1F
100
AcDbEntity
  8
0
  6
Continuous
 62
     7
370
     0
100
AcDbMText
 10
287.3366041421
 20
122.1055400442
 30
0.0
 40
2.1166666667
 41
0.0
 71
     1
 72
     1
  1
C
  7
SLDTEXTSTYLE0
 73
     1
 44
1.0
  0
MTEXT
  5
FF
330
1F
100
AcDbEntity
  8
0
  6
Continuous
 62
     7
370
     0
100
AcDbMText
 10
287.3366041421
 20
89.5765106433
 30
0.0
 40
2.1166666667
 41
0.0
 71
     1
 72
     1
  1
D
  7
SLDTEXTSTYLE0
 73
     1
 44
1.0
  0
MTEXT
  5
100
330
1F
100
AcDbEntity
  8
0
  6
Continuous
 62
     7
370
     0
100
AcDbMText
 10
287.3366041421
 20
58.3870735409
 30
0.0
 40
2.1166666667
 41
0.0
 71
     1
 72
     1
  1
E
  7
SLDTEXTSTYLE0
 73
     1
 44
1.0
  0
MTEXT
  5
101
330
1F
100
AcDbEntity
  8
0
  6
Continuous
 62
     7
370
     0
100
AcDbMText
 10
287.3366041421
 20
26.4006098464
 30
0.0
 40
2.1166666667
 41
0.0
 71
     1
 72
     1
  1
F
  7
SLDTEXTSTYLE0
 73
     1
 44
1.0
  0
MTEXT
  5
102
330
1F
100
AcDbEntity
  8
0
  6
Continuous
 62
     7
370
     0
100
AcDbMText
 10
203.1553128802
 20
21.5867148511
 30
0.0
 40
1.8520833333
 41
0.0
 71
     1
 72
     1
  1
Ace
  7
SLDTEXTSTYLE0
 73
     1
 44
1.0
  0
MTEXT
  5
104
330
1F
100
AcDbEntity
  8
0
  6
Continuous
 62
     7
370
     0
100
AcDbMText
 10
252.8482239645
 20
12.2219603318
 30
0.0
 40
2.38125
 41
0.0
 71
     1
 72
     1
  1
0
  7
SLDTEXTSTYLE1
 73
     1
 44
1.0
  0
INSERT
  5
10A
330
1F
100
AcDbEntity
  8
SLD-0
 62
     7
100
AcDbBlockReference
  2
SW_NOTE_0_1
 10
198.7251893935
 20
33.5479745212
 30
0.0
  0
INSERT
  5
11C
330
1F
100
AcDbEntity
  8
DIM
100
AcDbBlockReference
  2
SW_TABLEANNOTATION_0
 10
8.6907965209
 20
21.0953354643
 30
0.0
  0
LINE
  5
11D
330
1F
100
AcDbEntity
  8
0
  6
Continuous
 62
     7
370
    35
100
AcDbLine
 10
125.3045454545
 20
41.5873150106
 30
0.0
 11
125.3045454545
 21
45.3873150106
 31
0.0
  0
LINE
  5
11E
330
1F
100
AcDbEntity
  8
0
  6
Continuous
 62
     7
370
    35
100
AcDbLine
 10
93.8045454545
 20
45.3873150106
 30
0.0
 11
93.8045454545
 21
41.5873150106
 31
0.0
  0
LINE
  5
11F
330
1F
100
AcDbEntity
  8
0
  6
Continuous
 62
     7
370
    35
100
AcDbLine
 10
125.3045454545
 20
45.3873150106
 30
0.0
 11
124.8045454545
 21
45.8873150106
 31
0.0
  0
LINE
  5
120
330
1F
100
AcDbEntity
  8
0
  6
Continuous
 62
     7
370
    35
100
AcDbLine
 10
94.3045454545
 20
45.8873150106
 30
0.0
 11
93.8045454545
 21
45.3873150106
 31
0.0
  0
LINE
  5
121
330
1F
100
AcDbEntity
  8
0
  6
Continuous
 62
     7
370
    35
100
AcDbLine
 10
93.8045454545
 20
41.5873150106
 30
0.0
 11
94.3045454545
 21
41.0873150106
 31
0.0
  0
LINE
  5
122
330
1F
100
AcDbEntity
  8
0
  6
Continuous
 62
     7
370
    35
100
AcDbLine
 10
124.8045454545
 20
41.0873150106
 30
0.0
 11
125.3045454545
 21
41.5873150106
 31
0.0
  0
LINE
  5
123
330
1F
100
AcDbEntity
  8
0
  6
Continuous
 62
     7
370
    35
100
AcDbLine
 10
122.3045454545
 20
45.8873150106
 30
0.0
 11
122.3045454545
 21
117.0873150106
 31
0.0
  0
LINE
  5
124
330
1F
100
AcDbEntity
  8
0
  6
Continuous
 62
     7
370
    35
100
AcDbLine
 10
96.8045454545
 20
117.0873150106
 30
0.0
 11
96.8045454545
 21
45.8873150106
 31
0.0
  0
ARC
  5
125
330
1F
100
AcDbEntity
  8
0
  6
Continuous
 62
     7
370
    35
100
AcDbCircle
 10
122.1045454545
 20
117.0873150106
 30
0.0
 40
0.2000000000000028
100
AcDbArc
 50
0.0
 51
90.0
  0
ARC
  5
126
330
1F
100
AcDbEntity
  8
0
  6
Continuous
 62
     7
370
    35
100
AcDbCircle
 10
97.0045454545
 20
117.0873150106
 30
0.0
 40
0.2000000000000028
100
AcDbArc
 50
90.0
 51
180.0
  0
LINE
  5
127
330
1F
100
AcDbEntity
  8
0
  6
Continuous
 62
     7
370
    35
100
AcDbLine
 10
125.3045454545
 20
45.3873150106
 30
0.0
 11
93.8045454545
 21
45.3873150106
 31
0.0
  0
LINE
  5
128
330
1F
100
AcDbEntity
  8
0
  6
Continuous
 62
     7
370
    35
100
AcDbLine
 10
125.3045454545
 20
41.5873150106
 30
0.0
 11
93.8045454545
 21
41.5873150106
 31
0.0
  0
LINE
  5
129
330
1F
100
AcDbEntity
  8
0
  6
Continuous
 62
     7
370
    35
100
AcDbLine
 10
124.8045454545
 20
45.8873150106
 30
0.0
 11
94.3045454545
 21
45.8873150106
 31
0.0
  0
LINE
  5
12A
330
1F
100
AcDbEntity
  8
0
  6
Continuous
 62
     7
370
    35
100
AcDbLine
 10
124.8045454545
 20
41.0873150106
 30
0.0
 11
94.3045454545
 21
41.0873150106
 31
0.0
  0
SPLINE
  5
12B
330
1F
100
AcDbEntity
  8
0
  6
Continuous
 62
     7
370
    35
100
AcDbSpline
210
0.0
220
0.0
230
1.0
 70
    11
 71
     3
 72
    39
 73
    35
 74
     0
 42
0.00000001
 43
0.00000001
 40
0.0
 40
0.0
 40
0.0
 40
0.0
 40
0.0304711047358305
 40
0.0616128050022285
 40
0.0926989369445853
 40
0.1238047496721479
 40
0.1550084202652156
 40
0.1866547090405347
 40
0.2184935441084083
 40
0.249985246178823
 40
0.2814766304984385
 40
0.3134037919953726
 40
0.345092452365423
 40
0.3763355105415868
 40
0.4073979224917678
 40
0.4384990658153085
 40
0.4696085146645776
 40
0.5000850921382599
 40
0.5305237348134829
 40
0.5616323568110418
 40
0.5926917275391665
 40
0.6237798831886276
 40
0.6550139972375383
 40
0.6866944897306959
 40
0.7185761981160043
 40
0.7500980062709046
 40
0.7815824490079404
 40
0.8134916659751127
 40
0.8451314409404904
 40
0.8763689132159777
 40
0.9074261223718602
 40
0.9384656442090934
 40
0.9695636786009981
 40
1.0
 40
1.0
 40
1.0
 40
1.0
 10
113.1949597921607
 20
97.28731501057095
 30
0.0
 10
113.1948240891475
 20
97.05742414133309
 30
0.0
 10
113.1467463891336
 20
96.59262693228317
 30
0.0
 10
112.932279239947
 20
95.92623832523525
 30
0.0
 10
112.5957262443901
 20
95.31062795436993
 30
0.0
 10
112.1424198356782
 20
94.77699871560633
 30
0.0
 10
111.590906886661
 20
94.33879203616799
 30
0.0
 10
110.9571579445985
 20
94.01450330588888
 30
0.0
 10
110.2701111345405
 20
93.80860885787978
 30
0.0
 10
109.5548564999514
 20
93.74047448590785
 30
0.0
 10
108.8390078399265
 20
93.8093474611579
 30
0.0
 10
108.1511968757746
 20
94.01608115288182
 30
0.0
 10
107.5163417280216
 20
94.34090367344989
 30
0.0
 10
106.9644326349598
 20
94.77906728524698
 30
0.0
 10
106.5111767350241
 20
95.3128731346341
 30
0.0
 10
106.175423623341
 20
95.92844844205523
 30
0.0
 10
105.9616431591445
 20
96.59497208664276
 30
0.0
 10
105.8905620113634
 20
97.28927225116688
 30
0.0
 10
105.9619077368996
 20
97.98353609615866
 30
0.0
 10
106.176014728195
 20
98.64933415304736
 30
0.0
 10
106.5124161957517
 20
99.26440138117819
 30
0.0
 10
106.9663732982865
 20
99.7973484797503
 30
0.0
 10
107.5187184384393
 20
100.2350041244264
 30
0.0
 10
108.1533096132686
 20
100.5593570696915
 30
0.0
 10
108.8411053047175
 20
100.7655166060232
 30
0.0
 10
109.5568002305232
 20
100.8341818526493
 30
0.0
 10
110.2727497526734
 20
100.7656751922927
 30
0.0
 10
110.9599668003032
 20
100.5587885935138
 30
0.0
 10
111.5939932216597
 20
100.2335233438032
 30
0.0
 10
112.1450346150536
 20
99.79501130429452
 30
0.0
 10
112.5978892177417
 20
99.2616398720219
 30
0.0
 10
112.9337757431949
 20
98.64685220571835
 30
0.0
 10
113.1476814409251
 20
97.98123644009843
 30
0.0
 10
113.1950953402663
 20
97.51694345507539
 30
0.0
 10
113.1949597921607
 20
97.28731501057098
 30
0.0
  0
SPLINE
  5
12C
330
1F
100
AcDbEntity
  8
0
  6
Continuous
 62
     7
370
    35
100
AcDbSpline
210
0.0
220
0.0
230
1.0
 70
    11
 71
     3
 72
    44
 73
    40
 74
     0
 42
0.00000001
 43
0.00000001
 40
0.0
 40
0.0
 40
0.0
 40
0.0
 40
0.019630726327467
 40
0.0419199423646905
 40
0.0668976582085414
 40
0.094584536686101
 40
0.1249951058375257
 40
0.1549204409098711
 40
0.1823690255852581
 40
0.2073566031758146
 40
0.2299046842358443
 40
0.2500432211582937
 40
0.2849614652505007
 40
0.3265533047137826
 40
0.3749094729179549
 40
0.4004943413320107
 40
0.424171241226764
 40
0.4459480939512378
 40
0.4658353682677422
 40
0.4838471090480623
 40
0.5000025392621985
 40
0.5341766318218214
 40
0.5757734114103731
 40
0.6248772580270617
 40
0.6499955736960399
 40
0.6733979069894154
 40
0.6950929578454209
 40
0.7150918503575088
 40
0.7334089974888837
 40
0.7500633800324052
 40
0.7848981167143954
 40
0.8264369968568074
 40
0.8747705730114353
 40
0.9003704577849488
 40
0.9240654044097253
 40
0.9458633729959334
 40
0.9657748741916117
 40
0.9838139959054375
 40
1.0
 40
1.0
 40
1.0
 40
1.0
 10
112.8045454545453
 20
97.28731501057098
 30
0.0
 10
112.804543469172
 20
97.42158035321005
 30
0.0
 10
112.7867405440403
 20
97.70834485361578
 30
0.0
 10
112.6983508537552
 20
98.15750248546948
 30
0.0
 10
112.5262071153434
 20
98.63950769564725
 30
0.0
 10
112.2506700335625
 20
99.13403759738297
 30
0.0
 10
111.8699175069493
 20
99.59535493264772
 30
0.0
 10
111.4109360846698
 20
99.97625190311196
 30
0.0
 10
110.9219472948515
 20
100.2518692510412
 30
0.0
 10
110.440631167664
 20
100.4268288113073
 30
0.0
 10
109.9865305444776
 20
100.5184009715346
 30
0.0
 10
109.4558603235009
 20
100.5526474765066
 30
0.0
 10
108.7935432173071
 20
100.4796920968659
 30
0.0
 10
107.9871556708146
 20
100.1841635687353
 30
0.0
 10
107.34731097656
 20
99.71335231044695
 30
0.0
 10
106.9182833997166
 20
99.20985294211216
 30
0.0
 10
106.664808430113
 20
98.79851786100214
 30
0.0
 10
106.4875253733595
 20
98.39020503856023
 30
0.0
 10
106.3753961390778
 20
97.99853541634654
 30
0.0
 10
106.3167055156484
 20
97.63350182290101
 30
0.0
 10
106.2924934460934
 20
97.16627280166246
 30
0.0
 10
106.3604173719765
 20
96.53635154855641
 30
0.0
 10
106.652065417
 20
95.7288092615336
 30
0.0
 10
107.1227293603842
 20
95.08597327388138
 30
0.0
 10
107.6255810074658
 20
94.6562286822614
 30
0.0
 10
108.031244254639
 20
94.40412776998491
 30
0.0
 10
108.4372508909169
 20
94.22549573861683
 30
0.0
 10
108.8306810153672
 20
94.1108429086598
 30
0.0
 10
109.2017779442084
 20
94.04988432697034
 30
0.0
 10
109.6790447564438
 20
94.02474092980415
 30
0.0
 10
110.3165707624853
 20
94.09529306927432
 30
0.0
 10
111.1218402494315
 20
94.3905045616485
 30
0.0
 10
111.7614151106751
 20
94.86095714767347
 30
0.0
 10
112.1905793046286
 20
95.36443482798065
 30
0.0
 10
112.444280852666
 20
95.77606860082533
 30
0.0
 10
112.62171932274
 20
96.18478876278911
 30
0.0
 10
112.7339086902038
 20
96.57697020697186
 30
0.0
 10
112.7925689317787
 20
96.94255983748648
 30
0.0
 10
112.8045470915332
 20
97.1766100193515
 30
0.0
 10
112.8045454545453
 20
97.28731501057098
 30
0.0
  0
LINE
  5
12D
330
1F
100
AcDbEntity
  8
0
  6
Continuous
 62
     7
370
    35
100
AcDbLine
 10
122.1045454545
 20
117.2873150106
 30
0.0
 11
97.0045454545
 21
117.2873150106
 31
0.0
  0
LINE
  5
12E
330
1F
100
AcDbEntity
  8
0
  6
Continuous
 62
     8
370
    35
100
AcDbLine
 10
122.3045454545
 20
117.0873150106
 30
0.0
 11
96.8045454545
 21
117.0873150106
 31
0.0
  0
LINE
  5
12F
330
1F
100
AcDbEntity
  8
0
  6
HIDDEN
 62
     7
370
    25
100
AcDbLine
 10
109.5545454545
 20
100.8114152665
 30
0.0
 11
109.1007199679
 21
100.7674313751
 31
0.0
  0
LINE
  5
130
330
1F
100
AcDbEntity
  8
0
  6
HIDDEN
 62
     7
370
    25
100
AcDbLine
 10
113.1511711079
 20
96.8640763152
 30
0.0
 11
113.1948399076
 21
97.2884865038
 31
0.0
  0
SPLINE
  5
131
330
1F
100
AcDbEntity
  8
0
  6
HIDDEN
 62
     7
370
    25
100
AcDbSpline
210
0.0
220
0.0
230
1.0
 70
     8
 71
     3
 72
     9
 73
     5
 74
     0
 42
0.00000001
 43
0.00000001
 40
0.0
 40
0.0
 40
0.0
 40
0.0
 40
0.0006173520927228
 40
1.0
 40
1.0
 40
1.0
 40
1.0
 10
110.2628151889132
 20
100.7434057446259
 30
0.0
 10
110.2626752185172
 20
100.743447340636
 30
0.0
 10
110.0359482055165
 20
100.8108254392445
 30
0.0
 10
109.7951725083406
 20
100.8111204439262
 30
0.0
 10
109.5545454545453
 20
100.8114152664861
 30
0.0
  0
LINE
  5
132
330
1F
100
AcDbEntity
  8
0
  6
HIDDEN
 62
     7
370
    25
100
AcDbLine
 10
122.3022622186
 20
41.1873150106
 30
0.0
 11
96.8068286905
 21
41.1873150106
 31
0.0
  0
LINE
  5
133
330
1F
100
AcDbEntity
  8
0
  6
HIDDEN
 62
     7
370
    25
100
AcDbLine
 10
96.8068286905
 20
41.3873150106
 30
0.0
 11
122.3022622186
 21
41.3873150106
 31
0.0
  0
LINE
  5
134
330
1F
100
AcDbEntity
  8
0
  6
HIDDEN
 62
     7
370
    25
100
AcDbLine
 10
112.0545454545
 20
51.0873150106
 30
0.0
 11
107.0545454545
 21
51.0873150106
 31
0.0
  0
LINE
  5
135
330
1F
100
AcDbEntity
  8
0
  6
HIDDEN
 62
     7
370
    25
100
AcDbLine
 10
109.5545454545
 20
109.2873150106
 30
0.0
 11
111.2045454545
 21
109.2873150106
 31
0.0
  0
LINE
  5
136
330
1F
100
AcDbEntity
  8
0
  6
HIDDEN
 62
     7
370
    25
100
AcDbLine
 10
107.9045454545
 20
109.2873150106
 30
0.0
 11
109.5545454545
 21
109.2873150106
 31
0.0
  0
ARC
  5
137
330
1F
100
AcDbEntity
  8
0
  6
HIDDEN
 62
     7
370
    25
100
AcDbCircle
 10
96.7045454545
 20
41.1873150106
 30
0.0
 40
0.1000000000000014
100
AcDbArc
 50
270.0
 51
360.0
  0
ARC
  5
138
330
1F
100
AcDbEntity
  8
0
  6
HIDDEN
 62
     7
370
    25
100
AcDbCircle
 10
122.4045454545
 20
41.1873150106
 30
0.0
 40
0.1000000000000085
100
AcDbArc
 50
180.0
 51
270.0
  0
LINE
  5
139
330
1F
100
AcDbEntity
  8
0
  6
HIDDEN
 62
     7
370
    25
100
AcDbLine
 10
122.3045454545
 20
41.1873150106
 30
0.0
 11
122.3045454545
 21
41.3873150106
 31
0.0
  0
LINE
  5
13A
330
1F
100
AcDbEntity
  8
0
  6
HIDDEN
 62
     7
370
    25
100
AcDbLine
 10
96.8045454545
 20
41.3873150106
 30
0.0
 11
96.8045454545
 21
41.1873150106
 31
0.0
  0
ARC
  5
13B
330
1F
100
AcDbEntity
  8
0
  6
HIDDEN
 62
     7
370
    25
100
AcDbCircle
 10
122.1045454545
 20
41.3873150106
 30
0.0
 40
0.2000000000000028
100
AcDbArc
 50
360.0
 51
90.0
  0
ARC
  5
13C
330
1F
100
AcDbEntity
  8
0
  6
HIDDEN
 62
     7
370
    25
100
AcDbCircle
 10
97.0045454545
 20
41.3873150106
 30
0.0
 40
0.2000000000000028
100
AcDbArc
 50
90.0
 51
180.0
  0
LINE
  5
13D
330
1F
100
AcDbEntity
  8
0
  6
HIDDEN
 62
     7
370
    25
100
AcDbLine
 10
112.0545454545
 20
41.5873150106
 30
0.0
 11
112.0545454545
 21
51.0873150106
 31
0.0
  0
LINE
  5
13E
330
1F
100
AcDbEntity
  8
0
  6
HIDDEN
 62
     7
370
    25
100
AcDbLine
 10
107.0545454545
 20
51.0873150106
 30
0.0
 11
107.0545454545
 21
41.5873150106
 31
0.0
  0
LINE
  5
13F
330
1F
100
AcDbEntity
  8
0
  6
HIDDEN
 62
     7
370
    25
100
AcDbLine
 10
112.0545454545
 20
51.0873150106
 30
0.0
 11
109.5545454545
 21
52.5306906835
 31
0.0
  0
LINE
  5
140
330
1F
100
AcDbEntity
  8
0
  6
HIDDEN
 62
     7
370
    25
100
AcDbLine
 10
109.5545454545
 20
52.5306906835
 30
0.0
 11
107.0545454545
 21
51.0873150106
 31
0.0
  0
LINE
  5
141
330
1F
100
AcDbEntity
  8
0
  6
HIDDEN
 62
     7
370
    25
100
AcDbLine
 10
107.9045454545
 20
117.2873150106
 30
0.0
 11
107.9045454545
 21
109.2873150106
 31
0.0
  0
LINE
  5
142
330
1F
100
AcDbEntity
  8
0
  6
HIDDEN
 62
     7
370
    25
100
AcDbLine
 10
111.2045454545
 20
109.2873150106
 30
0.0
 11
111.2045454545
 21
117.2873150106
 31
0.0
  0
LINE
  5
143
330
1F
100
AcDbEntity
  8
0
  6
HIDDEN
 62
     7
370
    25
100
AcDbLine
 10
107.9045454545
 20
109.2873150106
 30
0.0
 11
109.5545454545
 21
108.3346870664
 31
0.0
  0
LINE
  5
144
330
1F
100
AcDbEntity
  8
0
  6
HIDDEN
 62
     7
370
    25
100
AcDbLine
 10
109.5545454545
 20
108.3346870664
 30
0.0
 11
111.2045454545
 21
109.2873150106
 31
0.0
  0
LINE
  5
145
330
1F
100
AcDbEntity
  8
0
  6
HIDDEN
 62
     7
370
    25
100
AcDbLine
 10
109.5545454545
 20
117.0873150106
 30
0.0
 11
122.3045454545
 21
117.0873150106
 31
0.0
  0
LINE
  5
146
330
1F
100
AcDbEntity
  8
0
  6
HIDDEN
 62
     7
370
    25
100
AcDbLine
 10
96.8045454545
 20
117.0873150106
 30
0.0
 11
109.5545454545
 21
117.0873150106
 31
0.0
  0
DIMENSION
  5
147
330
1F
100
AcDbEntity
  8
DIM
100
AcDbDimension
  2
_D
 10
94.3045454545
 20
41.0873150106
 30
0.0
 11
67.6495798089
 21
41.0873150106
 31
0.0
 70
    38
  1
<>
 71
     5
 42
-1.0
  3
SLDDIMSTYLE0
100
AcDbOrdinateDimension
 13
94.3045454545
 23
41.0873150106
 33
0.0
 14
68.3948228525
 24
41.0873150106
 34
0.0
  0
DIMENSION
  5
153
330
1F
100
AcDbEntity
  8
DIM
100
AcDbDimension
  2
_D_1
 10
94.3045454545
 20
41.0873150106
 30
0.0
 11
66.5317151852
 21
44.2940649718
 31
0.0
 70
    38
  1
<>
 71
     5
 42
-1.0
  3
SLDDIMSTYLE1
100
AcDbOrdinateDimension
 13
93.8045454545
 23
41.5873150106
 33
0.0
 14
68.3948228525
 24
44.2940649718
 34
0.0
  0
DIMENSION
  5
15C
330
1F
100
AcDbEntity
  8
DIM
100
AcDbDimension
  2
_D_2
 10
94.3045454545
 20
41.0873150106
 30
0.0
 11
66.5317151852
 21
47.5008149331
 31
0.0
 70
    38
  1
<>
 71
     5
 42
-1.0
  3
SLDDIMSTYLE2
100
AcDbOrdinateDimension
 13
94.3045454545
 23
45.8873150106
 33
0.0
 14
68.3948228525
 24
47.5008149331
 34
0.0
  0
DIMENSION
  5
165
330
1F
100
AcDbEntity
  8
DIM
100
AcDbDimension
  2
_D_3
 10
94.3045454545
 20
41.0873150106
 30
0.0
 11
65.7864723744
 21
97.2873150106
 31
0.0
 70
    38
  1
<>
 71
     5
 42
-1.0
  3
SLDDIMSTYLE2
100
AcDbOrdinateDimension
 13
105.3045454545
 23
97.2873150106
 33
0.0
 14
68.3948228525
 24
97.2873150106
 34
0.0
  0
DIMENSION
  5
16B
330
1F
100
AcDbEntity
  8
DIM
100
AcDbDimension
  2
_D_4
 10
94.3045454545
 20
41.0873150106
 30
0.0
 11
65.7864723744
 21
117.2873150106
 31
0.0
 70
    38
  1
<>
 71
     5
 42
-1.0
  3
SLDDIMSTYLE2
100
AcDbOrdinateDimension
 13
97.0045454545
 23
117.2873150106
 33
0.0
 14
68.3948228525
 24
117.2873150106
 34
0.0
  0
DIMENSION
  5
171
330
1F
100
AcDbEntity
  8
DIM
100
AcDbDimension
  2
_D_5
 10
122.3045454545
 20
26.4632020414
 30
0.0
 11
109.5545454545
 21
26.4632020414
 31
0.0
 70
   160
  1
%%c<>
 71
     2
 42
-1.0
  3
SLDDIMSTYLE3
100
AcDbAlignedDimension
 13
96.8045454545
 23
41.1873150106
 33
0.0
 14
122.3045454545
 24
41.1873150106
 34
0.0
100
AcDbRotatedDimension
  0
DIMENSION
  5
17D
330
1F
100
AcDbEntity
  8
DIM
100
AcDbDimension
  2
_D_6
 10
125.3045454545
 20
15.5761218103
 30
0.0
 11
109.5545454545
 21
15.5761218103
 31
0.0
 70
   160
  1
%%c<>
 71
     2
 42
-1.0
  3
SLDDIMSTYLE3
100
AcDbAlignedDimension
 13
93.8045454545
 23
41.5873150106
 33
0.0
 14
125.3045454545
 24
41.5873150106
 34
0.0
100
AcDbRotatedDimension
  0
DIMENSION
  5
188
330
1F
100
AcDbEntity
  8
DIM
100
AcDbDimension
  2
_D_7
 10
122.3045454545
 20
134.2873150106
 30
0.0
 11
109.5545454545
 21
134.2873150106
 31
0.0
 70
   160
  1
%%c<>
 71
     2
 42
-1.0
  3
SLDDIMSTYLE3
100
AcDbAlignedDimension
 13
96.8045454545
 23
117.0873150106
 33
0.0
 14
122.3045454545
 24
117.0873150106
 34
0.0
100
AcDbRotatedDimension
  0
DIMENSION
  5
193
330
1F
100
AcDbEntity
  8
DIM
100
AcDbDimension
  2
_D_8
 10
112.2755455958
 20
95.5100535691
 30
0.0
 11
77.5896640537
 21
114.1855844427
 31
0.0
 70
   163
  1
<> HOLE
 71
     1
 42
-1.0
  3
SLDDIMSTYLE4
100
AcDbDiametricDimension
 15
106.8335453133
 25
99.0645764521
 35
0.0
 40
0.0
  0
INSERT
  5
1A3
102
{ACAD_REACTORS
330
1A5
102
}
330
1F
100
AcDbEntity
  8
DIM
100
AcDbBlockReference
  2
SW_NOTE_0_2
 10
74.1967544546
 20
126.5052265173
 30
0.0
  0
LEADER
  5
1A5
330
1F
100
AcDbEntity
  8
DIM
100
AcDbLeader
  3
SLDDIMSTYLE5
 73
     2
 76
     3
 10
109.7032693338
 20
117.2873150106
 30
0.0
 10
75.1967544546
 20
126.5052265173
 30
0.0
 10
74.1967544546
 20
126.5052265173
 30
0.0
340
1A3
  0
INSERT
  5
1AB
102
{ACAD_REACTORS
330
1AC
102
}
330
1F
100
AcDbEntity
  8
DIM
100
AcDbBlockReference
  2
SW_NOTE_0_3
 10
80.1164161882
 20
29.6764738746
 30
0.0
  0
LEADER
  5
1AC
330
1F
100
AcDbEntity
  8
DIM
100
AcDbLeader
  3
SLDDIMSTYLE5
 73
     2
 76
     3
 10
109.1373787053
 20
41.0873150106
 30
0.0
 10
87.2371109894
 20
29.6764738746
 30
0.0
 10
80.1164161882
 20
29.6764738746
 30
0.0
340
1AB
  0
INSERT
  5
1B8
330
1F
100
AcDbEntity
  8
DIM
100
AcDbBlockReference
  2
SW_CENTERMARKSYMBOL_0
 10
109.5545454545
 20
97.2873150106
 30
0.0
  0
LINE
  5
1B9
330
1F
100
AcDbEntity
  8
0
  6
HIDDEN
 62
     7
370
    18
100
AcDbLine
 10
111.5545454545
 20
109.2873150106
 30
0.0
 11
111.5545454545
 21
117.2873150106
 31
0.0
  0
LINE
  5
1BA
330
1F
100
AcDbEntity
  8
0
  6
HIDDEN
 62
     7
370
    18
100
AcDbLine
 10
107.5545454545
 20
117.2873150106
 30
0.0
 11
107.5545454545
 21
109.2873150106
 31
0.0
  0
LINE
  5
1BB
330
1F
100
AcDbEntity
  8
0
  6
HIDDEN
 62
     7
370
    18
100
AcDbLine
 10
111.5545454545
 20
109.2873150106
 30
0.0
 11
111.507786566
 21
109.2873150106
 31
0.0
  0
LINE
  5
1BC
330
1F
100
AcDbEntity
  8
0
  6
HIDDEN
 62
     7
370
    18
100
AcDbLine
 10
111.5077733994
 20
109.2873150106
 30
0.0
 11
107.5545454545
 21
109.2873150106
 31
0.0
  0
LINE
  5
1BD
330
1F
100
AcDbEntity
  8
0
  6
HIDDEN
 62
     7
370
    18
100
AcDbLine
 10
106.5545454545
 20
53.5873150106
 30
0.0
 11
106.5545454545
 21
41.5873150106
 31
0.0
  0
LINE
  5
1BE
330
1F
100
AcDbEntity
  8
0
  6
HIDDEN
 62
     7
370
    18
100
AcDbLine
 10
112.5545454545
 20
41.5873150106
 30
0.0
 11
112.5545454545
 21
53.5873150106
 31
0.0
  0
LINE
  5
1BF
330
1F
100
AcDbEntity
  8
0
  6
HIDDEN
 62
     7
370
    18
100
AcDbLine
 10
106.5545454545
 20
53.5873150106
 30
0.0
 11
106.6001221955
 21
53.5873150106
 31
0.0
  0
LINE
  5
1C0
330
1F
100
AcDbEntity
  8
0
  6
HIDDEN
 62
     7
370
    18
100
AcDbLine
 10
106.6001057625
 20
53.5873150106
 30
0.0
 11
112.5545454545
 21
53.5873150106
 31
0.0
  0
CIRCLE
  5
1C1
330
1F
100
AcDbEntity
  8
0
  6
Continuous
 62
     7
370
    35
100
AcDbCircle
 10
109.5545454545
 20
166.8145877378
 30
0.0
 40
12.55000000000001
  0
CIRCLE
  5
1C2
330
1F
100
AcDbEntity
  8
0
  6
Continuous
 62
     7
370
    35
100
AcDbCircle
 10
109.5545454545
 20
166.8145877378
 30
0.0
 40
1.650000000000006
  0
CIRCLE
  5
1C3
330
1F
100
AcDbEntity
  8
0
  6
Continuous
 62
     7
370
    35
100
AcDbCircle
 10
109.5545454545
 20
166.8145877378
 30
0.0
 40
12.75
  0
CIRCLE
  5
1C4
330
1F
100
AcDbEntity
  8
0
  6
Continuous
 62
     7
370
    35
100
AcDbCircle
 10
109.5545454545
 20
166.8145877378
 30
0.0
 40
15.25
  0
CIRCLE
  5
1C5
330
1F
100
AcDbEntity
  8
0
  6
Continuous
 62
     7
370
    35
100
AcDbCircle
 10
109.5545454545
 20
166.8145877378
 30
0.0
 40
15.75
  0
SPLINE
  5
1C6
330
1F
100
AcDbEntity
  8
0
  6
HIDDEN
 62
     7
370
    25
100
AcDbSpline
210
0.0
220
0.0
230
1.0
 70
     8
 71
     3
 72
    17
 73
    13
 74
     0
 42
0.00000001
 43
0.00000001
 40
0.0
 40
0.0
 40
0.0
 40
0.0
 40
0.1022714826659735
 40
0.2195198889894335
 40
0.3519474287484064
 40
0.4240104480928964
 40
0.4999320321034937
 40
0.6503930981152928
 40
0.7837831698901879
 40
0.8633504857825577
 40
0.9354211351495929
 40
0.9999999999999999
 40
0.9999999999999999
 40
0.9999999999999999
 40
0.9999999999999999
 10
109.5545454545453
 20
179.1572152785174
 30
0.0
 10
109.729495576709
 20
179.1537191964342
 30
0.0
 10
110.1050160091398
 20
179.1462150561713
 30
0.0
 10
110.6885671272156
 20
179.0945304945503
 30
0.0
 10
111.18397789703
 20
179.0297153824066
 30
0.0
 10
111.5735118431403
 20
178.9629076403142
 30
0.0
 10
111.9511185707795
 20
178.8832084762757
 30
0.0
 10
112.3316130090755
 20
178.7897064110657
 30
0.0
 10
112.6000341305448
 20
178.7150198172802
 30
0.0
 10
112.7330981912138
 20
178.6715847841819
 30
0.0
 10
112.7940636635668
 20
178.6482632724961
 30
0.0
 10
112.8011681261452
 20
178.6449770719188
 30
0.0
 10
112.8045256070064
 20
178.6434240543016
 30
0.0
  0
LINE
  5
1C7
330
1F
100
AcDbEntity
  8
0
  6
HIDDEN
 62
     7
370
    25
100
AcDbLine
 10
109.5556707096
 20
179.1571811197
 30
0.0
 11
109.2365404258
 21
179.14752098
 31
0.0
  0
SPLINE
  5
1C8
330
1F
100
AcDbEntity
  8
0
  6
HIDDEN
 62
     7
370
    25
100
AcDbSpline
210
0.0
220
0.0
230
1.0
 70
     8
 71
     3
 72
    15
 73
    11
 74
     0
 42
0.00000001
 43
0.00000001
 40
0.0
 40
0.0
 40
0.0
 40
0.0
 40
0.0995611252587582
 40
0.2159245178310059
 40
0.3491888844415864
 40
0.4994761042877254
 40
0.6476234038720762
 40
0.7803266621963282
 40
0.8977182822710766
 40
0.9999999999999999
 40
0.9999999999999999
 40
0.9999999999999999
 40
0.9999999999999999
 10
106.3045852791301
 20
178.6434317762841
 30
0.0
 10
106.3124474712822
 20
178.6470353605934
 30
0.0
 10
106.329498705337
 20
178.6548506821099
 30
0.0
 10
106.482656314859
 20
178.7080434175147
 30
0.0
 10
106.7752961055663
 20
178.7888346675012
 30
0.0
 10
107.2313076119984
 20
178.9021715621793
 30
0.0
 10
107.806723080962
 20
179.0148263983675
 30
0.0
 10
108.4195620272792
 20
179.0941247972088
 30
0.0
 10
109.0038300738073
 20
179.1461738660472
 30
0.0
 10
109.3795889997432
 20
179.1537075384954
 30
0.0
 10
109.5545454545453
 20
179.1572152785174
 30
0.0
  0
SPLINE
  5
1C9
330
1F
100
AcDbEntity
  8
0
  6
HIDDEN
 62
     7
370
    25
100
AcDbSpline
210
0.0
220
0.0
230
1.0
 70
     8
 71
     3
 72
    25
 73
    21
 74
     0
 42
0.00000001
 43
0.00000001
 40
0.0
 40
0.0
 40
0.0
 40
0.0
 40
0.0498856233407493
 40
0.1080947299057754
 40
0.1747263737480784
 40
0.249841809121739
 40
0.3238238121485342
 40
0.3900926995162081
 40
0.4487147491334748
 40
0.49979092526718
 40
0.5509766118592885
 40
0.6096564727089518
 40
0.6759314754869653
 40
0.7119958235411172
 40
0.7499908383417915
 40
0.8252207990989964
 40
0.8919094244285309
 40
0.9501172109832369
 40
0.9999424786298521
 40
1.0
 40
1.0
 40
1.0
 40
1.0
 10
112.8045454545453
 20
154.9857597319057
 30
0.0
 10
112.7966669504566
 20
154.9821527609702
 30
0.0
 10
112.7795954032953
 20
154.9743369911562
 30
0.0
 10
112.6261953277269
 20
154.9211150114398
 30
0.0
 10
112.3333589333297
 20
154.8403077912367
 30
0.0
 10
111.8774217794418
 20
154.7268786497116
 30
0.0
 10
111.3024735299434
 20
154.6144718515024
 30
0.0
 10
110.6904014943909
 20
154.5344104113951
 30
0.0
 10
110.1068738082326
 20
154.4848508227936
 30
0.0
 10
109.5564556024765
 20
154.4659582450554
 30
0.0
 10
109.0057560227867
 20
154.4848443133956
 30
0.0
 10
108.4215436385263
 20
154.5340494059595
 30
0.0
 10
107.9255589118931
 20
154.5995849077098
 30
0.0
 10
107.5356389594556
 20
154.6662854530614
 30
0.0
 10
107.157736144746
 20
154.7460264626307
 30
0.0
 10
106.7779762778806
 20
154.8391603669378
 30
0.0
 10
106.4796474068649
 20
154.922472081941
 30
0.0
 10
106.3413129581638
 20
154.969265436599
 30
0.0
 10
106.2912566771122
 20
154.9911314671483
 30
0.0
 10
106.3045767813832
 20
154.9857471229782
 30
0.0
 10
106.304592141203
 20
154.9857409141263
 30
0.0
  0
CIRCLE
  5
1CA
330
1F
100
AcDbEntity
  8
0
  6
HIDDEN
 62
     7
370
    25
100
AcDbCircle
 10
109.5545454545
 20
166.8145877378
 30
0.0
 40
2.5
  0
CIRCLE
  5
1CB
330
1F
100
AcDbEntity
  8
0
  6
HIDDEN
 62
     7
370
    25
100
AcDbCircle
 10
109.5545454545
 20
166.8145877378
 30
0.0
 40
12.55000000000001
  0
CIRCLE
  5
1CC
330
1F
100
AcDbEntity
  8
0
  6
HIDDEN
 62
     7
370
    25
100
AcDbCircle
 10
109.5545454545
 20
166.8145877378
 30
0.0
 40
12.84999999999999
  0
LINE
  5
1CD
330
1F
100
AcDbEntity
  8
0
  6
HIDDEN
 62
     7
370
    25
100
AcDbLine
 10
105.914130933
 20
179.0338300682
 30
0.0
 11
106.3045452903
 21
178.6434157307
 31
0.0
  0
LINE
  5
1CE
330
1F
100
AcDbEntity
  8
0
  6
HIDDEN
 62
     7
370
    25
100
AcDbLine
 10
112.8045448507
 20
178.6434159828
 30
0.0
 11
113.1949591161
 21
179.0338303288
 31
0.0
  0
LINE
  5
1CF
330
1F
100
AcDbEntity
  8
0
  6
HIDDEN
 62
     7
370
    25
100
AcDbLine
 10
113.1949600554
 20
154.5953454472
 30
0.0
 11
112.8045456896
 21
154.9857597832
 31
0.0
  0
LINE
  5
1D0
330
1F
100
AcDbEntity
  8
0
  6
HIDDEN
 62
     7
370
    25
100
AcDbLine
 10
106.3045459424
 20
154.9857595975
 30
0.0
 11
105.9141316632
 21
154.5953452555
 31
0.0
  0
LINE
  5
1D1
330
1F
100
AcDbEntity
  8
0
  6
HIDDEN
 62
     7
370
    25
100
AcDbLine
 10
112.8045454545
 20
154.9857597319
 30
0.0
 11
112.8045454545
 21
178.6434837448
 31
0.0
  0
LINE
  5
1D2
330
1F
100
AcDbEntity
  8
0
  6
HIDDEN
 62
     7
370
    25
100
AcDbLine
 10
106.3045454545
 20
178.6434204009
 30
0.0
 11
106.3045454545
 21
154.9856945654
 31
0.0
  0
INSERT
  5
1DE
330
1F
100
AcDbEntity
  8
DIM
100
AcDbBlockReference
  2
SW_CENTERMARKSYMBOL_1
 10
109.5545454545
 20
166.8145877378
 30
0.0
  0
ARC
  5
1DF
330
1F
100
AcDbEntity
  8
0
  6
Continuous
 62
     7
370
    18
100
AcDbCircle
 10
109.5545454545
 20
166.8145877378
 30
0.0
 40
2.00000000000005
100
AcDbArc
 50
255.0
 51
195.0
  0
ARC
  5
1E0
330
1F
100
AcDbEntity
  8
0
  6
HIDDEN
 62
     7
370
    18
100
AcDbCircle
 10
109.5545454545
 20
166.8145877378
 30
0.0
 40
3.000000000000022
100
AcDbArc
 50
255.0
 51
195.0
  0
SPLINE
  5
1E1
330
1F
100
AcDbEntity
  8
0
  6
Continuous
 62
     7
370
    35
100
AcDbSpline
210
0.0
220
0.0
230
1.0
 70
     8
 71
     3
 72
    15
 73
    11
 74
     0
 42
0.00000001
 43
0.00000001
 40
0.0
 40
0.0
 40
0.0
 40
0.0
 40
0.0296310759957805
 40
0.1681056685645684
 40
0.3069905992157733
 40
0.4462376941901512
 40
0.5857676565384986
 40
0.7254947406016355
 40
0.8653426755124995
 40
1.0
 40
1.0
 40
1.0
 40
1.0
 10
267.7541136310058
 20
176.8034813743409
 30
0.0
 10
267.7380473030851
 20
176.8405628381065
 30
0.0
 10
267.6468983756254
 20
177.0509367124322
 30
0.0
 10
267.418891524113
 20
177.4235349720127
 30
0.0
 10
267.0687563445275
 20
177.9178548039696
 30
0.0
 10
266.6531984082911
 20
178.3950583678466
 30
0.0
 10
266.1814704038544
 20
178.8539778792687
 30
0.0
 10
265.6531330348991
 20
179.2911447440487
 30
0.0
 10
265.0828545601496
 20
179.7015846295521
 30
0.0
 10
264.6656340818678
 20
179.9523141950231
 30
0.0
 10
264.4609684464991
 20
180.0753084594327
 30
0.0
  0
SPLINE
  5
1E2
330
1F
100
AcDbEntity
  8
0
  6
Continuous
 62
     7
370
    35
100
AcDbSpline
210
0.0
220
0.0
230
1.0
 70
     8
 71
     3
 72
    37
 73
    33
 74
     0
 42
0.00000001
 43
0.00000001
 40
0.0
 40
0.0
 40
0.0
 40
0.0
 40
0.0183066557866913
 40
0.053051404608322
 40
0.0877931686261274
 40
0.1225267971169964
 40
0.1572514565952372
 40
0.1919672947960829
 40
0.2266750812941135
 40
0.2613759662522477
 40
0.2960713244216312
 40
0.3307626583369275
 40
0.365451541141438
 40
0.4001395848840689
 40
0.4348283465282128
 40
0.4695190054659813
 40
0.5042132182309885
 40
0.5389126393564881
 40
0.5736189006517818
 40
0.6083335721850374
 40
0.6430580930538295
 40
0.6777936555552302
 40
0.7125410200974668
 40
0.7473002308935626
 40
0.7820701963002159
 40
0.8168480982252757
 40
0.85162727894813
 40
0.8863965803344005
 40
0.9211414293939427
 40
0.9558425763076275
 40
0.9904773583646277
 40
1.0
 40
1.0
 40
1.0
 40
1.0
 10
264.4609684464991
 20
180.0753084594327
 30
0.0
 10
264.3454093788046
 20
180.1405067430678
 30
0.0
 10
264.0105273048825
 20
180.3294467966305
 30
0.0
 10
263.4221417525575
 20
180.6204839492007
 30
0.0
 10
262.6853348941976
 20
180.9371317621418
 30
0.0
 10
261.9110788977091
 20
181.2216145593321
 30
0.0
 10
261.1041988462288
 20
181.473005760778
 30
0.0
 10
260.2686206176533
 20
181.6899635756595
 30
0.0
 10
259.4086792780536
 20
181.8714711379937
 30
0.0
 10
258.5287518958624
 20
182.016640798249
 30
0.0
 10
257.633331710301
 20
182.1247716917755
 30
0.0
 10
256.7269822300145
 20
182.1953390926607
 30
0.0
 10
255.8143220041472
 20
182.2280011910392
 30
0.0
 10
254.9000007634141
 20
182.222600046615
 30
0.0
 10
253.9886800783059
 20
182.1791630615973
 30
0.0
 10
253.0850054746172
 20
182.0979031775611
 30
0.0
 10
252.193582086773
 20
181.9792172158467
 30
0.0
 10
251.3189482648332
 20
181.823682145331
 30
0.0
 10
250.4655572915696
 20
181.6320513404419
 30
0.0
 10
249.6377559831224
 20
181.4052495527988
 30
0.0
 10
248.8397645137473
 20
181.1443669890415
 30
0.0
 10
248.0756582790066
 20
180.8506527147665
 30
0.0
 10
247.3493505892691
 20
180.5255081759727
 30
0.0
 10
246.6645824825184
 20
180.1704804907328
 30
0.0
 10
246.0248975061547
 20
179.7872608162964
 30
0.0
 10
245.4336917882152
 20
179.3776790155674
 30
0.0
 10
244.8940145369383
 20
178.9437502637229
 30
0.0
 10
244.4092664537718
 20
178.4875498054783
 30
0.0
 10
243.9804851320297
 20
178.0117275185735
 30
0.0
 10
243.6163218896463
 20
177.5176452664763
 30
0.0
 10
243.3729335485599
 20
177.1340790819644
 30
0.0
 10
243.2721744729717
 20
176.9123113194403
 30
0.0
 10
243.2504455656191
 20
176.8644866333013
 30
0.0
  0
LINE
  5
1E3
330
1F
100
AcDbEntity
  8
0
  6
Continuous
 62
     7
370
    35
100
AcDbLine
 10
268.2367864693
 20
116.641431979
 30
0.0
 11
268.2367864693
 21
174.7791377853
 31
0.0
  0
LINE
  5
1E4
330
1F
100
AcDbEntity
  8
0
  6
Continuous
 62
     7
370
    35
100
AcDbLine
 10
242.7367864693
 20
174.7791377853
 30
0.0
 11
242.7367864693
 21
116.641431979
 31
0.0
  0
LINE
  5
1E5
330
1F
100
AcDbEntity
  8
0
  6
Continuous
 62
     7
370
    35
100
AcDbLine
 10
271.2367864693
 20
113.1303064879
 30
0.0
 11
271.2367864693
 21
116.2331615731
 31
0.0
  0
LINE
  5
1E6
330
1F
100
AcDbEntity
  8
0
  6
Continuous
 62
     7
370
    35
100
AcDbLine
 10
239.7367864693
 20
116.2331615731
 30
0.0
 11
239.7367864693
 21
113.1303064879
 31
0.0
  0
LINE
  5
1E7
330
1F
100
AcDbEntity
  8
0
  6
Continuous
 62
     7
370
    35
100
AcDbLine
 10
244.3480450422
 20
106.7021374505
 30
0.0
 11
244.7016558811
 21
106.4979359028
 31
0.0
  0
LINE
  5
1E8
330
1F
100
AcDbEntity
  8
0
  6
Continuous
 62
     7
370
    35
100
AcDbLine
 10
266.2719170575
 20
106.4979359028
 30
0.0
 11
266.6255278965
 21
106.7021374505
 31
0.0
  0
LWPOLYLINE
  5
1E9
330
1F
100
AcDbEntity
  8
0
  6
Continuous
 62
     7
370
    35
100
AcDbPolyline
 90
       83
 70
   128
 43
0.0
 10
264.3609765732
 20
180.0654068493
 10
265.0142505571
 20
179.6582162342
 10
265.6116135933
 20
179.2233516039
 10
266.149560118
 20
178.7633649169
 10
266.624933247
 20
178.2809555581
 10
267.0349433018
 20
177.7789544974
 10
267.3771841805
 20
177.2603076767
 10
267.6496474773
 20
176.7280587217
 10
267.8507342694
 20
176.1853310809
 10
267.9792644995
 20
175.6353096959
 10
268.0344839012
 20
175.081222311
 10
268.0160684249
 20
174.5263205311
 10
267.92412614
 20
173.9738607407
 10
267.7591966005
 20
173.4270849934
 10
267.5222476784
 20
172.8892019868
 10
267.2146698842
 20
172.3633682321
 10
266.8382682068
 20
171.852669531
 10
266.3952515208
 20
171.3601028665
 10
265.8882196244
 20
170.8885588157
 10
265.3201479822
 20
170.4408045865
 10
264.6943702646
 20
170.0194677789
 10
264.0145587841
 20
169.6270209646
 10
263.2847029447
 20
169.2657671778
 10
262.5090858308
 20
168.9378263992
 10
261.6922590718
 20
168.6451231157
 10
260.8390161322
 20
168.3893750266
 10
259.9543641806
 20
168.1720829635
 10
259.0434947067
 20
167.9945220824
 10
258.1117530545
 20
167.8577343813
 10
257.1646070546
 20
167.7625225847
 10
256.2076149363
 20
167.7094454335
 10
255.24639271
 20
167.6988144053
 10
254.2865812099
 20
167.7306918873
 10
253.3338129914
 20
167.8048908098
 10
252.3936792775
 20
167.9209757439
 10
251.4716971464
 20
168.0782654572
 10
250.573277156
 20
168.275836911
 10
249.7036915921
 20
168.5125306775
 10
248.8680435284
 20
168.7869577435
 10
248.0712368801
 20
169.097507662
 10
247.3179476255
 20
169.4423580024
 10
246.6125963655
 20
169.819485046
 10
245.9593223816
 20
170.2266756611
 10
245.3619593454
 20
170.6615402914
 10
244.8240128207
 20
171.1215269784
 10
244.3486396917
 20
171.6039363372
 10
243.9386296368
 20
172.1059373979
 10
243.5963887582
 20
172.6245842186
 10
243.3239254614
 20
173.1568331736
 10
243.1228386693
 20
173.6995608144
 10
242.9943084391
 20
174.2495821994
 10
242.9390890375
 20
174.8036695843
 10
242.9575045138
 20
175.3585713642
 10
243.0494467987
 20
175.9110311546
 10
243.2143763382
 20
176.4578069019
 10
243.4513252603
 20
176.9956899085
 10
243.7589030544
 20
177.5215236632
 10
244.1353047319
 20
178.0322223643
 10
244.5783214178
 20
178.5247890287
 10
245.0853533143
 20
178.9963330796
 10
245.6534249565
 20
179.4440873088
 10
246.279202674
 20
179.8654241164
 10
246.9590141546
 20
180.2578709307
 10
247.688869994
 20
180.6191247175
 10
248.4644871079
 20
180.9470654961
 10
249.2813138669
 20
181.2397687796
 10
250.1345568065
 20
181.4955168687
 10
251.019208758
 20
181.7128089318
 10
251.930078232
 20
181.8903698129
 10
252.8618198842
 20
182.027157514
 10
253.8089658841
 20
182.1223693106
 10
254.7659580024
 20
182.1754464618
 10
255.7271802287
 20
182.18607749
 10
256.6869917288
 20
182.154200008
 10
257.6397599472
 20
182.0800010855
 10
258.5798936612
 20
181.9639161514
 10
259.5018757923
 20
181.8066264381
 10
260.4002957827
 20
181.6090549843
 10
261.2698813466
 20
181.3723612178
 10
262.1055294103
 20
181.0979341517
 10
262.9023360585
 20
180.7873842333
 10
263.6556253132
 20
180.4425338929
 10
264.3609765732
 20
180.0654068493
  0
ARC
  5
1EA
330
1F
100
AcDbEntity
  8
0
  6
Continuous
 62
     7
370
    35
100
AcDbCircle
 10
263.7987011825
 20
174.7791565756
 30
0.0
 40
4.434511497399154
100
AcDbArc
 50
333.6510604952
 51
26.3667706929
  0
ARC
  5
1EB
330
1F
100
AcDbEntity
  8
0
  6
Continuous
 62
     7
370
    35
100
AcDbCircle
 10
247.1831648649
 20
174.7791338346
 30
0.0
 40
4.44275438091642
100
AcDbArc
 50
152.8267059553
 51
207.1767213226
  0
LWPOLYLINE
  5
1EC
330
1F
100
AcDbEntity
  8
0
  6
Continuous
 62
     7
370
    35
100
AcDbPolyline
 90
       43
 70
   128
 43
0.0
 10
268.2367864693
 20
116.641431979
 10
268.2225184806
 20
116.2933173703
 10
268.1404384614
 20
115.7382780813
 10
267.9858794696
 20
115.188411976
 10
267.7597268049
 20
114.6468686377
 10
267.4632758495
 20
114.1167499776
 10
267.0982246474
 20
113.6010924673
 10
266.666664179
 20
113.1028497465
 10
266.1710663835
 20
112.6248757042
 10
265.6142700002
 20
112.1699081326
 10
264.9994643084
 20
111.7405530446
 10
264.3301708594
 20
111.3392697473
 10
263.6102233055
 20
110.9683567551
 10
262.843745441
 20
110.629938624
 10
262.0351275818
 20
110.3259537825
 10
261.1890014176
 20
110.0581434282
 10
260.3102134827
 20
109.8280415545
 10
259.4037973946
 20
109.6369661641
 10
258.4749450227
 20
109.4860117196
 10
257.5289767492
 20
109.3760428744
 10
256.5713109947
 20
109.30768952
 10
255.6074331819
 20
109.2813431783
 10
254.6428643157
 20
109.2971547587
 10
253.6831293591
 20
109.3550336939
 10
252.7337255872
 20
109.4546484587
 10
251.8000910987
 20
109.5954284686
 10
250.8875736673
 20
109.7765673486
 10
250.0014001104
 20
109.9970275515
 10
249.1466463499
 20
110.2555463012
 10
248.3282083377
 20
110.5506428258
 10
247.5507740129
 20
110.8806268391
 10
246.8187964487
 20
111.2436082225
 10
246.1364683463
 20
111.6375078516
 10
245.5076980195
 20
112.0600695049
 10
244.9360870075
 20
112.5088727876
 10
244.4249094466
 20
112.9813469951
 10
243.9770933156
 20
113.474785838
 10
243.5952036646
 20
113.9863629431
 10
243.281427923
 20
114.5131480433
 10
243.0375633699
 20
115.0521237611
 10
242.8650068393
 20
115.6002028925
 10
242.7647467194
 20
116.1542460897
 10
242.7367864693
 20
116.641431979
  0
SPLINE
  5
1ED
330
1F
100
AcDbEntity
  8
0
  6
Continuous
 62
     7
370
    35
100
AcDbSpline
210
0.0
220
0.0
230
1.0
 70
    11
 71
     3
 72
    39
 73
    35
 74
     0
 42
0.00000001
 43
0.00000001
 40
0.0
 40
0.0
 40
0.0
 40
0.0
 40
0.0304711047358305
 40
0.0616128050022285
 40
0.0926989369445853
 40
0.1238047496721479
 40
0.1550084202652156
 40
0.1866547090405347
 40
0.2184935441084083
 40
0.249985246178823
 40
0.2814766304984385
 40
0.3134037919953726
 40
0.345092452365423
 40
0.3763355105415868
 40
0.4073979224917678
 40
0.4384990658153085
 40
0.4696085146645776
 40
0.5000850921382599
 40
0.5305237348134829
 40
0.5616323568110418
 40
0.5926917275391665
 40
0.6237798831886276
 40
0.6550139972375383
 40
0.6866944897306959
 40
0.7185761981160043
 40
0.7500980062709046
 40
0.7815824490079404
 40
0.8134916659751127
 40
0.8451314409404904
 40
0.8763689132159777
 40
0.9074261223718602
 40
0.9384656442090934
 40
0.9695636786009981
 40
1.0
 40
1.0
 40
1.0
 40
1.0
 10
249.4206390117126
 20
152.1376535273166
 30
0.0
 10
249.4205145947063
 20
151.9499772149359
 30
0.0
 10
249.3762730193239
 20
151.5841622309536
 30
0.0
 10
249.1809469448342
 20
151.1023621143859
 30
0.0
 10
248.8802656469545
 20
150.7008760994652
 30
0.0
 10
248.4862469604727
 20
150.4077669307748
 30
0.0
 10
248.0234299182514
 20
150.2330343469072
 30
0.0
 10
247.5135065951434
 20
150.1912646724225
 30
0.0
 10
246.9867405301276
 20
150.2799584651385
 30
0.0
 10
246.4666355298905
 20
150.5080134297974
 30
0.0
 10
245.9747853493814
 20
150.8647366124117
 30
0.0
 10
245.5294349578532
 20
151.3379822508286
 30
0.0
 10
245.1424775577403
 20
151.8981282357642
 30
0.0
 10
244.8251851221941
 20
152.5233207434657
 30
0.0
 10
244.5782232233345
 20
153.1866687289877
 30
0.0
 10
244.4034029567239
 20
153.8625010624961
 30
0.0
 10
244.2957854598456
 20
154.5191506669547
 30
0.0
 10
244.2606729279515
 20
155.1238362794311
 30
0.0
 10
244.2959169651027
 20
155.6528297635837
 30
0.0
 10
244.4037034003495
 20
156.0839061496134
 30
0.0
 10
244.5788791508857
 20
156.4126195647333
 30
0.0
 10
244.8262648233121
 20
156.6199910692024
 30
0.0
 10
245.1438860089194
 20
156.7097745192351
 30
0.0
 10
245.5307686380266
 20
156.6798791414806
 30
0.0
 10
245.9761867740914
 20
156.5438292515695
 30
0.0
 10
246.4680064975208
 20
156.2995195676769
 30
0.0
 10
246.9887030324564
 20
155.9596657974145
 30
0.0
 10
247.5157088598608
 20
155.5339188621696
 30
0.0
 10
248.0259663163937
 20
155.0452675572438
 30
0.0
 10
248.4884833662911
 20
154.5043353265006
 30
0.0
 10
248.8821763978142
 20
153.9263757624772
 30
0.0
 10
249.1822991726408
 20
153.3234132482889
 30
0.0
 10
249.3771306975087
 20
152.7177503090668
 30
0.0
 10
249.4207632866945
 20
152.3251156036713
 30
0.0
 10
249.4206390117126
 20
152.1376535273166
 30
0.0
  0
LWPOLYLINE
  5
1EE
330
1F
100
AcDbEntity
  8
0
  6
Continuous
 62
     7
370
    35
100
AcDbPolyline
 90
       30
 70
   128
 43
0.0
 10
254.3200602804
 20
174.2689092554
 10
254.5981493328
 20
174.1398656897
 10
254.91779007
 20
174.0483498849
 10
255.2640364465
 20
173.9986410183
 10
255.6206983665
 20
173.9930634212
 10
255.971098715
 20
174.0318778959
 10
256.2988531611
 20
174.1132695206
 10
256.5886362713
 20
174.2334325136
 10
256.8268981094
 20
174.3867481866
 10
257.0024978167
 20
174.5660476694
 10
257.1072245459
 20
174.7629471174
 10
257.1361813916
 20
174.9682397311
 10
257.088014364
 20
175.1723262562
 10
256.9649756996
 20
175.3656638335
 10
256.7728185497
 20
175.5392122129
 10
256.5205279691
 20
175.684856465
 10
256.2199007848
 20
175.7957864264
 10
255.88499399
 20
175.8668151355
 10
255.5314674541
 20
175.8946213686
 10
255.1758516849
 20
175.8779049374
 10
254.8347748808
 20
175.8174474835
 10
254.5241854138
 20
175.7160759303
 10
254.2586061024
 20
175.5785302989
 10
254.0504551399
 20
175.4112420702
 10
253.9094654339
 20
175.2220334559
 10
253.8422295066
 20
175.0197516404
 10
253.851891235
 20
174.8138550966
 10
253.9379988475
 20
174.6139713181
 10
254.0965260479
 20
174.4294466482
 10
254.3200602804
 20
174.2689092554
  0
SPLINE
  5
1EF
330
1F
100
AcDbEntity
  8
0
  6
Continuous
 62
     7
370
    35
100
AcDbSpline
210
0.0
220
0.0
230
1.0
 70
     8
 71
     3
 72
    31
 73
    27
 74
     0
 42
0.00000001
 43
0.00000001
 40
0.0
 40
0.0
 40
0.0
 40
0.0
 40
0.0275854943352522
 40
0.0544869792910488
 40
0.0828286068042054
 40
0.1389449035551215
 40
0.1886899605940409
 40
0.2321089041989668
 40
0.2692750741239391
 40
0.3065162291145737
 40
0.349977913311079
 40
0.3997340344552968
 40
0.4558302605953884
 40
0.5110131574577065
 40
0.5604679808711086
 40
0.6042442255861097
 40
0.6424170893603827
 40
0.6805000885083428
 40
0.724198852692584
 40
0.7735887046691153
 40
0.8004763593458566
 40
0.8288105350419905
 40
0.8849619913896171
 40
0.9347524394877609
 40
0.9782272244346757
 40
0.9999999999999999
 40
0.9999999999999999
 40
0.9999999999999999
 40
0.9999999999999999
 10
245.8602316984741
 20
156.5636337222805
 30
0.0
 10
245.7886129943796
 20
156.5752029986606
 30
0.0
 10
245.6471514421803
 20
156.5980546798693
 30
0.0
 10
245.4698057970216
 20
156.562420622217
 30
0.0
 10
245.2578271525947
 20
156.4778780390585
 30
0.0
 10
245.0553473314471
 20
156.2768927194583
 30
0.0
 10
244.9044934206713
 20
155.9272867991963
 30
0.0
 10
244.8357256194914
 20
155.5347693731244
 30
0.0
 10
244.819305499739
 20
155.1191726879754
 30
0.0
 10
244.8354464167582
 20
154.6524120536166
 30
0.0
 10
244.9040393490155
 20
154.0973712268593
 30
0.0
 10
245.0547862526347
 20
153.4393628983711
 30
0.0
 10
245.2970001014206
 20
152.7352019862673
 30
0.0
 10
245.6244218357643
 20
152.0817690925093
 30
0.0
 10
246.0008847839266
 20
151.5571114820796
 30
0.0
 10
246.3789817735301
 20
151.1744807995892
 30
0.0
 10
246.7548985465333
 20
150.9055994951295
 30
0.0
 10
247.1572721536488
 20
150.7250669586447
 30
0.0
 10
247.6044489044183
 20
150.6305688719494
 30
0.0
 10
248.0010649932016
 20
150.6505733748394
 30
0.0
 10
248.3238498483716
 20
150.7412243948895
 30
0.0
 10
248.6472717451824
 20
150.8931712741509
 30
0.0
 10
248.9839715377768
 20
151.1690524269393
 30
0.0
 10
249.246674794382
 20
151.587687068532
 30
0.0
 10
249.3817805701914
 20
151.967043699355
 30
0.0
 10
249.3984686163329
 20
152.207362046261
 30
0.0
 10
249.4040373315525
 20
152.2875550433682
 30
0.0
  0
LWPOLYLINE
  5
1F0
330
1F
100
AcDbEntity
  8
0
  6
Continuous
 62
     7
370
    35
100
AcDbPolyline
 90
       65
 70
   128
 43
0.0
 10
268.2367864693
 20
121.4713675041
 10
268.2573628259
 20
121.4532169853
 10
268.8019861945
 20
120.9331286183
 10
269.2831565727
 20
120.3925883624
 10
269.6985809646
 20
119.834172138
 10
270.0462796836
 20
119.2605410528
 10
270.3245957871
 20
118.6744287202
 10
270.5322029721
 20
118.0786282322
 10
270.6681118959
 20
117.4759788496
 10
270.7316748904
 20
116.8693524711
 10
270.7225890491
 20
116.2616399477
 10
270.6408976702
 20
115.6557373063
 10
270.4869900503
 20
115.0545319488
 10
270.2615996292
 20
114.4608888927
 10
269.9658004951
 20
113.8776371174
 10
269.6010022654
 20
113.3075560833
 10
269.1689433698
 20
112.753362486
 10
268.6716827658
 20
112.2176973104
 10
268.1115901266
 20
111.7031132452
 10
267.4913345486
 20
111.2120625176
 10
266.8138718322
 20
110.746885208
 10
266.0824303958
 20
110.3097980981
 10
265.3004958907
 20
109.9028841071
 10
264.4717945912
 20
109.5280823654
 10
263.6002756362
 20
109.187178974
 10
262.6900922105
 20
108.8817984928
 10
261.7455817525
 20
108.6133961989
 10
260.7712452848
 20
108.3832511515
 10
259.7717259643
 20
108.1924600964
 10
258.7517869557
 20
108.04193224
 10
257.716288733
 20
107.9323849161
 10
256.6701659166
 20
107.8643401675
 10
255.6184037583
 20
107.8381222584
 10
254.5660143837
 20
107.8538561292
 10
253.5180129073
 20
107.9114668007
 10
252.4793935336
 20
108.0106797319
 10
251.4551057568
 20
108.151022128
 10
250.4500307745
 20
108.3318251935
 10
249.4689582269
 20
108.5522273195
 10
248.5165633714
 20
108.8111781896
 10
247.5973848031
 20
109.1074437848
 10
246.7158028266
 20
109.4396122648
 10
245.8760185815
 20
109.8061006953
 10
245.082034022
 20
110.2051625923
 10
244.3376328463
 20
110.6348962439
 10
243.6463624649
 20
111.0932537736
 10
243.0115170959
 20
111.5780508992
 10
242.4361220667
 20
112.0869773414
 10
241.9229193967
 20
112.6176078341
 10
241.4743547302
 20
113.1674136812
 10
241.0925656821
 20
113.7337748076
 10
240.7793716512
 20
114.3139922446
 10
240.5362651497
 20
114.9053009918
 10
240.3644046906
 20
115.5048831938
 10
240.2646092674
 20
116.1098815683
 10
240.2373544508
 20
116.7174130226
 10
240.2827701222
 20
117.3245823926
 10
240.4006398554
 20
117.9284962399
 10
240.5904019475
 20
118.5262766397
 10
240.8511520955
 20
119.1150748964
 10
241.1816477064
 20
119.6920851182
 10
241.580313818
 20
120.2545575884
 10
242.0452506047
 20
120.7998118697
 10
242.5742424311
 20
121.3252495772
 10
242.7367864693
 20
121.4713675041
  0
LWPOLYLINE
  5
1F1
330
1F
100
AcDbEntity
  8
0
  6
Continuous
 62
     7
370
    35
100
AcDbPolyline
 90
       66
 70
   128
 43
0.0
 10
268.2367864693
 20
121.5711222572
 10
268.6566549264
 20
121.2198403567
 10
269.2154388724
 20
120.6893816167
 10
269.7102135035
 20
120.1381459218
 10
270.1386719519
 20
119.5687033873
 10
270.4988165467
 20
118.983709017
 10
270.7889681274
 20
118.3858903249
 10
271.0077738734
 20
117.7780346176
 10
271.1542136114
 20
117.1629759991
 10
271.2276045716
 20
116.5435821564
 10
271.2276045716
 20
115.9227409897
 10
271.1542136114
 20
115.3033471471
 10
271.0077738734
 20
114.6882885285
 10
270.7889681274
 20
114.0804328212
 10
270.4988165467
 20
113.4826141291
 10
270.1386719519
 20
112.8976197589
 10
269.7102135035
 20
112.3281772243
 10
269.2154388724
 20
111.7769415294
 10
268.6566549264
 20
111.2464827895
 10
268.0364669741
 20
110.7392742479
 10
267.3577666183
 20
110.2576807452
 10
266.623718273
 20
109.8039476925
 10
265.8377444107
 20
109.3801906027
 10
265.0035096043
 20
108.988385227
 10
264.1249034415
 20
108.630358343
 10
263.2060223899
 20
108.3077792373
 10
262.2511506971
 20
108.0221519225
 10
261.2647404156
 20
107.7748081251
 10
260.2513906457
 20
107.566901076
 10
259.2158260917
 20
107.3994001338
 10
258.1628750335
 20
107.2730862653
 10
257.0974468152
 20
107.188548404
 10
256.0245089548
 20
107.1461807044
 10
254.9490639839
 20
107.1461807044
 10
253.8761261235
 20
107.188548404
 10
252.8106979051
 20
107.2730862653
 10
251.757746847
 20
107.3994001338
 10
250.722182293
 20
107.566901076
 10
249.708832523
 20
107.7748081251
 10
248.7224222416
 20
108.0221519225
 10
247.7675505488
 20
108.3077792373
 10
246.8486694972
 20
108.630358343
 10
245.9700633344
 20
108.988385227
 10
245.135828528
 20
109.3801906027
 10
244.3498546657
 20
109.8039476925
 10
243.6158063204
 20
110.2576807452
 10
242.9371059645
 20
110.7392742479
 10
242.3169180123
 20
111.2464827895
 10
241.7581340663
 20
111.7769415294
 10
241.2633594352
 20
112.3281772243
 10
240.8349009868
 20
112.8976197589
 10
240.474756392
 20
113.4826141291
 10
240.1846048113
 20
114.0804328212
 10
239.9657990653
 20
114.6882885285
 10
239.8193593273
 20
115.3033471471
 10
239.7459683671
 20
115.9227409897
 10
239.7459683671
 20
116.5435821564
 10
239.8193593273
 20
117.1629759991
 10
239.9657990653
 20
117.7780346176
 10
240.1846048113
 20
118.3858903249
 10
240.474756392
 20
118.983709017
 10
240.8349009868
 20
119.5687033873
 10
241.2633594352
 20
120.1381459218
 10
241.7581340663
 20
120.6893816167
 10
242.3169180123
 20
121.2198403567
 10
242.7367864693
 20
121.5711222572
  0
LWPOLYLINE
  5
1F2
330
1F
100
AcDbEntity
  8
0
  6
Continuous
 62
     7
370
    35
100
AcDbPolyline
 90
       48
 70
   128
 43
0.0
 10
271.2367864693
 20
113.1303064879
 10
271.2276045716
 20
112.8198859045
 10
271.1542136114
 20
112.2004920619
 10
271.0077738734
 20
111.5854334433
 10
270.7889681274
 20
110.977577736
 10
270.4988165467
 20
110.3797590439
 10
270.1386719519
 20
109.7947646737
 10
269.7102135035
 20
109.2253221392
 10
269.2154388724
 20
108.6740864443
 10
268.6566549264
 20
108.1436277043
 10
268.0364669741
 20
107.6364191628
 10
267.3577666183
 20
107.15482566
 10
266.623718273
 20
106.7010926073
 10
265.8377444107
 20
106.2773355175
 10
265.0035096043
 20
105.8855301419
 10
264.1249034415
 20
105.5275032579
 10
263.2060223899
 20
105.2049241521
 10
262.2511506971
 20
104.9192968374
 10
261.2647404156
 20
104.6719530399
 10
260.2513906457
 20
104.4640459908
 10
259.2158260917
 20
104.2965450486
 10
258.1628750335
 20
104.1702311801
 10
257.0974468152
 20
104.0856933188
 10
256.0245089548
 20
104.0433256193
 10
254.9490639839
 20
104.0433256193
 10
253.8761261235
 20
104.0856933188
 10
252.8106979051
 20
104.1702311801
 10
251.757746847
 20
104.2965450486
 10
250.722182293
 20
104.4640459908
 10
249.708832523
 20
104.6719530399
 10
248.7224222416
 20
104.9192968374
 10
247.7675505488
 20
105.2049241521
 10
246.8486694972
 20
105.5275032579
 10
245.9700633344
 20
105.8855301419
 10
245.135828528
 20
106.2773355175
 10
244.3498546657
 20
106.7010926073
 10
243.6158063204
 20
107.15482566
 10
242.9371059645
 20
107.6364191628
 10
242.3169180123
 20
108.1436277043
 10
241.7581340663
 20
108.6740864443
 10
241.2633594352
 20
109.2253221392
 10
240.8349009868
 20
109.7947646737
 10
240.474756392
 20
110.3797590439
 10
240.1846048113
 20
110.977577736
 10
239.9657990653
 20
111.5854334433
 10
239.8193593273
 20
112.2004920619
 10
239.7459683671
 20
112.8198859045
 10
239.7367864693
 20
113.1303064879
  0
ARC
  5
1F3
330
1F
100
AcDbEntity
  8
0
  6
Continuous
 62
     7
370
    35
100
AcDbCircle
 10
255.4867864693
 20
127.2577104584
 30
0.0
 40
23.39417195375498
100
AcDbArc
 50
242.5471937152
 51
297.4528062848
  0
LWPOLYLINE
  5
1F4
330
1F
100
AcDbEntity
  8
0
  6
Continuous
 62
     8
370
    35
100
AcDbPolyline
 90
       37
 70
   128
 43
0.0
 10
267.7725008669
 20
172.8109573253
 10
267.7597268049
 20
172.7845744439
 10
267.4632758495
 20
172.2544557838
 10
267.0982246474
 20
171.7387982736
 10
266.666664179
 20
171.2405555528
 10
266.1710663835
 20
170.7625815105
 10
265.6142700002
 20
170.3076139388
 10
264.9994643084
 20
169.8782588508
 10
264.3301708594
 20
169.4769755535
 10
263.6102233055
 20
169.1060625613
 10
262.843745441
 20
168.7676444303
 10
262.0351275818
 20
168.4636595888
 10
261.1890014176
 20
168.1958492344
 10
260.3102134827
 20
167.9657473607
 10
259.4037973946
 20
167.7746719704
 10
258.4749450227
 20
167.6237175259
 10
257.5289767492
 20
167.5137486807
 10
256.5713109947
 20
167.4453953263
 10
255.6074331819
 20
167.4190489846
 10
254.6428643157
 20
167.434860565
 10
253.6831293591
 20
167.4927395002
 10
252.7337255872
 20
167.592354265
 10
251.8000910987
 20
167.7331342749
 10
250.8875736673
 20
167.9142731548
 10
250.0014001104
 20
168.1347333577
 10
249.1466463499
 20
168.3932521075
 10
248.3282083377
 20
168.6883486321
 10
247.5507740129
 20
169.0183326453
 10
246.8187964487
 20
169.3813140288
 10
246.1364683463
 20
169.7752136579
 10
245.5076980195
 20
170.1977753112
 10
244.9360870075
 20
170.6465785939
 10
244.4249094466
 20
171.1190528014
 10
243.9770933156
 20
171.6124916442
 10
243.5952036646
 20
172.1240687494
 10
243.281427923
 20
172.6508538496
 10
243.2308816199
 20
172.7499656205
  0
LWPOLYLINE
  5
1F5
330
1F
100
AcDbEntity
  8
0
  6
Continuous
 62
     7
370
    18
100
AcDbPolyline
 90
       30
 70
   128
 43
0.0
 10
256.9007873535
 20
174.1260378358
 10
256.5639223925
 20
173.9696213926
 10
256.1764790746
 20
173.8586931444
 10
255.7567864971
 20
173.7984399727
 10
255.3244690183
 20
173.7916792489
 10
254.8997413231
 20
173.838727097
 10
254.5024632066
 20
173.9373836119
 10
254.1512109518
 20
174.0830357245
 10
253.8624087238
 20
174.268872904
 10
253.6495605938
 20
174.4862056104
 10
253.5226191039
 20
174.7248716079
 10
253.4875198969
 20
174.9737111397
 10
253.5459041728
 20
175.2210887459
 10
253.6950419478
 20
175.4554373245
 10
253.9279597053
 20
175.6657989965
 10
254.2337664697
 20
175.8423374838
 10
254.5981630566
 20
175.9767980431
 10
255.0041106867
 20
176.062893448
 10
255.4326277
 20
176.0965979731
 10
255.8636771171
 20
176.0763356322
 10
256.2771035464
 20
176.0030538699
 10
256.6535756276
 20
175.8801792599
 10
256.9754899445
 20
175.7134572825
 10
257.2277941415
 20
175.510683672
 10
257.3986907547
 20
175.281339897
 10
257.4801888485
 20
175.0361498176
 10
257.4684776625
 20
174.7865782494
 10
257.3641047988
 20
174.5442948815
 10
257.1719506166
 20
174.320628615
 10
256.9010000317
 20
174.1260378358
  0
ENDSEC
  0
SECTION
  2
OBJECTS
  0
DICTIONARY
  5
C
330
0
100
AcDbDictionary
281
     1
  3
ACAD_GROUP
350
D
  3
ACAD_LAYOUT
350
1A
  3
ACAD_MLINESTYLE
350
17
  3
ACAD_PLOTSETTINGS
350
19
  3
ACAD_PLOTSTYLENAME
350
E
  3
ACAD_SCALELIST
350
47
  3
DWGPROPS
350
1F6
  0
DICTIONARY
  5
D
102
{ACAD_REACTORS
330
C
102
}
330
C
100
AcDbDictionary
281
     1
  0
DICTIONARY
  5
1A
102
{ACAD_REACTORS
330
C
102
}
330
C
100
AcDbDictionary
281
     1
  3
Layout1
350
1E
  3
Layout2
350
26
  3
Model
350
22
  0
DICTIONARY
  5
17
102
{ACAD_REACTORS
330
C
102
}
330
C
100
AcDbDictionary
281
     1
  3
Standard
350
18
  0
DICTIONARY
  5
19
102
{ACAD_REACTORS
330
C
102
}
330
C
100
AcDbDictionary
281
     1
  0
ACDBDICTIONARYWDFLT
  5
E
102
{ACAD_REACTORS
330
C
102
}
330
C
100
AcDbDictionary
281
     1
  3
Normal
350
F
100
AcDbDictionaryWithDefault
340
F
  0
DICTIONARY
  5
47
102
{ACAD_REACTORS
330
C
102
}
330
C
100
AcDbDictionary
281
     1
  3
A0
350
48
  3
A1
350
49
  3
A2
350
4A
  3
A3
350
4B
  3
A4
350
4C
  3
A5
350
4D
  3
A6
350
4E
  3
A7
350
4F
  3
A8
350
50
  3
A9
350
51
  3
B0
350
52
  3
B1
350
53
  3
B2
350
54
  3
B3
350
55
  3
B4
350
56
  3
B5
350
57
  3
B6
350
58
  3
B7
350
59
  3
B8
350
5A
  3
B9
350
5B
  3
C0
350
5C
  3
C1
350
5D
  3
C2
350
5E
  3
C3
350
5F
  3
C4
350
60
  3
C5
350
61
  3
C6
350
62
  3
C7
350
63
  3
C8
350
64
  3
C9
350
65
  3
D0
350
66
  3
D1
350
67
  3
D2
350
68
  0
XRECORD
  5
1F6
102
{ACAD_REACTORS
330
C
102
}
330
C
100
AcDbXrecord
280
     1
  1
DWGPROPS COOKIE
  2

  3

  4

  6

  7

  8
R2594
  9

300
=
301
=
302
=
303
=
304
=
305
=
306
=
307
=
308
=
309
=
 40
0.0
 41
2459804.311624375
 42
2459804.311627049
  1

 90
        0
  0
LAYOUT
  5
1E
102
{ACAD_REACTORS
330
1A
102
}
330
1A
100
AcDbPlotSettings
  1

  2
none_device
  4

  6

 40
0.0
 41
0.0
 42
0.0
 43
0.0
 44
0.0
 45
0.0
 46
0.0
 47
0.0
 48
0.0
 49
0.0
140
0.0
141
0.0
142
1.0
143
1.0
 70
   688
 72
     1
 73
     0
 74
     5
  7

 75
    16
147
1.0
148
0.0
149
0.0
100
AcDbLayout
  1
Layout1
 70
     1
 71
     1
 10
0.0
 20
0.0
 11
420.0
 21
297.0
 12
0.0
 22
0.0
 32
0.0
 14
1.0000000000E+20
 24
1.0000000000E+20
 34
1.0000000000E+20
 15
-1.0000000000E+20
 25
-1.0000000000E+20
 35
-1.0000000000E+20
146
0.0
 13
0.0
 23
0.0
 33
0.0
 16
1.0
 26
0.0
 36
0.0
 17
0.0
 27
1.0
 37
0.0
 76
     0
330
1B
  0
LAYOUT
  5
26
102
{ACAD_REACTORS
330
1A
102
}
330
1A
100
AcDbPlotSettings
  1

  2
none_device
  4

  6

 40
0.0
 41
0.0
 42
0.0
 43
0.0
 44
0.0
 45
0.0
 46
0.0
 47
0.0
 48
0.0
 49
0.0
140
0.0
141
0.0
142
1.0
143
1.0
 70
   688
 72
     1
 73
     0
 74
     5
  7

 75
    16
147
1.0
148
0.0
149
0.0
100
AcDbLayout
  1
Layout2
 70
     1
 71
     2
 10
0.0
 20
0.0
 11
0.0
 21
0.0
 12
0.0
 22
0.0
 32
0.0
 14
0.0
 24
0.0
 34
0.0
 15
0.0
 25
0.0
 35
0.0
146
0.0
 13
0.0
 23
0.0
 33
0.0
 16
1.0
 26
0.0
 36
0.0
 17
0.0
 27
1.0
 37
0.0
 76
     0
330
23
  0
LAYOUT
  5
22
102
{ACAD_REACTORS
330
1A
102
}
330
1A
100
AcDbPlotSettings
  1

  2
none_device
  4
Letter_(8.50_x_11.00_Inches)
  6

 40
6.35
 41
6.35
 42
6.35000508
 43
6.35000508
 44
215.9
 45
279.4
 46
0.0
 47
0.0
 48
0.0
 49
0.0
140
0.0
141
0.0
142
1.0
143
1.0
 70
  1712
 72
     1
 73
     0
 74
     0
  7

 75
     0
147
1.0
148
0.0
149
0.0
100
AcDbLayout
  1
Model
 70
     1
 71
     0
 10
0.0
 20
0.0
 11
297.0
 21
210.0
 12
0.0
 22
0.0
 32
0.0
 14
0.0
 24
0.0
 34
0.0
 15
297.0
 25
210.0
 35
0.0
146
0.0
 13
0.0
 23
0.0
 33
0.0
 16
1.0
 26
0.0
 36
0.0
 17
0.0
 27
1.0
 37
0.0
 76
     0
330
1F
331
29
  0
MLINESTYLE
  5
18
102
{ACAD_REACTORS
330
17
102
}
330
17
100
AcDbMlineStyle
  2
Standard
 70
     0
  3

 62
   256
 51
90.0
 52
90.0
 71
     2
 49
0.5
 62
   256
  6
BYLAYER
 49
-0.5
 62
   256
  6
BYLAYER
  0
ACDBPLACEHOLDER
  5
F
102
{ACAD_REACTORS
330
E
102
}
330
E
  0
SCALE
  5
48
102
{ACAD_REACTORS
330
47
102
}
330
47
100
AcDbScale
 70
     0
300
1:1
140
1.0
141
1.0
290
     1
  0
SCALE
  5
49
102
{ACAD_REACTORS
330
47
102
}
330
47
100
AcDbScale
 70
     0
300
1:2
140
1.0
141
2.0
290
     0
  0
SCALE
  5
4A
102
{ACAD_REACTORS
330
47
102
}
330
47
100
AcDbScale
 70
     0
300
1:4
140
1.0
141
4.0
290
     0
  0
SCALE
  5
4B
102
{ACAD_REACTORS
330
47
102
}
330
47
100
AcDbScale
 70
     0
300
1:5
140
1.0
141
5.0
290
     0
  0
SCALE
  5
4C
102
{ACAD_REACTORS
330
47
102
}
330
47
100
AcDbScale
 70
     0
300
1:8
140
1.0
141
8.0
290
     0
  0
SCALE
  5
4D
102
{ACAD_REACTORS
330
47
102
}
330
47
100
AcDbScale
 70
     0
300
1:10
140
1.0
141
10.0
290
     0
  0
SCALE
  5
4E
102
{ACAD_REACTORS
330
47
102
}
330
47
100
AcDbScale
 70
     0
300
1:16
140
1.0
141
16.0
290
     0
  0
SCALE
  5
4F
102
{ACAD_REACTORS
330
47
102
}
330
47
100
AcDbScale
 70
     0
300
1:20
140
1.0
141
20.0
290
     0
  0
SCALE
  5
50
102
{ACAD_REACTORS
330
47
102
}
330
47
100
AcDbScale
 70
     0
300
1:30
140
1.0
141
30.0
290
     0
  0
SCALE
  5
51
102
{ACAD_REACTORS
330
47
102
}
330
47
100
AcDbScale
 70
     0
300
1:40
140
1.0
141
40.0
290
     0
  0
SCALE
  5
52
102
{ACAD_REACTORS
330
47
102
}
330
47
100
AcDbScale
 70
     0
300
1:50
140
1.0
141
50.0
290
     0
  0
SCALE
  5
53
102
{ACAD_REACTORS
330
47
102
}
330
47
100
AcDbScale
 70
     0
300
1:100
140
1.0
141
100.0
290
     0
  0
SCALE
  5
54
102
{ACAD_REACTORS
330
47
102
}
330
47
100
AcDbScale
 70
     0
300
2:1
140
2.0
141
1.0
290
     0
  0
SCALE
  5
55
102
{ACAD_REACTORS
330
47
102
}
330
47
100
AcDbScale
 70
     0
300
4:1
140
4.0
141
1.0
290
     0
  0
SCALE
  5
56
102
{ACAD_REACTORS
330
47
102
}
330
47
100
AcDbScale
 70
     0
300
8:1
140
8.0
141
1.0
290
     0
  0
SCALE
  5
57
102
{ACAD_REACTORS
330
47
102
}
330
47
100
AcDbScale
 70
     0
300
10:1
140
10.0
141
1.0
290
     0
  0
SCALE
  5
58
102
{ACAD_REACTORS
330
47
102
}
330
47
100
AcDbScale
 70
     0
300
100:1
140
100.0
141
1.0
290
     0
  0
SCALE
  5
59
102
{ACAD_REACTORS
330
47
102
}
330
47
100
AcDbScale
 70
     0
300
1/128" = 1'-0"
140
0.0078125
141
12.0
290
     0
  0
SCALE
  5
5A
102
{ACAD_REACTORS
330
47
102
}
330
47
100
AcDbScale
 70
     0
300
1/64" = 1'-0"
140
0.015625
141
12.0
290
     0
  0
SCALE
  5
5B
102
{ACAD_REACTORS
330
47
102
}
330
47
100
AcDbScale
 70
     0
300
1/32" = 1'-0"
140
0.03125
141
12.0
290
     0
  0
SCALE
  5
5C
102
{ACAD_REACTORS
330
47
102
}
330
47
100
AcDbScale
 70
     0
300
1/16" = 1'-0"
140
0.0625
141
12.0
290
     0
  0
SCALE
  5
5D
102
{ACAD_REACTORS
330
47
102
}
330
47
100
AcDbScale
 70
     0
300
3/32" = 1'-0"
140
0.09375
141
12.0
290
     0
  0
SCALE
  5
5E
102
{ACAD_REACTORS
330
47
102
}
330
47
100
AcDbScale
 70
     0
300
1/8" = 1'-0"
140
0.125
141
12.0
290
     0
  0
SCALE
  5
5F
102
{ACAD_REACTORS
330
47
102
}
330
47
100
AcDbScale
 70
     0
300
3/16" = 1'-0"
140
0.1875
141
12.0
290
     0
  0
SCALE
  5
60
102
{ACAD_REACTORS
330
47
102
}
330
47
100
AcDbScale
 70
     0
300
1/4" = 1'-0"
140
0.25
141
12.0
290
     0
  0
SCALE
  5
61
102
{ACAD_REACTORS
330
47
102
}
330
47
100
AcDbScale
 70
     0
300
3/8" = 1'-0"
140
0.375
141
12.0
290
     0
  0
SCALE
  5
62
102
{ACAD_REACTORS
330
47
102
}
330
47
100
AcDbScale
 70
     0
300
1/2" = 1'-0"
140
0.5
141
12.0
290
     0
  0
SCALE
  5
63
102
{ACAD_REACTORS
330
47
102
}
330
47
100
AcDbScale
 70
     0
300
3/4" = 1'-0"
140
0.75
141
12.0
290
     0
  0
SCALE
  5
64
102
{ACAD_REACTORS
330
47
102
}
330
47
100
AcDbScale
 70
     0
300
1" = 1'-0"
140
1.0
141
12.0
290
     0
  0
SCALE
  5
65
102
{ACAD_REACTORS
330
47
102
}
330
47
100
AcDbScale
 70
     0
300
1-1/2" = 1'-0"
140
1.5
141
12.0
290
     0
  0
SCALE
  5
66
102
{ACAD_REACTORS
330
47
102
}
330
47
100
AcDbScale
 70
     0
300
3" = 1'-0"
140
3.0
141
12.0
290
     0
  0
SCALE
  5
67
102
{ACAD_REACTORS
330
47
102
}
330
47
100
AcDbScale
 70
     0
300
6" = 1'-0"
140
6.0
141
12.0
290
     0
  0
SCALE
  5
68
102
{ACAD_REACTORS
330
47
102
}
330
47
100
AcDbScale
 70
     0
300
1'-0" = 1'-0"
140
12.0
141
12.0
290
     0
  0
ENDSEC
  0
EOF
