  0
SECTION
  2
HEADER
  9
$ACADVER
  1
AC1015
  9
$ACADMAINTVER
 70
     6
  9
$DWGCODEPAGE
  3
ANSI_950
  9
$INSBASE
 10
0.0
 20
0.0
 30
0.0
  9
$EXTMIN
 10
0.0
 20
0.0
 30
0.0
  9
$EXTMAX
 10
297.0
 20
210.0
 30
0.0
  9
$LIMMIN
 10
0.0
 20
0.0
  9
$LIMMAX
 10
297.0
 20
210.0
  9
$ORTHOMODE
 70
     0
  9
$REGENMODE
 70
     1
  9
$FILLMODE
 70
     1
  9
$QTEXTMODE
 70
     0
  9
$MIRRTEXT
 70
     1
  9
$LTSCALE
 40
1.0
  9
$ATTMODE
 70
     1
  9
$TEXTSIZE
 40
2.5
  9
$TRACEWID
 40
1.0
  9
$TEXTSTYLE
  7
Standard
  9
$CLAYER
  8
0
  9
$CELTYPE
  6
ByLayer
  9
$CECOLOR
 62
   256
  9
$CELTSCALE
 40
1.0
  9
$DISPSILH
 70
     0
  9
$DIMSCALE
 40
1.0
  9
$DIMASZ
 40
2.0
  9
$DIMEXO
 40
1.0
  9
$DIMDLI
 40
3.75
  9
$DIMRND
 40
0.0
  9
$DIMDLE
 40
0.0
  9
$DIMEXE
 40
1.0
  9
$DIMTP
 40
0.0
  9
$DIMTM
 40
0.0
  9
$DIMTXT
 40
2.5
  9
$DIMCEN
 40
2.5
  9
$DIMTSZ
 40
0.0
  9
$DIMTOL
 70
     0
  9
$DIMLIM
 70
     0
  9
$DIMTIH
 70
     1
  9
$DIMTOH
 70
     1
  9
$DIMSE1
 70
     0
  9
$DIMSE2
 70
     0
  9
$DIMTAD
 70
     1
  9
$DIMZIN
 70
     0
  9
$DIMBLK
  1

  9
$DIMASO
 70
     1
  9
$DIMSHO
 70
     1
  9
$DIMPOST
  1

  9
$DIMAPOST
  1

  9
$DIMALT
 70
     0
  9
$DIMALTD
 70
     3
  9
$DIMALTF
 40
0.0393700787
  9
$DIMLFAC
 40
2.0
  9
$DIMTOFL
 70
     1
  9
$DIMTVP
 40
0.0
  9
$DIMTIX
 70
     0
  9
$DIMSOXD
 70
     0
  9
$DIMSAH
 70
     0
  9
$DIMBLK1
  1

  9
$DIMBLK2
  1

  9
$DIMSTYLE
  2
ISO-25
  9
$DIMCLRD
 70
     0
  9
$DIMCLRE
 70
     0
  9
$DIMCLRT
 70
     0
  9
$DIMTFAC
 40
1.0
  9
$DIMGAP
 40
1.0
  9
$DIMJUST
 70
     0
  9
$DIMSD1
 70
     0
  9
$DIMSD2
 70
     0
  9
$DIMTOLJ
 70
     0
  9
$DIMTZIN
 70
     0
  9
$DIMALTZ
 70
     0
  9
$DIMALTTZ
 70
     0
  9
$DIMUPT
 70
     0
  9
$DIMDEC
 70
     2
  9
$DIMTDEC
 70
     2
  9
$DIMALTU
 70
     2
  9
$DIMALTTD
 70
     3
  9
$DIMTXSTY
  7
Standard
  9
$DIMAUNIT
 70
     0
  9
$DIMADEC
 70
     1
  9
$DIMALTRND
 40
0.0
  9
$DIMAZIN
 70
     0
  9
$DIMDSEP
 70
    44
  9
$DIMATFIT
 70
     3
  9
$DIMFRAC
 70
     0
  9
$DIMLDRBLK
  1

  9
$DIMLUNIT
 70
     2
  9
$DIMLWD
 70
    -2
  9
$DIMLWE
 70
    -2
  9
$DIMTMOVE
 70
     0
  9
$LUNITS
 70
     2
  9
$LUPREC
 70
     2
  9
$SKETCHINC
 40
1.0
  9
$FILLETRAD
 40
10.0
  9
$AUNITS
 70
     0
  9
$AUPREC
 70
     1
  9
$MENU
  1
.
  9
$ELEVATION
 40
0.0
  9
$PELEVATION
 40
0.0
  9
$THICKNESS
 40
0.0
  9
$LIMCHECK
 70
     0
  9
$CHAMFERA
 40
0.0
  9
$CHAMFERB
 40
0.0
  9
$CHAMFERC
 40
0.0
  9
$CHAMFERD
 40
0.0
  9
$SKPOLY
 70
     0
  9
$TDCREATE
 40
2457450.565882847
  9
$TDUCREATE
 40
2457450.232549514
  9
$TDUPDATE
 40
2457450.565886852
  9
$TDUUPDATE
 40
2457450.232553518
  9
$TDINDWG
 40
0.0000000116
  9
$TDUSRTIMER
 40
0.0000000116
  9
$USRTIMER
 70
     1
  9
$ANGBASE
 50
0.0
  9
$ANGDIR
 70
     0
  9
$PDMODE
 70
     0
  9
$PDSIZE
 40
-1.0
  9
$PLINEWID
 40
0.0
  9
$SPLFRAME
 70
     0
  9
$SPLINETYPE
 70
     6
  9
$SPLINESEGS
 70
     8
  9
$HANDSEED
  5
23B
  9
$SURFTAB1
 70
     6
  9
$SURFTAB2
 70
     6
  9
$SURFTYPE
 70
     6
  9
$SURFU
 70
     6
  9
$SURFV
 70
     6
  9
$UCSBASE
  2

  9
$UCSNAME
  2

  9
$UCSORG
 10
0.0
 20
0.0
 30
0.0
  9
$UCSXDIR
 10
1.0
 20
0.0
 30
0.0
  9
$UCSYDIR
 10
0.0
 20
1.0
 30
0.0
  9
$UCSORTHOREF
  2

  9
$UCSORTHOVIEW
 70
     0
  9
$UCSORGTOP
 10
0.0
 20
0.0
 30
0.0
  9
$UCSORGBOTTOM
 10
0.0
 20
0.0
 30
0.0
  9
$UCSORGLEFT
 10
0.0
 20
0.0
 30
0.0
  9
$UCSORGRIGHT
 10
0.0
 20
0.0
 30
0.0
  9
$UCSORGFRONT
 10
0.0
 20
0.0
 30
0.0
  9
$UCSORGBACK
 10
0.0
 20
0.0
 30
0.0
  9
$PUCSBASE
  2

  9
$PUCSNAME
  2

  9
$PUCSORG
 10
0.0
 20
0.0
 30
0.0
  9
$PUCSXDIR
 10
1.0
 20
0.0
 30
0.0
  9
$PUCSYDIR
 10
0.0
 20
1.0
 30
0.0
  9
$PUCSORTHOREF
  2

  9
$PUCSORTHOVIEW
 70
     0
  9
$PUCSORGTOP
 10
0.0
 20
0.0
 30
0.0
  9
$PUCSORGBOTTOM
 10
0.0
 20
0.0
 30
0.0
  9
$PUCSORGLEFT
 10
0.0
 20
0.0
 30
0.0
  9
$PUCSORGRIGHT
 10
0.0
 20
0.0
 30
0.0
  9
$PUCSORGFRONT
 10
0.0
 20
0.0
 30
0.0
  9
$PUCSORGBACK
 10
0.0
 20
0.0
 30
0.0
  9
$USERI1
 70
     0
  9
$USERI2
 70
     0
  9
$USERI3
 70
     0
  9
$USERI4
 70
     0
  9
$USERI5
 70
     0
  9
$USERR1
 40
0.0
  9
$USERR2
 40
0.0
  9
$USERR3
 40
0.0
  9
$USERR4
 40
0.0
  9
$USERR5
 40
0.0
  9
$WORLDVIEW
 70
     1
  9
$SHADEDGE
 70
     3
  9
$SHADEDIF
 70
    70
  9
$TILEMODE
 70
     1
  9
$MAXACTVP
 70
    64
  9
$PINSBASE
 10
0.0
 20
0.0
 30
0.0
  9
$PLIMCHECK
 70
     0
  9
$PEXTMIN
 10
1.0000000000E+20
 20
1.0000000000E+20
 30
1.0000000000E+20
  9
$PEXTMAX
 10
-1.0000000000E+20
 20
-1.0000000000E+20
 30
-1.0000000000E+20
  9
$PLIMMIN
 10
0.0
 20
0.0
  9
$PLIMMAX
 10
420.0
 20
297.0
  9
$UNITMODE
 70
     0
  9
$VISRETAIN
 70
     1
  9
$PLINEGEN
 70
     0
  9
$PSLTSCALE
 70
     1
  9
$TREEDEPTH
 70
  3020
  9
$CMLSTYLE
  2
Standard
  9
$CMLJUST
 70
     0
  9
$CMLSCALE
 40
20.0
  9
$PROXYGRAPHICS
 70
     1
  9
$MEASUREMENT
 70
     1
  9
$CELWEIGHT
370
    -1
  9
$ENDCAPS
280
     0
  9
$JOINSTYLE
280
     0
  9
$LWDISPLAY
290
     1
  9
$INSUNITS
 70
     4
  9
$HYPERLINKBASE
  1

  9
$STYLESHEET
  1

  9
$XEDIT
290
     1
  9
$CEPSNTYPE
380
     0
  9
$PSTYLEMODE
290
     1
  9
$FINGERPRINTGUID
  2
{D1B2146A-7B47-47D2-9AEB-8F1112FCB1C6}
  9
$VERSIONGUID
  2
{FAEB1C32-E019-11D5-929B-00C0DF256EC4}
  9
$EXTNAMES
290
     1
  9
$PSVPSCALE
 40
0.0
  9
$OLESTARTUP
290
     0
  0
ENDSEC
  0
SECTION
  2
CLASSES
  0
CLASS
  1
ACDBDICTIONARYWDFLT
  2
AcDbDictionaryWithDefault
  3
ObjectDBX Classes
 90
        0
280
     0
281
     0
  0
CLASS
  1
VISUALSTYLE
  2
AcDbVisualStyle
  3
ObjectDBX Classes
 90
     4095
280
     0
281
     0
  0
CLASS
  1
MATERIAL
  2
AcDbMaterial
  3
ObjectDBX Classes
 90
     1153
280
     0
281
     0
  0
CLASS
  1
SCALE
  2
AcDbScale
  3
ObjectDBX Classes
 90
     1153
280
     0
281
     0
  0
CLASS
  1
TABLESTYLE
  2
AcDbTableStyle
  3
ObjectDBX Classes
 90
     4095
280
     0
281
     0
  0
CLASS
  1
MLEADERSTYLE
  2
AcDbMLeaderStyle
  3
ACDB_MLEADERSTYLE_CLASS
 90
     4095
280
     0
281
     0
  0
CLASS
  1
SUN
  2
AcDbSun
  3
SCENEOE
 90
     1153
280
     0
281
     0
  0
CLASS
  1
ACDBPLACEHOLDER
  2
AcDbPlaceHolder
  3
ObjectDBX Classes
 90
        0
280
     0
281
     0
  0
CLASS
  1
LAYOUT
  2
AcDbLayout
  3
ObjectDBX Classes
 90
        0
280
     0
281
     0
  0
ENDSEC
  0
SECTION
  2
TABLES
  0
TABLE
  2
VPORT
  5
8
330
0
100
AcDbSymbolTable
 70
     1
  0
VPORT
  5
29
330
8
100
AcDbSymbolTableRecord
100
AcDbViewportTableRecord
  2
*Active
 70
     0
 10
0.0
 20
0.0
 11
1.0
 21
1.0
 12
148.5
 22
105.0
 13
0.0
 23
0.0
 14
10.0
 24
10.0
 15
10.0
 25
10.0
 16
0.0
 26
0.0
 36
1.0
 17
0.0
 27
0.0
 37
0.0
 40
210.0
 41
1.4142857143
 42
50.0
 43
0.0
 44
0.0
 50
0.0
 51
0.0
 71
     0
 72
  2000
 73
     1
 74
     3
 75
     0
 76
     0
 77
     0
 78
     0
281
     0
 65
     1
110
0.0
120
0.0
130
0.0
111
1.0
121
0.0
131
0.0
112
0.0
122
1.0
132
0.0
 79
     0
146
0.0
  0
ENDTAB
  0
TABLE
  2
LTYPE
  5
5
330
0
100
AcDbSymbolTable
 70
     6
  0
LTYPE
  5
14
330
5
100
AcDbSymbolTableRecord
100
AcDbLinetypeTableRecord
  2
ByBlock
 70
     0
  3

 72
    65
 73
     0
 40
0.0
  0
LTYPE
  5
15
330
5
100
AcDbSymbolTableRecord
100
AcDbLinetypeTableRecord
  2
ByLayer
 70
     0
  3

 72
    65
 73
     0
 40
0.0
  0
LTYPE
  5
16
330
5
100
AcDbSymbolTableRecord
100
AcDbLinetypeTableRecord
  2
Continuous
 70
     0
  3
Solid line
 72
    65
 73
     0
 40
0.0
  0
LTYPE
  5
6E
330
5
100
AcDbSymbolTableRecord
100
AcDbLinetypeTableRecord
  2
HIDDEN
 70
     0
  3
Hidden __ __ __ __ __ __ __ __ __ __ __ __ __ __
 72
    65
 73
     2
 40
1.905
 49
1.27
 74
     0
 49
-0.635
 74
     0
  0
LTYPE
  5
6F
330
5
100
AcDbSymbolTableRecord
100
AcDbLinetypeTableRecord
  2
PHANTOM
 70
     0
  3
Phantom ______  __  __  ______  __  __  ______
 72
    65
 73
     6
 40
12.7
 49
6.35
 74
     0
 49
-1.27
 74
     0
 49
1.27
 74
     0
 49
-1.27
 74
     0
 49
1.27
 74
     0
 49
-1.27
 74
     0
  0
LTYPE
  5
70
330
5
100
AcDbSymbolTableRecord
100
AcDbLinetypeTableRecord
  2
CENTER
 70
     0
  3
Center ____ _ ____ _ ____ _ ____ _ ____ _ ____
 72
    65
 73
     4
 40
10.16
 49
6.35
 74
     0
 49
-1.27
 74
     0
 49
1.27
 74
     0
 49
-1.27
 74
     0
  0
LTYPE
  5
71
330
5
100
AcDbSymbolTableRecord
100
AcDbLinetypeTableRecord
  2
CENTERX2
 70
     0
  3
Center (2x) ________  __  ________  __  _____
 72
    65
 73
     4
 40
20.32
 49
12.7
 74
     0
 49
-2.54
 74
     0
 49
2.54
 74
     0
 49
-2.54
 74
     0
  0
LTYPE
  5
72
330
5
100
AcDbSymbolTableRecord
100
AcDbLinetypeTableRecord
  2
DOT2
 70
     0
  3
Dot (.5x) ........................................
 72
    65
 73
     2
 40
0.635
 49
0.0
 74
     0
 49
-0.635
 74
     0
  0
ENDTAB
  0
TABLE
  2
LAYER
  5
2
330
0
100
AcDbSymbolTable
 70
     3
  0
LAYER
  5
10
330
2
100
AcDbSymbolTableRecord
100
AcDbLayerTableRecord
  2
0
 70
     0
 62
     7
  6
Continuous
370
    -3
390
F
  0
LAYER
  5
73
330
2
100
AcDbSymbolTableRecord
100
AcDbLayerTableRecord
  2
SLD-0
 70
     0
 62
     7
  6
Continuous
370
    15
390
F
  0
LAYER
  5
74
330
2
100
AcDbSymbolTableRecord
100
AcDbLayerTableRecord
  2
DIM
 70
     0
 62
     7
  6
Continuous
370
    -3
390
F
  0
ENDTAB
  0
TABLE
  2
STYLE
  5
3
330
0
100
AcDbSymbolTable
 70
     3
  0
STYLE
  5
11
330
3
100
AcDbSymbolTableRecord
100
AcDbTextStyleTableRecord
  2
Standard
 70
     0
 40
0.0
 41
1.0
 50
0.0
 71
     0
 42
2.5
  3
txt
  4

  0
STYLE
  5
C5
330
3
100
AcDbSymbolTableRecord
100
AcDbTextStyleTableRecord
  2
SLDTEXTSTYLE0
 70
     0
 40
0.0
 41
0.605
 50
0.0
 71
     0
 42
2.5
  3
TXT
  4

  0
STYLE
  5
CE
330
3
100
AcDbSymbolTableRecord
100
AcDbTextStyleTableRecord
  2
SLDTEXTSTYLE1
 70
     0
 40
0.0
 41
0.7
 50
0.0
 71
     0
 42
2.5
  3
TXT
  4

  0
ENDTAB
  0
TABLE
  2
VIEW
  5
6
330
0
100
AcDbSymbolTable
 70
     0
  0
ENDTAB
  0
TABLE
  2
UCS
  5
7
330
0
100
AcDbSymbolTable
 70
     0
  0
ENDTAB
  0
TABLE
  2
APPID
  5
9
330
0
100
AcDbSymbolTable
 70
     1
  0
APPID
  5
12
330
9
100
AcDbSymbolTableRecord
100
AcDbRegAppTableRecord
  2
ACAD
 70
     0
  0
ENDTAB
  0
TABLE
  2
DIMSTYLE
  5
A
330
0
100
AcDbSymbolTable
 70
     3
100
AcDbDimStyleTable
  0
DIMSTYLE
105
27
330
A
100
AcDbSymbolTableRecord
100
AcDbDimStyleTableRecord
  2
ISO-25
 70
     0
 41
2.5
 42
0.625
 43
3.75
 44
1.25
 73
     0
 74
     0
 77
     1
 78
     8
140
2.5
141
2.5
143
0.0393700787
147
0.625
171
     3
172
     1
178
     0
271
     2
272
     2
274
     3
278
    44
283
     0
284
     8
340
11
  0
DIMSTYLE
105
14C
102
{ACAD_REACTORS
330
14B
330
156
330
160
330
16A
330
227
330
231
102
}
330
A
100
AcDbSymbolTableRecord
100
AcDbDimStyleTableRecord
  2
SLDDIMSTYLE0
 70
     0
 41
2.0
 44
0.0
 45
0.000000001
 73
     0
 74
     0
 77
     1
 78
    12
 79
     3
140
2.5
147
0.625
173
     1
178
     0
271
     2
272
     2
276
     2
284
    12
340
C5
  0
DIMSTYLE
105
175
102
{ACAD_REACTORS
330
174
102
}
330
A
100
AcDbSymbolTableRecord
100
AcDbDimStyleTableRecord
  2
SLDDIMSTYLE1
 70
     0
 41
2.0
 44
0.0
 45
0.000000001
 78
    12
 79
     3
140
2.5
141
0.0
147
0.625
173
     1
178
     0
271
     2
272
     2
276
     2
284
    12
340
C5
  0
ENDTAB
  0
TABLE
  2
BLOCK_RECORD
  5
1
330
0
100
AcDbSymbolTable
 70
    12
  0
BLOCK_RECORD
  5
1F
330
1
100
AcDbSymbolTableRecord
100
AcDbBlockTableRecord
  2
*Model_Space
340
22
  0
BLOCK_RECORD
  5
1B
330
1
100
AcDbSymbolTableRecord
100
AcDbBlockTableRecord
  2
*Paper_Space
340
1E
  0
BLOCK_RECORD
  5
23
330
1
100
AcDbSymbolTableRecord
100
AcDbBlockTableRecord
  2
*Paper_Space0
340
26
  0
BLOCK_RECORD
  5
C7
330
1
100
AcDbSymbolTableRecord
100
AcDbBlockTableRecord
  2
SW_NOTE_0
340
0
102
{BLKREFS
331
CD
102
}
  0
BLOCK_RECORD
  5
FE
330
1
100
AcDbSymbolTableRecord
100
AcDbBlockTableRecord
  2
SW_NOTE_1
340
0
102
{BLKREFS
331
103
102
}
  0
BLOCK_RECORD
  5
14D
330
1
100
AcDbSymbolTableRecord
100
AcDbBlockTableRecord
  2
_D
340
0
  0
BLOCK_RECORD
  5
157
330
1
100
AcDbSymbolTableRecord
100
AcDbBlockTableRecord
  2
_D_1
340
0
  0
BLOCK_RECORD
  5
161
330
1
100
AcDbSymbolTableRecord
100
AcDbBlockTableRecord
  2
_D_2
340
0
  0
BLOCK_RECORD
  5
16B
330
1
100
AcDbSymbolTableRecord
100
AcDbBlockTableRecord
  2
_D_3
340
0
  0
BLOCK_RECORD
  5
176
330
1
100
AcDbSymbolTableRecord
100
AcDbBlockTableRecord
  2
_D_4
340
0
  0
BLOCK_RECORD
  5
17D
330
1
100
AcDbSymbolTableRecord
100
AcDbBlockTableRecord
  2
SW_CENTERMARKSYMBOL_0
340
0
102
{BLKREFS
331
188
102
}
  0
BLOCK_RECORD
  5
189
330
1
100
AcDbSymbolTableRecord
100
AcDbBlockTableRecord
  2
SW_CENTERMARKSYMBOL_1
340
0
102
{BLKREFS
331
194
102
}
  0
BLOCK_RECORD
  5
228
330
1
100
AcDbSymbolTableRecord
100
AcDbBlockTableRecord
  2
_D_5
340
0
  0
BLOCK_RECORD
  5
232
330
1
100
AcDbSymbolTableRecord
100
AcDbBlockTableRecord
  2
_D_6
340
0
  0
ENDTAB
  0
ENDSEC
  0
SECTION
  2
BLOCKS
  0
BLOCK
  5
20
330
1F
100
AcDbEntity
  8
0
100
AcDbBlockBegin
  2
*Model_Space
 70
     0
 10
0.0
 20
0.0
 30
0.0
  3
*Model_Space
  1

  0
ENDBLK
  5
21
330
1F
100
AcDbEntity
  8
0
100
AcDbBlockEnd
  0
BLOCK
  5
1C
330
1B
100
AcDbEntity
 67
     1
  8
0
100
AcDbBlockBegin
  2
*Paper_Space
 70
     0
 10
0.0
 20
0.0
 30
0.0
  3
*Paper_Space
  1

  0
ENDBLK
  5
1D
330
1B
100
AcDbEntity
 67
     1
  8
0
100
AcDbBlockEnd
  0
BLOCK
  5
24
330
23
100
AcDbEntity
  8
0
100
AcDbBlockBegin
  2
*Paper_Space0
 70
     0
 10
0.0
 20
0.0
 30
0.0
  3
*Paper_Space0
  1

  0
ENDBLK
  5
25
330
23
100
AcDbEntity
  8
0
100
AcDbBlockEnd
  0
BLOCK
  5
C8
330
C7
100
AcDbEntity
  8
0
100
AcDbBlockBegin
  2
SW_NOTE_0
 70
     0
 10
0.0
 20
0.0
 30
0.0
  3
SW_NOTE_0
  1

  0
MTEXT
  5
CA
330
C7
100
AcDbEntity
  8
0
  6
Continuous
 62
     0
370
     0
100
AcDbMText
 10
0.0
 20
3.4106583948
 30
0.0
 40
2.6458333333
 41
0.0
 71
     1
 72
     1
  1
PROPRIETARY AND CONFIDENTIAL
  7
SLDTEXTSTYLE0
 73
     1
 44
1.0
  0
MTEXT
  5
CB
330
C7
100
AcDbEntity
  8
0
  6
Continuous
 62
     0
370
     0
100
AcDbMText
 10
0.0
 20
-0.08198348
 30
0.0
 40
1.8520833333
 41
0.0
 71
     1
 72
     1
  1
THE INFORMATION CONTAINED IN THIS DRAWING IS THE SOLE PROPERTY OF UNICE E-O SERVICES INC. ANY REPRODUCTION IN PART OR AS A WHOLE WITHOUT THE WRITTEN PERMISSION OF UNICE E-O SERVICES INC IS
  7
SLDTEXTSTYLE0
 73
     1
 44
1.0
  0
MTEXT
  5
CC
330
C7
100
AcDbEntity
  8
0
  6
Continuous
 62
     0
370
     0
100
AcDbMText
 10
0.0
 20
-2.5514278946
 30
0.0
 40
1.8520833333
 41
0.0
 71
     1
 72
     1
  1
PROHIBITED.
  7
SLDTEXTSTYLE0
 73
     1
 44
1.0
  0
ENDBLK
  5
C9
330
C7
100
AcDbEntity
  8
0
100
AcDbBlockEnd
  0
BLOCK
  5
FF
330
FE
100
AcDbEntity
  8
0
100
AcDbBlockBegin
  2
SW_NOTE_1
 70
     0
 10
0.0
 20
0.0
 30
0.0
  3
SW_NOTE_1
  1

  0
MTEXT
  5
101
330
FE
100
AcDbEntity
  8
SLD-0
 62
     0
100
AcDbMText
 10
0.0
 20
2.3874608764
 30
0.0
 40
1.8520833333
 41
0.0
 71
     1
 72
     1
  1
No.5, Andong Rd., Chung Li District,
  7
SLDTEXTSTYLE1
 73
     1
 44
1.0
  0
MTEXT
  5
102
330
FE
100
AcDbEntity
  8
SLD-0
 62
     0
100
AcDbMText
 10
0.0
 20
-0.0819835382
 30
0.0
 40
1.8520833333
 41
0.0
 71
     1
 72
     1
  1
Taoyuan City 32063, Taiwan, R.O.C.
  7
SLDTEXTSTYLE1
 73
     1
 44
1.0
  0
ENDBLK
  5
100
330
FE
100
AcDbEntity
  8
0
100
AcDbBlockEnd
  0
BLOCK
  5
14E
330
14D
100
AcDbEntity
  8
0
100
AcDbBlockBegin
  2
_D
 70
     0
 10
0.0
 20
0.0
 30
0.0
  3
_D
  1

  0
SOLID
  5
150
330
14D
100
AcDbEntity
  8
SLD-0
 62
     7
100
AcDbTrace
 10
107.9249946218
 20
136.3379302442
 30
0.0
 11
105.9249946218
 21
136.5879302442
 31
0.0
 12
105.9249946218
 22
136.0879302442
 32
0.0
 13
105.9249946218
 23
136.0879302442
 33
0.0
  0
SOLID
  5
151
330
14D
100
AcDbEntity
  8
SLD-0
 62
     7
100
AcDbTrace
 10
64.6249946218
 20
136.3379302442
 30
0.0
 11
66.6249946218
 21
136.0879302442
 31
0.0
 12
66.6249946218
 22
136.5879302442
 32
0.0
 13
66.6249946218
 23
136.5879302442
 33
0.0
  0
LINE
  5
152
330
14D
100
AcDbEntity
  8
SLD-0
 62
     7
100
AcDbLine
 10
107.9249946218
 20
127.3379302442
 30
0.0
 11
107.9249946218
 21
137.3379302442
 31
0.0
  0
LINE
  5
153
330
14D
100
AcDbEntity
  8
SLD-0
 62
     7
100
AcDbLine
 10
64.6249946218
 20
127.3379302442
 30
0.0
 11
64.6249946218
 21
137.3379302442
 31
0.0
  0
LINE
  5
154
330
14D
100
AcDbEntity
  8
SLD-0
 62
     7
100
AcDbLine
 10
107.9249946218
 20
136.3379302442
 30
0.0
 11
64.6249946218
 21
136.3379302442
 31
0.0
  0
MTEXT
  5
155
330
14D
100
AcDbEntity
  8
SLD-0
 62
     7
100
AcDbMText
 10
82.9336900721
 20
139.560599419
 30
0.0
 40
2.5
 41
0.0
 71
     1
 72
     1
  1
43.3
  7
SLDTEXTSTYLE0
 73
     1
 44
1.0
  0
ENDBLK
  5
14F
330
14D
100
AcDbEntity
  8
0
100
AcDbBlockEnd
  0
BLOCK
  5
158
330
157
100
AcDbEntity
  8
0
100
AcDbBlockBegin
  2
_D_1
 70
     0
 10
0.0
 20
0.0
 30
0.0
  3
_D_1
  1

  0
SOLID
  5
15A
330
157
100
AcDbEntity
  8
SLD-0
 62
     7
100
AcDbTrace
 10
114.9249946218
 20
129.3379302442
 30
0.0
 11
114.6749946218
 21
127.3379302442
 31
0.0
 12
115.1749946218
 22
127.3379302442
 32
0.0
 13
115.1749946218
 23
127.3379302442
 33
0.0
  0
SOLID
  5
15B
330
157
100
AcDbEntity
  8
SLD-0
 62
     7
100
AcDbTrace
 10
114.9249946218
 20
103.3379302442
 30
0.0
 11
115.1749946218
 21
105.3379302442
 31
0.0
 12
114.6749946218
 22
105.3379302442
 32
0.0
 13
114.6749946218
 23
105.3379302442
 33
0.0
  0
LINE
  5
15C
330
157
100
AcDbEntity
  8
SLD-0
 62
     7
100
AcDbLine
 10
105.9249946218
 20
129.3379302442
 30
0.0
 11
115.9249946218
 21
129.3379302442
 31
0.0
  0
LINE
  5
15D
330
157
100
AcDbEntity
  8
SLD-0
 62
     7
100
AcDbLine
 10
94.0749946219
 20
103.3379302442
 30
0.0
 11
115.9249946218
 21
103.3379302442
 31
0.0
  0
LINE
  5
15E
330
157
100
AcDbEntity
  8
SLD-0
 62
     7
100
AcDbLine
 10
114.9249946218
 20
129.3379302442
 30
0.0
 11
114.9249946218
 21
103.3379302442
 31
0.0
  0
MTEXT
  5
15F
330
157
100
AcDbEntity
  8
SLD-0
 62
     7
100
AcDbMText
 10
111.702325447
 20
114.4296420854
 30
0.0
 40
2.5
 41
0.0
 71
     1
 72
     1
  1
26
  7
SLDTEXTSTYLE0
 11
-7.044195017643634E-15
 21
1.0
 31
0.0
 73
     1
 44
1.0
  0
ENDBLK
  5
159
330
157
100
AcDbEntity
  8
0
100
AcDbBlockEnd
  0
BLOCK
  5
162
330
161
100
AcDbEntity
  8
0
100
AcDbBlockBegin
  2
_D_2
 70
     0
 10
0.0
 20
0.0
 30
0.0
  3
_D_2
  1

  0
SOLID
  5
164
330
161
100
AcDbEntity
  8
SLD-0
 62
     7
100
AcDbTrace
 10
121.9249946218
 20
129.3379302442
 30
0.0
 11
121.6749946218
 21
127.3379302442
 31
0.0
 12
122.1749946218
 22
127.3379302442
 32
0.0
 13
122.1749946218
 23
127.3379302442
 33
0.0
  0
SOLID
  5
165
330
161
100
AcDbEntity
  8
SLD-0
 62
     7
100
AcDbTrace
 10
121.9249946218
 20
82.8379302442
 30
0.0
 11
122.1749946218
 21
84.8379302442
 31
0.0
 12
121.6749946218
 22
84.8379302442
 32
0.0
 13
121.6749946218
 23
84.8379302442
 33
0.0
  0
LINE
  5
166
330
161
100
AcDbEntity
  8
SLD-0
 62
     7
100
AcDbLine
 10
105.9249946218
 20
129.3379302442
 30
0.0
 11
122.9249946218
 21
129.3379302442
 31
0.0
  0
LINE
  5
167
330
161
100
AcDbEntity
  8
SLD-0
 62
     7
100
AcDbLine
 10
94.0749946219
 20
82.8379302442
 30
0.0
 11
122.9249946218
 21
82.8379302442
 31
0.0
  0
LINE
  5
168
330
161
100
AcDbEntity
  8
SLD-0
 62
     7
100
AcDbLine
 10
121.9249946218
 20
129.3379302442
 30
0.0
 11
121.9249946218
 21
82.8379302442
 31
0.0
  0
MTEXT
  5
169
330
161
100
AcDbEntity
  8
SLD-0
 62
     7
100
AcDbMText
 10
118.702325447
 20
102.7466256944
 30
0.0
 40
2.5
 41
0.0
 71
     1
 72
     1
  1
46.5
  7
SLDTEXTSTYLE0
 11
-7.044195017643634E-15
 21
1.0
 31
0.0
 73
     1
 44
1.0
  0
ENDBLK
  5
163
330
161
100
AcDbEntity
  8
0
100
AcDbBlockEnd
  0
BLOCK
  5
16C
330
16B
100
AcDbEntity
  8
0
100
AcDbBlockBegin
  2
_D_3
 70
     0
 10
0.0
 20
0.0
 30
0.0
  3
_D_3
  1

  0
SOLID
  5
16E
330
16B
100
AcDbEntity
  8
SLD-0
 62
     7
100
AcDbTrace
 10
130.0660203114
 20
62.8379302442
 30
0.0
 11
130.3160203114
 21
64.8379302442
 31
0.0
 12
129.8160203114
 22
64.8379302442
 32
0.0
 13
129.8160203114
 23
64.8379302442
 33
0.0
  0
SOLID
  5
16F
330
16B
100
AcDbEntity
  8
SLD-0
 62
     7
100
AcDbTrace
 10
130.0660203114
 20
129.3379302442
 30
0.0
 11
129.8160203114
 21
127.3379302442
 31
0.0
 12
130.3160203114
 22
127.3379302442
 32
0.0
 13
130.3160203114
 23
127.3379302442
 33
0.0
  0
LINE
  5
170
330
16B
100
AcDbEntity
  8
SLD-0
 62
     7
100
AcDbLine
 10
87.2749946218
 20
62.8379302442
 30
0.0
 11
131.0660203114
 21
62.8379302442
 31
0.0
  0
LINE
  5
171
330
16B
100
AcDbEntity
  8
SLD-0
 62
     7
100
AcDbLine
 10
105.9249946218
 20
129.3379302442
 30
0.0
 11
131.0660203114
 21
129.3379302442
 31
0.0
  0
LINE
  5
172
330
16B
100
AcDbEntity
  8
SLD-0
 62
     7
100
AcDbLine
 10
130.0660203114
 20
62.8379302442
 30
0.0
 11
130.0660203114
 21
129.3379302442
 31
0.0
  0
MTEXT
  5
173
330
16B
100
AcDbEntity
  8
SLD-0
 62
     7
100
AcDbMText
 10
126.8433511366
 20
92.7466256944
 30
0.0
 40
2.5
 41
0.0
 71
     1
 72
     1
  1
66.5
  7
SLDTEXTSTYLE0
 11
-2.825347524068039E-15
 21
1.0
 31
0.0
 73
     1
 44
1.0
  0
ENDBLK
  5
16D
330
16B
100
AcDbEntity
  8
0
100
AcDbBlockEnd
  0
BLOCK
  5
177
330
176
100
AcDbEntity
  8
0
100
AcDbBlockBegin
  2
_D_4
 70
     0
 10
0.0
 20
0.0
 30
0.0
  3
_D_4
  1

  0
SOLID
  5
179
330
176
100
AcDbEntity
  8
SLD-0
100
AcDbTrace
 10
83.1869045712
 20
77.9283783462
 30
0.0
 11
81.9104273168
 21
76.3685367456
 31
0.0
 12
82.3336645494
 22
76.102322086
 32
0.0
 13
82.3336645494
 23
76.102322086
 33
0.0
  0
LINE
  5
17A
330
176
100
AcDbEntity
  8
SLD-0
100
AcDbLine
 10
83.1869045712
 20
77.9283783462
 30
0.0
 11
74.6457381425
 21
64.3493378507
 31
0.0
  0
LINE
  5
17B
330
176
100
AcDbEntity
  8
SLD-0
100
AcDbLine
 10
74.6457381425
 20
64.3493378507
 30
0.0
 11
20.4443538068
 21
64.3493378507
 31
0.0
  0
MTEXT
  5
17C
330
176
100
AcDbEntity
  8
SLD-0
100
AcDbMText
 10
20.4443538068
 20
67.5720070255
 30
0.0
 40
2.5
 41
0.0
 71
     1
 72
     1
  1
Both of M6 and 1/4"-20 SLOT CLR
  7
SLDTEXTSTYLE0
 73
     1
 44
1.0
  0
ENDBLK
  5
178
330
176
100
AcDbEntity
  8
0
100
AcDbBlockEnd
  0
BLOCK
  5
17E
330
17D
100
AcDbEntity
  8
0
100
AcDbBlockBegin
  2
SW_CENTERMARKSYMBOL_0
 70
     0
 10
0.0
 20
0.0
 30
0.0
  3
SW_CENTERMARKSYMBOL_0
  1

  0
LINE
  5
180
330
17D
100
AcDbEntity
  8
SLD-0
 62
     0
100
AcDbLine
 10
0.0
 20
0.0
 30
0.0
 11
0.0
 21
1.0
 31
0.0
  0
LINE
  5
181
330
17D
100
AcDbEntity
  8
SLD-0
 62
     0
100
AcDbLine
 10
0.0
 20
0.0
 30
0.0
 11
-1.0
 21
0.0
 31
0.0
  0
LINE
  5
182
330
17D
100
AcDbEntity
  8
SLD-0
 62
     0
100
AcDbLine
 10
0.0
 20
0.0
 30
0.0
 11
0.0
 21
-1.0
 31
0.0
  0
LINE
  5
183
330
17D
100
AcDbEntity
  8
SLD-0
 62
     0
100
AcDbLine
 10
0.0
 20
0.0
 30
0.0
 11
1.0
 21
0.0
 31
0.0
  0
LINE
  5
184
330
17D
100
AcDbEntity
  8
SLD-0
 62
     0
100
AcDbLine
 10
0.0
 20
2.0
 30
0.0
 11
0.0
 21
6.8
 31
0.0
  0
LINE
  5
185
330
17D
100
AcDbEntity
  8
SLD-0
 62
     0
100
AcDbLine
 10
-2.0
 20
0.0
 30
0.0
 11
-6.8
 21
0.0
 31
0.0
  0
LINE
  5
186
330
17D
100
AcDbEntity
  8
SLD-0
 62
     0
100
AcDbLine
 10
0.0
 20
-2.0
 30
0.0
 11
0.0
 21
-6.8
 31
0.0
  0
LINE
  5
187
330
17D
100
AcDbEntity
  8
SLD-0
 62
     0
100
AcDbLine
 10
2.0
 20
0.0
 30
0.0
 11
6.8
 21
0.0
 31
0.0
  0
ENDBLK
  5
17F
330
17D
100
AcDbEntity
  8
0
100
AcDbBlockEnd
  0
BLOCK
  5
18A
330
189
100
AcDbEntity
  8
0
100
AcDbBlockBegin
  2
SW_CENTERMARKSYMBOL_1
 70
     0
 10
0.0
 20
0.0
 30
0.0
  3
SW_CENTERMARKSYMBOL_1
  1

  0
LINE
  5
18C
330
189
100
AcDbEntity
  8
SLD-0
 62
     0
100
AcDbLine
 10
0.0
 20
0.0
 30
0.0
 11
0.0
 21
1.0
 31
0.0
  0
LINE
  5
18D
330
189
100
AcDbEntity
  8
SLD-0
 62
     0
100
AcDbLine
 10
0.0
 20
0.0
 30
0.0
 11
-1.0
 21
0.0
 31
0.0
  0
LINE
  5
18E
330
189
100
AcDbEntity
  8
SLD-0
 62
     0
100
AcDbLine
 10
0.0
 20
0.0
 30
0.0
 11
0.0
 21
-1.0
 31
0.0
  0
LINE
  5
18F
330
189
100
AcDbEntity
  8
SLD-0
 62
     0
100
AcDbLine
 10
0.0
 20
0.0
 30
0.0
 11
1.0
 21
0.0
 31
0.0
  0
LINE
  5
190
330
189
100
AcDbEntity
  8
SLD-0
 62
     0
100
AcDbLine
 10
0.0
 20
2.0
 30
0.0
 11
0.0
 21
6.8
 31
0.0
  0
LINE
  5
191
330
189
100
AcDbEntity
  8
SLD-0
 62
     0
100
AcDbLine
 10
-2.0
 20
0.0
 30
0.0
 11
-6.8
 21
0.0
 31
0.0
  0
LINE
  5
192
330
189
100
AcDbEntity
  8
SLD-0
 62
     0
100
AcDbLine
 10
0.0
 20
-2.0
 30
0.0
 11
0.0
 21
-6.8
 31
0.0
  0
LINE
  5
193
330
189
100
AcDbEntity
  8
SLD-0
 62
     0
100
AcDbLine
 10
2.0
 20
0.0
 30
0.0
 11
6.8
 21
0.0
 31
0.0
  0
ENDBLK
  5
18B
330
189
100
AcDbEntity
  8
0
100
AcDbBlockEnd
  0
BLOCK
  5
229
330
228
100
AcDbEntity
  8
0
100
AcDbBlockBegin
  2
_D_5
 70
     0
 10
0.0
 20
0.0
 30
0.0
  3
_D_5
  1

  0
SOLID
  5
22B
330
228
100
AcDbEntity
  8
SLD-0
 62
     7
100
AcDbTrace
 10
149.8618312354
 20
53.3281667526
 30
0.0
 11
151.8618312354
 21
53.0781667526
 31
0.0
 12
151.8618312354
 22
53.5781667526
 32
0.0
 13
151.8618312354
 23
53.5781667526
 33
0.0
  0
SOLID
  5
22C
330
228
100
AcDbEntity
  8
SLD-0
 62
     7
100
AcDbTrace
 10
161.3618312354
 20
53.3281667526
 30
0.0
 11
159.3618312354
 21
53.5781667526
 31
0.0
 12
159.3618312354
 22
53.0781667526
 32
0.0
 13
159.3618312354
 23
53.0781667526
 33
0.0
  0
LINE
  5
22D
330
228
100
AcDbEntity
  8
SLD-0
 62
     7
100
AcDbLine
 10
149.8618312354
 20
62.0879302442
 30
0.0
 11
149.8618312354
 21
52.3281667526
 31
0.0
  0
LINE
  5
22E
330
228
100
AcDbEntity
  8
SLD-0
 62
     7
100
AcDbLine
 10
161.3618312354
 20
62.0879302442
 30
0.0
 11
161.3618312354
 21
52.3281667526
 31
0.0
  0
LINE
  5
22F
330
228
100
AcDbEntity
  8
SLD-0
 62
     7
100
AcDbLine
 10
149.8618312354
 20
53.3281667526
 30
0.0
 11
161.3618312354
 21
53.3281667526
 31
0.0
  0
MTEXT
  5
230
330
228
100
AcDbEntity
  8
SLD-0
 62
     7
100
AcDbMText
 10
152.2698174293
 20
56.5508359274
 30
0.0
 40
2.5
 41
0.0
 71
     1
 72
     1
  1
11.5
  7
SLDTEXTSTYLE0
 73
     1
 44
1.0
  0
ENDBLK
  5
22A
330
228
100
AcDbEntity
  8
0
100
AcDbBlockEnd
  0
BLOCK
  5
233
330
232
100
AcDbEntity
  8
0
100
AcDbBlockBegin
  2
_D_6
 70
     0
 10
0.0
 20
0.0
 30
0.0
  3
_D_6
  1

  0
SOLID
  5
235
330
232
100
AcDbEntity
  8
SLD-0
 62
     7
100
AcDbTrace
 10
149.8618312354
 20
135.4656961543
 30
0.0
 11
151.8618312354
 21
135.2156961543
 31
0.0
 12
151.8618312354
 22
135.7156961543
 32
0.0
 13
151.8618312354
 23
135.7156961543
 33
0.0
  0
SOLID
  5
236
330
232
100
AcDbEntity
  8
SLD-0
 62
     7
100
AcDbTrace
 10
160.6618312354
 20
135.4656961543
 30
0.0
 11
158.6618312354
 21
135.7156961543
 31
0.0
 12
158.6618312354
 22
135.2156961543
 32
0.0
 13
158.6618312354
 23
135.2156961543
 33
0.0
  0
LINE
  5
237
330
232
100
AcDbEntity
  8
SLD-0
 62
     7
100
AcDbLine
 10
149.8618312354
 20
130.0879302442
 30
0.0
 11
149.8618312354
 21
136.4656961543
 31
0.0
  0
LINE
  5
238
330
232
100
AcDbEntity
  8
SLD-0
 62
     7
100
AcDbLine
 10
160.6618312354
 20
130.0879302442
 30
0.0
 11
160.6618312354
 21
136.4656961543
 31
0.0
  0
LINE
  5
239
330
232
100
AcDbEntity
  8
SLD-0
 62
     7
100
AcDbLine
 10
149.8618312354
 20
135.4656961543
 30
0.0
 11
160.6618312354
 21
135.4656961543
 31
0.0
  0
MTEXT
  5
23A
330
232
100
AcDbEntity
  8
SLD-0
 62
     7
100
AcDbMText
 10
151.9198174293
 20
138.6883653291
 30
0.0
 40
2.5
 41
0.0
 71
     1
 72
     1
  1
10.8
  7
SLDTEXTSTYLE0
 73
     1
 44
1.0
  0
ENDBLK
  5
234
330
232
100
AcDbEntity
  8
0
100
AcDbBlockEnd
  0
ENDSEC
  0
SECTION
  2
ENTITIES
  0
HATCH
  5
75
330
1F
100
AcDbEntity
  8
DIM
 62
     7
100
AcDbHatch
 10
0.0
 20
0.0
 30
0.0
210
0.0
220
0.0
230
1.0
  2
SOLID
 70
     1
 71
     0
 91
        1
 92
        0
 93
       10
 72
     2
 10
192.2348466414183
 20
35.77251774243945
 40
3.045751395731247
 50
249.211220914341
 51
308.9221353953366
 73
     1
 72
     1
 10
194.1483816026528
 20
33.40292167628558
 11
195.1132012638699
 21
32.55563489264323
 72
     1
 10
195.1132012638699
 20
32.55563489264323
 11
191.9030612907142
 21
29.43859517988082
 72
     1
 10
191.9030612907142
 20
29.43859517988082
 11
190.9622608352202
 21
30.24859224999082
 72
     1
 10
190.9622608352202
 20
30.24859224999082
 11
191.5933127556353
 21
30.86449264046185
 72
     1
 10
191.5933127556353
 20
30.86449264046185
 11
187.5841104454397
 21
34.34909648073653
 72
     2
 10
188.5990518749804
 20
35.49665685649705
 40
1.531992467805808
 50
131.4906380929588
 51
229.7089352075141
 73
     0
 72
     1
 10
187.6083570274649
 20
36.66521350489709
 11
188.9149852823466
 21
37.92680058140461
 72
     1
 10
188.9149852823466
 20
37.92680058140461
 11
189.930179129749
 21
37.03126868058682
 72
     2
 10
191.9034494331218
 20
35.38387599319203
 40
2.570544369711283
 50
140.143046278066
 51
253.0452525074004
 73
     1
 97
        0
 75
     0
 76
     1
 98
        1
 10
0.0
 20
0.0
  0
HATCH
  5
76
330
1F
100
AcDbEntity
  8
DIM
 62
     1
100
AcDbHatch
 10
0.0
 20
0.0
 30
0.0
210
0.0
220
0.0
230
1.0
  2
SOLID
 70
     1
 71
     0
 91
        1
 92
        0
 93
       10
 72
     2
 10
192.3680120803822
 20
35.01831810373741
 40
3.18163670452787
 50
234.1674444878508
 51
314.440707458399
 73
     0
 72
     2
 10
192.6856683711066
 20
35.55913990921559
 40
2.57756748834625
 50
317.818499299578
 51
398.0564711573081
 73
     0
 72
     1
 10
194.7152542141541
 20
33.97022975987394
 11
195.7007031071369
 21
33.11153281998445
 72
     1
 10
195.7007031071369
 20
33.11153281998445
 11
196.9423844219307
 21
34.31596576239168
 72
     2
 10
196.0489920962686
 20
35.54391249421261
 40
1.518552937418266
 50
306.0377529468128
 51
403.4396461533867
 73
     1
 72
     1
 10
197.1516119609409
 20
36.58805446625074
 11
193.0248561025975
 21
40.1772307348847
 72
     1
 10
193.0248561025975
 20
40.1772307348847
 11
193.6491074045248
 21
40.78628916572202
 72
     1
 10
193.6491074045248
 20
40.78628916572202
 11
192.7186008943408
 21
41.61648138556655
 72
     1
 10
192.7186008943408
 20
41.61648138556655
 11
189.4830154459309
 21
38.48956113895245
 72
     1
 10
189.4830154459309
 20
38.48956113895245
 11
190.5054233232795
 21
37.59777061183164
 97
        0
 75
     0
 76
     1
 98
        1
 10
0.0
 20
0.0
  0
LINE
  5
77
330
1F
100
AcDbEntity
  8
0
  6
Continuous
 62
     7
370
     0
100
AcDbLine
 10
167.8593775185
 20
17.7745192513
 30
0.0
 11
168.8593775185
 21
17.7745192513
 31
0.0
  0
LINE
  5
78
330
1F
100
AcDbEntity
  8
0
  6
Continuous
 62
     7
370
     0
100
AcDbLine
 10
164.8593775185
 20
17.7745192513
 30
0.0
 11
167.3593775185
 21
17.7745192513
 31
0.0
  0
LINE
  5
79
330
1F
100
AcDbEntity
  8
0
  6
Continuous
 62
     7
370
     0
100
AcDbLine
 10
181.3593775185
 20
15.2745192513
 30
0.0
 11
181.3593775185
 21
20.2745192513
 31
0.0
  0
LINE
  5
7A
330
1F
100
AcDbEntity
  8
0
  6
Continuous
 62
     7
370
     0
100
AcDbLine
 10
174.3593775185
 20
16.2745192513
 30
0.0
 11
181.3593775185
 21
15.2745192513
 31
0.0
  0
LINE
  5
7B
330
1F
100
AcDbEntity
  8
0
  6
Continuous
 62
     7
370
     0
100
AcDbLine
 10
168.3593775185
 20
16.7745192513
 30
0.0
 11
168.3593775185
 21
14.2745192513
 31
0.0
  0
LINE
  5
7C
330
1F
100
AcDbEntity
  8
0
  6
Continuous
 62
     7
370
     0
100
AcDbLine
 10
181.3593775185
 20
20.2745192513
 30
0.0
 11
174.3593775185
 21
19.2745192513
 31
0.0
  0
LINE
  5
7D
330
1F
100
AcDbEntity
  8
0
  6
Continuous
 62
     7
370
     0
100
AcDbLine
 10
173.3593775185
 20
17.7745192513
 30
0.0
 11
182.3593775185
 21
17.7745192513
 31
0.0
  0
LINE
  5
7E
330
1F
100
AcDbEntity
  8
0
  6
Continuous
 62
     7
370
     0
100
AcDbLine
 10
168.3593775185
 20
18.2745192513
 30
0.0
 11
168.3593775185
 21
17.2745192513
 31
0.0
  0
LINE
  5
7F
330
1F
100
AcDbEntity
  8
0
  6
Continuous
 62
     7
370
     0
100
AcDbLine
 10
169.3593775185
 20
17.7745192513
 30
0.0
 11
171.8593775185
 21
17.7745192513
 31
0.0
  0
LINE
  5
80
330
1F
100
AcDbEntity
  8
0
  6
Continuous
 62
     7
370
     0
100
AcDbLine
 10
168.3593775185
 20
21.2745192513
 30
0.0
 11
168.3593775185
 21
18.7745192513
 31
0.0
  0
LINE
  5
81
330
1F
100
AcDbEntity
  8
0
  6
Continuous
 62
     7
370
     0
100
AcDbLine
 10
174.3593775185
 20
19.2745192513
 30
0.0
 11
174.3593775185
 21
16.2745192513
 31
0.0
  0
LINE
  5
82
330
1F
100
AcDbEntity
  8
0
370
     0
100
AcDbLine
 10
195.1132012639
 20
32.5556348926
 30
0.0
 11
191.9030612907
 21
29.4385951799
 31
0.0
  0
LINE
  5
83
330
1F
100
AcDbEntity
  8
0
370
     0
100
AcDbLine
 10
191.9030612907
 20
29.4385951799
 30
0.0
 11
190.9622608352
 21
30.24859225
 31
0.0
  0
LINE
  5
84
330
1F
100
AcDbEntity
  8
0
370
     0
100
AcDbLine
 10
190.9622608352
 20
30.24859225
 30
0.0
 11
191.5933127556
 21
30.8644926405
 31
0.0
  0
LINE
  5
85
330
1F
100
AcDbEntity
  8
0
370
     0
100
AcDbLine
 10
187.5841104454
 20
34.3490964807
 30
0.0
 11
191.5933127556
 21
30.8644926405
 31
0.0
  0
LINE
  5
86
330
1F
100
AcDbEntity
  8
0
370
     0
100
AcDbLine
 10
188.9149852823
 20
37.9268005814
 30
0.0
 11
187.6083570275
 21
36.6652135049
 31
0.0
  0
LINE
  5
87
330
1F
100
AcDbEntity
  8
0
370
     0
100
AcDbLine
 10
188.9149852823
 20
37.9268005814
 30
0.0
 11
189.9301791297
 21
37.0312686806
 31
0.0
  0
LINE
  5
88
330
1F
100
AcDbEntity
  8
0
370
     0
100
AcDbLine
 10
194.1483816027
 20
33.4029216763
 30
0.0
 11
195.1132012639
 21
32.5556348926
 31
0.0
  0
LINE
  5
89
330
1F
100
AcDbEntity
  8
0
 62
     1
370
     0
100
AcDbLine
 10
190.5054233233
 20
37.5977706118
 30
0.0
 11
189.4830154459
 21
38.489561139
 31
0.0
  0
LINE
  5
8A
330
1F
100
AcDbEntity
  8
0
 62
     1
370
     0
100
AcDbLine
 10
189.4830154459
 20
38.489561139
 30
0.0
 11
192.7186008943
 21
41.6164813856
 31
0.0
  0
LINE
  5
8B
330
1F
100
AcDbEntity
  8
0
 62
     1
370
     0
100
AcDbLine
 10
192.7186008943
 20
41.6164813856
 30
0.0
 11
193.6491074045
 21
40.7862891657
 31
0.0
  0
LINE
  5
8C
330
1F
100
AcDbEntity
  8
0
 62
     1
370
     0
100
AcDbLine
 10
193.6491074045
 20
40.7862891657
 30
0.0
 11
193.0248561026
 21
40.1772307349
 31
0.0
  0
LINE
  5
8D
330
1F
100
AcDbEntity
  8
0
 62
     1
370
     0
100
AcDbLine
 10
193.0248561026
 20
40.1772307349
 30
0.0
 11
197.1516119609
 21
36.5880544663
 31
0.0
  0
LINE
  5
8E
330
1F
100
AcDbEntity
  8
0
 62
     1
370
     0
100
AcDbLine
 10
194.7152542142
 20
33.9702297599
 30
0.0
 11
195.7007031071
 21
33.11153282
 31
0.0
  0
LINE
  5
8F
330
1F
100
AcDbEntity
  8
0
 62
     1
370
     0
100
AcDbLine
 10
195.7007031071
 20
33.11153282
 30
0.0
 11
196.9423844219
 21
34.3159657624
 31
0.0
  0
LINE
  5
90
330
1F
100
AcDbEntity
  8
0
  6
Continuous
 62
     7
370
     0
100
AcDbLine
 10
185.6907965209
 20
13.1152464079
 30
0.0
 11
285.6907965209
 21
13.1152464079
 31
0.0
  0
LINE
  5
91
330
1F
100
AcDbEntity
  8
0
  6
Continuous
 62
     7
370
     0
100
AcDbLine
 10
185.6907965209
 20
18.1152464079
 30
0.0
 11
235.6907965209
 21
18.1152464079
 31
0.0
  0
LINE
  5
92
330
1F
100
AcDbEntity
  8
0
  6
Continuous
 62
     7
370
     0
100
AcDbLine
 10
185.6907965209
 20
23.1152464079
 30
0.0
 11
235.6907965209
 21
23.1152464079
 31
0.0
  0
LINE
  5
93
330
1F
100
AcDbEntity
  8
0
  6
Continuous
 62
     7
370
     0
100
AcDbLine
 10
185.6907965209
 20
28.1152464079
 30
0.0
 11
285.6907965209
 21
28.1152464079
 31
0.0
  0
LINE
  5
94
330
1F
100
AcDbEntity
  8
0
  6
Continuous
 62
     7
370
     0
100
AcDbLine
 10
235.6907965209
 20
33.1152464079
 30
0.0
 11
285.6907965209
 21
33.1152464079
 31
0.0
  0
LINE
  5
95
330
1F
100
AcDbEntity
  8
0
  6
Continuous
 62
     7
370
    15
100
AcDbLine
 10
235.6907965209
 20
18.1152464079
 30
0.0
 11
285.6907965209
 21
18.1152464079
 31
0.0
  0
LINE
  5
96
330
1F
100
AcDbEntity
  8
0
  6
Continuous
 62
     7
370
     0
100
AcDbLine
 10
185.6907965209
 20
43.1152464079
 30
0.0
 11
285.6907965209
 21
43.1152464079
 31
0.0
  0
LINE
  5
97
330
1F
100
AcDbEntity
  8
0
  6
Continuous
 62
     7
370
     0
100
AcDbLine
 10
251.237217675
 20
8.1152464079
 30
0.0
 11
251.237217675
 21
18.1152464079
 31
0.0
  0
LINE
  5
98
330
1F
100
AcDbEntity
  8
0
  6
Continuous
 62
     7
370
     0
100
AcDbLine
 10
235.6907965209
 20
8.1152464079
 30
0.0
 11
235.6907965209
 21
43.1152464079
 31
0.0
  0
LINE
  5
99
330
1F
100
AcDbEntity
  8
0
  6
Continuous
 62
     7
370
     0
100
AcDbLine
 10
251.237217675
 20
28.1152464079
 30
0.0
 11
251.237217675
 21
33.1152464079
 31
0.0
  0
LINE
  5
9A
330
1F
100
AcDbEntity
  8
0
  6
Continuous
 62
     7
370
     0
100
AcDbLine
 10
214.4164086353
 20
8.1152464079
 30
0.0
 11
214.4164086353
 21
28.1152464079
 31
0.0
  0
LINE
  5
9B
330
1F
100
AcDbEntity
  8
0
  6
Continuous
 62
     7
370
     0
100
AcDbLine
 10
199.7785887506
 20
8.1152464079
 30
0.0
 11
199.7785887506
 21
28.1152464079
 31
0.0
  0
LINE
  5
9C
330
1F
100
AcDbEntity
  8
0
  6
Continuous
 62
     7
370
     0
100
AcDbLine
 10
185.6907965209
 20
8.1152464079
 30
0.0
 11
185.6907965209
 21
43.1152464079
 31
0.0
  0
LINE
  5
9D
330
1F
100
AcDbEntity
  8
0
  6
Continuous
 62
     7
370
    15
100
AcDbLine
 10
8.6907965209
 20
104.7436369915
 30
0.0
 11
14.6907965209
 21
104.7436369915
 31
0.0
  0
LINE
  5
9E
330
1F
100
AcDbEntity
  8
0
  6
Continuous
 62
     7
370
    15
100
AcDbLine
 10
285.6907965209
 20
104.7436369915
 30
0.0
 11
279.6907965209
 21
104.7436369915
 31
0.0
  0
LINE
  5
9F
330
1F
100
AcDbEntity
  8
0
  6
Continuous
 62
     7
370
    15
100
AcDbLine
 10
147.1907965209
 20
8.1152464079
 30
0.0
 11
147.1907965209
 21
14.1152464079
 31
0.0
  0
LINE
  5
A0
330
1F
100
AcDbEntity
  8
0
  6
Continuous
 62
     7
370
    15
100
AcDbLine
 10
147.1907965209
 20
201.3720275751
 30
0.0
 11
147.1907965209
 21
195.3720275751
 31
0.0
  0
LINE
  5
A1
330
1F
100
AcDbEntity
  8
0
  6
Continuous
 62
     7
370
    15
100
AcDbLine
 10
43.3207965209
 20
201.3720275751
 30
0.0
 11
43.3207965209
 21
202.8720275751
 31
0.0
  0
LINE
  5
A2
330
1F
100
AcDbEntity
  8
0
  6
Continuous
 62
     7
370
    15
100
AcDbLine
 10
77.9507965209
 20
201.3720275751
 30
0.0
 11
77.9507965209
 21
202.8720275751
 31
0.0
  0
LINE
  5
A3
330
1F
100
AcDbEntity
  8
0
  6
Continuous
 62
     7
370
    15
100
AcDbLine
 10
112.5807965209
 20
201.3720275751
 30
0.0
 11
112.5807965209
 21
202.8720275751
 31
0.0
  0
LINE
  5
A4
330
1F
100
AcDbEntity
  8
0
  6
Continuous
 62
     7
370
    15
100
AcDbLine
 10
147.2107965209
 20
201.3720275751
 30
0.0
 11
147.2107965209
 21
202.8720275751
 31
0.0
  0
LINE
  5
A5
330
1F
100
AcDbEntity
  8
0
  6
Continuous
 62
     7
370
    15
100
AcDbLine
 10
181.8407965209
 20
201.3720275751
 30
0.0
 11
181.8407965209
 21
202.8720275751
 31
0.0
  0
LINE
  5
A6
330
1F
100
AcDbEntity
  8
0
  6
Continuous
 62
     7
370
    15
100
AcDbLine
 10
216.4707965209
 20
201.3720275751
 30
0.0
 11
216.4707965209
 21
202.8720275751
 31
0.0
  0
LINE
  5
A7
330
1F
100
AcDbEntity
  8
0
  6
Continuous
 62
     7
370
    15
100
AcDbLine
 10
251.1007965209
 20
201.3720275751
 30
0.0
 11
251.1007965209
 21
202.8720275751
 31
0.0
  0
LINE
  5
A8
330
1F
100
AcDbEntity
  8
0
  6
Continuous
 62
     7
370
    15
100
AcDbLine
 10
43.3157965209
 20
8.1152464079
 30
0.0
 11
43.3157965209
 21
6.6152464079
 31
0.0
  0
LINE
  5
A9
330
1F
100
AcDbEntity
  8
0
  6
Continuous
 62
     7
370
    15
100
AcDbLine
 10
77.9407965209
 20
8.1152464079
 30
0.0
 11
77.9407965209
 21
6.6152464079
 31
0.0
  0
LINE
  5
AA
330
1F
100
AcDbEntity
  8
0
  6
Continuous
 62
     7
370
    15
100
AcDbLine
 10
112.5657965209
 20
8.1152464079
 30
0.0
 11
112.5657965209
 21
6.6152464079
 31
0.0
  0
LINE
  5
AB
330
1F
100
AcDbEntity
  8
0
  6
Continuous
 62
     7
370
    15
100
AcDbLine
 10
147.1907965209
 20
8.1152464079
 30
0.0
 11
147.1907965209
 21
6.6152464079
 31
0.0
  0
LINE
  5
AC
330
1F
100
AcDbEntity
  8
0
  6
Continuous
 62
     7
370
    15
100
AcDbLine
 10
181.8157965209
 20
8.1152464079
 30
0.0
 11
181.8157965209
 21
6.6152464079
 31
0.0
  0
LINE
  5
AD
330
1F
100
AcDbEntity
  8
0
  6
Continuous
 62
     7
370
    15
100
AcDbLine
 10
216.4407965209
 20
8.1152464079
 30
0.0
 11
216.4407965209
 21
6.6152464079
 31
0.0
  0
LINE
  5
AE
330
1F
100
AcDbEntity
  8
0
  6
Continuous
 62
     7
370
     0
100
AcDbLine
 10
285.6907965209
 20
201.3720275751
 30
0.0
 11
8.6907965209
 21
201.3720275751
 31
0.0
  0
LINE
  5
AF
330
1F
100
AcDbEntity
  8
0
  6
Continuous
 62
     7
370
     0
100
AcDbLine
 10
285.6907965209
 20
8.1152464079
 30
0.0
 11
285.6907965209
 21
201.3720275751
 31
0.0
  0
LINE
  5
B0
330
1F
100
AcDbEntity
  8
0
  6
Continuous
 62
     7
370
     0
100
AcDbLine
 10
8.6907965209
 20
201.3720275751
 30
0.0
 11
8.6907965209
 21
8.1152464079
 31
0.0
  0
LINE
  5
B1
330
1F
100
AcDbEntity
  8
0
  6
Continuous
 62
     7
370
     0
100
AcDbLine
 10
8.6907965209
 20
8.1152464079
 30
0.0
 11
285.6907965209
 21
8.1152464079
 31
0.0
  0
LINE
  5
B2
330
1F
100
AcDbEntity
  8
0
  6
Continuous
 62
     7
370
    15
100
AcDbLine
 10
251.0657965209
 20
8.1152464079
 30
0.0
 11
251.0657965209
 21
6.6152464079
 31
0.0
  0
LINE
  5
B3
330
1F
100
AcDbEntity
  8
0
  6
Continuous
 62
     7
370
    15
100
AcDbLine
 10
8.6907965209
 20
40.3252464079
 30
0.0
 11
7.1907965209
 21
40.3252464079
 31
0.0
  0
LINE
  5
B4
330
1F
100
AcDbEntity
  8
0
  6
Continuous
 62
     7
370
    15
100
AcDbLine
 10
8.6907965209
 20
72.5352464079
 30
0.0
 11
7.1907965209
 21
72.5352464079
 31
0.0
  0
LINE
  5
B5
330
1F
100
AcDbEntity
  8
0
  6
Continuous
 62
     7
370
    15
100
AcDbLine
 10
8.6907965209
 20
104.7452464079
 30
0.0
 11
7.1907965209
 21
104.7452464079
 31
0.0
  0
LINE
  5
B6
330
1F
100
AcDbEntity
  8
0
  6
Continuous
 62
     7
370
    15
100
AcDbLine
 10
8.6907965209
 20
136.9552464079
 30
0.0
 11
7.1907965209
 21
136.9552464079
 31
0.0
  0
LINE
  5
B7
330
1F
100
AcDbEntity
  8
0
  6
Continuous
 62
     7
370
    15
100
AcDbLine
 10
8.6907965209
 20
169.1652464079
 30
0.0
 11
7.1907965209
 21
169.1652464079
 31
0.0
  0
LINE
  5
B8
330
1F
100
AcDbEntity
  8
0
  6
Continuous
 62
     7
370
    15
100
AcDbLine
 10
285.6907965209
 20
40.3252464079
 30
0.0
 11
287.1907965209
 21
40.3252464079
 31
0.0
  0
LINE
  5
B9
330
1F
100
AcDbEntity
  8
0
  6
Continuous
 62
     7
370
    15
100
AcDbLine
 10
285.6907965209
 20
72.5352464079
 30
0.0
 11
287.1907965209
 21
72.5352464079
 31
0.0
  0
LINE
  5
BA
330
1F
100
AcDbEntity
  8
0
  6
Continuous
 62
     7
370
    15
100
AcDbLine
 10
285.6907965209
 20
104.7452464079
 30
0.0
 11
287.1907965209
 21
104.7452464079
 31
0.0
  0
LINE
  5
BB
330
1F
100
AcDbEntity
  8
0
  6
Continuous
 62
     7
370
    15
100
AcDbLine
 10
285.6907965209
 20
136.9552464079
 30
0.0
 11
287.1907965209
 21
136.9552464079
 31
0.0
  0
LINE
  5
BC
330
1F
100
AcDbEntity
  8
0
  6
Continuous
 62
     7
370
    15
100
AcDbLine
 10
285.6907965209
 20
169.1652464079
 30
0.0
 11
287.1907965209
 21
169.1652464079
 31
0.0
  0
CIRCLE
  5
BD
330
1F
100
AcDbEntity
  8
0
  6
Continuous
 62
     7
370
     0
100
AcDbCircle
 10
168.3593775185
 20
17.7745192513
 30
0.0
 40
1.5
  0
CIRCLE
  5
BE
330
1F
100
AcDbEntity
  8
0
  6
Continuous
 62
     7
370
     0
100
AcDbCircle
 10
168.3593775185
 20
17.7745192513
 30
0.0
 40
2.5
  0
ARC
  5
BF
330
1F
100
AcDbEntity
  8
0
370
     0
100
AcDbCircle
 10
188.599051875
 20
35.4966568565
 30
0.0
 40
1.531992467805807
100
AcDbArc
 50
130.2910647925
 51
228.509361907
  0
ARC
  5
C0
330
1F
100
AcDbEntity
  8
0
370
     0
100
AcDbCircle
 10
191.9034494331
 20
35.3838759932
 30
0.0
 40
2.570544369711303
100
AcDbArc
 50
140.1430462781
 51
253.0452525074
  0
ARC
  5
C1
330
1F
100
AcDbEntity
  8
0
370
     0
100
AcDbCircle
 10
192.2348466414
 20
35.7725177424
 30
0.0
 40
3.045751395731247
100
AcDbArc
 50
249.2112209143
 51
308.9221353953
  0
ARC
  5
C2
330
1F
100
AcDbEntity
  8
0
 62
     1
370
     0
100
AcDbCircle
 10
196.0489920963
 20
35.5439124942
 30
0.0
 40
1.51855293741827
100
AcDbArc
 50
306.0377529468
 51
43.4396461534
  0
ARC
  5
C3
330
1F
100
AcDbEntity
  8
0
 62
     1
370
     0
100
AcDbCircle
 10
192.3680120804
 20
35.0183181037
 30
0.0
 40
3.18163670452787
100
AcDbArc
 50
45.5592925416
 51
125.8325555121
  0
ARC
  5
C4
330
1F
100
AcDbEntity
  8
0
 62
     1
370
     0
100
AcDbCircle
 10
192.6856683711
 20
35.5591399092
 30
0.0
 40
2.57756748834625
100
AcDbArc
 50
321.9435288427
 51
42.1815007004
  0
MTEXT
  5
C6
330
1F
100
AcDbEntity
  8
0
  6
Continuous
 62
     7
370
     0
100
AcDbMText
 10
165.5426850804
 20
13.2208440369
 30
0.0
 40
2.6458333333
 41
0.0
 71
     1
 72
     1
  1
UNIT:m/m
  7
SLDTEXTSTYLE0
 73
     1
 44
1.0
  0
INSERT
  5
CD
330
1F
100
AcDbEntity
  8
0
  6
Continuous
 62
     7
370
     0
100
AcDbBlockReference
  2
SW_NOTE_0
 10
12.2315076053
 20
193.8904304251
 30
0.0
  0
MTEXT
  5
CF
330
1F
100
AcDbEntity
  8
0
  6
Continuous
 62
     7
370
     0
100
AcDbMText
 10
198.7251893935
 20
40.4406774139
 30
0.0
 40
2.38125
 41
0.0
 71
     1
 72
     1
  1
Unice E-O Services Inc.
  7
SLDTEXTSTYLE1
 73
     1
 44
1.0
  0
MTEXT
  5
D0
330
1F
100
AcDbEntity
  8
0
  6
Continuous
 62
     7
370
     0
100
AcDbMText
 10
217.5590538149
 20
21.5867148511
 30
0.0
 40
1.8520833333
 41
0.0
 71
     1
 72
     1
  1
2010/12/30
  7
SLDTEXTSTYLE0
 73
     1
 44
1.0
  0
MTEXT
  5
D1
330
1F
100
AcDbEntity
  8
0
  6
Continuous
 62
     7
370
     0
100
AcDbMText
 10
252.6088982507
 20
16.87117774
 30
0.0
 40
2.5
 41
0.0
 71
     1
 72
     1
  1
1:1
  7
SLDTEXTSTYLE0
 73
     1
 44
1.0
  0
MTEXT
  5
D2
330
1F
100
AcDbEntity
  8
0
  6
Continuous
 62
     7
370
     0
100
AcDbMText
 10
252.3075599985
 20
32.1519195438
 30
0.0
 40
2.5
 41
0.0
 71
     1
 72
     1
  1
02BCF-4(M)
  7
SLDTEXTSTYLE0
 73
     1
 44
1.0
  0
MTEXT
  5
D3
330
1F
100
AcDbEntity
  8
0
  6
Continuous
 62
     7
370
     0
100
AcDbMText
 10
252.3075599985
 20
38.1082117879
 30
0.0
 40
2.5
 41
0.0
 71
     1
 72
     1
  1
02BCF-4(M)
  7
SLDTEXTSTYLE0
 73
     1
 44
1.0
  0
MTEXT
  5
D4
330
1F
100
AcDbEntity
  8
0
  6
Continuous
 62
     7
370
     0
100
AcDbMText
 10
236.3921866786
 20
16.5064795728
 30
0.0
 40
2.1166666667
 41
0.0
 71
     1
 72
     1
  1
SCALE:
  7
SLDTEXTSTYLE0
 73
     1
 44
1.0
  0
MTEXT
  5
D5
330
1F
100
AcDbEntity
  8
0
  6
Continuous
 62
     7
370
     0
100
AcDbMText
 10
186.3336086789
 20
21.5867148511
 30
0.0
 40
1.8520833333
 41
0.0
 71
     1
 72
     1
  1
DRAWN
  7
SLDTEXTSTYLE0
 73
     1
 44
1.0
  0
MTEXT
  5
D6
330
1F
100
AcDbEntity
  8
0
  6
Continuous
 62
     7
370
     0
100
AcDbMText
 10
203.2228367937
 20
26.683208308
 30
0.0
 40
1.8520833333
 41
0.0
 71
     1
 72
     1
  1
NAME
  7
SLDTEXTSTYLE0
 73
     1
 44
1.0
  0
MTEXT
  5
D7
330
1F
100
AcDbEntity
  8
0
  6
Continuous
 62
     7
370
     0
100
AcDbMText
 10
220.8710155758
 20
26.683208308
 30
0.0
 40
1.8520833333
 41
0.0
 71
     1
 72
     1
  1
DATE
  7
SLDTEXTSTYLE0
 73
     1
 44
1.0
  0
MTEXT
  5
D8
330
1F
100
AcDbEntity
  8
0
  6
Continuous
 62
     7
370
     0
100
AcDbMText
 10
236.2756316645
 20
31.7872213766
 30
0.0
 40
2.1166666667
 41
0.0
 71
     1
 72
     1
  1
DWG. NO.
  7
SLDTEXTSTYLE0
 73
     1
 44
1.0
  0
MTEXT
  5
D9
330
1F
100
AcDbEntity
  8
0
  6
Continuous
 62
     7
370
     0
100
AcDbMText
 10
236.3629907088
 20
41.8840658243
 30
0.0
 40
2.1166666667
 41
0.0
 71
     1
 72
     1
  1
TITLE:
  7
SLDTEXTSTYLE0
 73
     1
 44
1.0
  0
MTEXT
  5
DA
330
1F
100
AcDbEntity
  8
0
  6
Continuous
 62
     7
370
     0
100
AcDbMText
 10
203.0314209802
 20
16.2403789724
 30
0.0
 40
1.8520833333
 41
0.0
 71
     1
 72
     1
  1
Johnny
  7
SLDTEXTSTYLE0
 73
     1
 44
1.0
  0
MTEXT
  5
DB
330
1F
100
AcDbEntity
  8
0
  6
Continuous
 62
     7
370
     0
100
AcDbMText
 10
217.5590538149
 20
16.2403789724
 30
0.0
 40
1.8520833333
 41
0.0
 71
     1
 72
     1
  1
2010/12/30
  7
SLDTEXTSTYLE0
 73
     1
 44
1.0
  0
MTEXT
  5
DC
330
1F
100
AcDbEntity
  8
0
  6
Continuous
 62
     7
370
     0
100
AcDbMText
 10
186.3336086789
 20
16.2403789724
 30
0.0
 40
1.8520833333
 41
0.0
 71
     1
 72
     1
  1
ENG APPR.
  7
SLDTEXTSTYLE0
 73
     1
 44
1.0
  0
MTEXT
  5
DD
330
1F
100
AcDbEntity
  8
0
  6
Continuous
 62
     7
370
     0
100
AcDbMText
 10
236.3921866786
 20
11.6853389288
 30
0.0
 40
2.1166666667
 41
0.0
 71
     1
 72
     1
  1
REV
  7
SLDTEXTSTYLE0
 73
     1
 44
1.0
  0
MTEXT
  5
DE
330
1F
100
AcDbEntity
  8
0
  6
Continuous
 62
     7
370
     0
100
AcDbMText
 10
236.3629907088
 20
26.9493089085
 30
0.0
 40
2.1166666667
 41
0.0
 71
     1
 72
     1
  1
MATERIAL:
  7
SLDTEXTSTYLE0
 73
     1
 44
1.0
  0
MTEXT
  5
DF
330
1F
100
AcDbEntity
  8
0
  6
Continuous
 62
     7
370
     0
100
AcDbMText
 10
252.6088982507
 20
22.2175136187
 30
0.0
 40
2.5
 41
0.0
 71
     1
 72
     1
  1
N/A
  7
SLDTEXTSTYLE0
 73
     1
 44
1.0
  0
MTEXT
  5
E0
330
1F
100
AcDbEntity
  8
0
  6
Continuous
 62
     7
370
     0
100
AcDbMText
 10
26.6029931533
 20
204.453351657
 30
0.0
 40
2.1166666667
 41
0.0
 71
     1
 72
     1
  1
1
  7
SLDTEXTSTYLE0
 73
     1
 44
1.0
  0
MTEXT
  5
E1
330
1F
100
AcDbEntity
  8
0
  6
Continuous
 62
     7
370
     0
100
AcDbMText
 10
60.7170995724
 20
204.453351657
 30
0.0
 40
2.1166666667
 41
0.0
 71
     1
 72
     1
  1
2
  7
SLDTEXTSTYLE0
 73
     1
 44
1.0
  0
MTEXT
  5
E2
330
1F
100
AcDbEntity
  8
0
  6
Continuous
 62
     7
370
     0
100
AcDbMText
 10
94.9009943906
 20
204.453351657
 30
0.0
 40
2.1166666667
 41
0.0
 71
     1
 72
     1
  1
3
  7
SLDTEXTSTYLE0
 73
     1
 44
1.0
  0
MTEXT
  5
E3
330
1F
100
AcDbEntity
  8
0
  6
Continuous
 62
     7
370
     0
100
AcDbMText
 10
129.2533362851
 20
204.2992584364
 30
0.0
 40
2.1166666667
 41
0.0
 71
     1
 72
     1
  1
4
  7
SLDTEXTSTYLE0
 73
     1
 44
1.0
  0
MTEXT
  5
E4
330
1F
100
AcDbEntity
  8
0
  6
Continuous
 62
     7
370
     0
100
AcDbMText
 10
163.702323464
 20
204.453351657
 30
0.0
 40
2.1166666667
 41
0.0
 71
     1
 72
     1
  1
5
  7
SLDTEXTSTYLE0
 73
     1
 44
1.0
  0
MTEXT
  5
E5
330
1F
100
AcDbEntity
  8
0
  6
Continuous
 62
     7
370
     0
100
AcDbMText
 10
198.6382170415
 20
204.453351657
 30
0.0
 40
2.1166666667
 41
0.0
 71
     1
 72
     1
  1
6
  7
SLDTEXTSTYLE0
 73
     1
 44
1.0
  0
MTEXT
  5
E6
330
1F
100
AcDbEntity
  8
0
  6
Continuous
 62
     7
370
     0
100
AcDbMText
 10
234.3630657407
 20
204.453351657
 30
0.0
 40
2.1166666667
 41
0.0
 71
     1
 72
     1
  1
7
  7
SLDTEXTSTYLE0
 73
     1
 44
1.0
  0
MTEXT
  5
E7
330
1F
100
AcDbEntity
  8
0
  6
Continuous
 62
     7
370
     0
100
AcDbMText
 10
266.2787820494
 20
204.453351657
 30
0.0
 40
2.1166666667
 41
0.0
 71
     1
 72
     1
  1
8
  7
SLDTEXTSTYLE0
 73
     1
 44
1.0
  0
MTEXT
  5
E8
330
1F
100
AcDbEntity
  8
0
  6
Continuous
 62
     7
370
     0
100
AcDbMText
 10
5.3568236555
 20
185.8113022879
 30
0.0
 40
2.1166666667
 41
0.0
 71
     1
 72
     1
  1
A
  7
SLDTEXTSTYLE0
 73
     1
 44
1.0
  0
MTEXT
  5
E9
330
1F
100
AcDbEntity
  8
0
  6
Continuous
 62
     7
370
     0
100
AcDbMText
 10
5.5910431831
 20
154.2993048238
 30
0.0
 40
2.1166666667
 41
0.0
 71
     1
 72
     1
  1
B
  7
SLDTEXTSTYLE0
 73
     1
 44
1.0
  0
MTEXT
  5
EA
330
1F
100
AcDbEntity
  8
0
  6
Continuous
 62
     7
370
     0
100
AcDbMText
 10
5.5910431831
 20
121.274351423
 30
0.0
 40
2.1166666667
 41
0.0
 71
     1
 72
     1
  1
C
  7
SLDTEXTSTYLE0
 73
     1
 44
1.0
  0
MTEXT
  5
EB
330
1F
100
AcDbEntity
  8
0
  6
Continuous
 62
     7
370
     0
100
AcDbMText
 10
5.5910431831
 20
88.7453220221
 30
0.0
 40
2.1166666667
 41
0.0
 71
     1
 72
     1
  1
D
  7
SLDTEXTSTYLE0
 73
     1
 44
1.0
  0
MTEXT
  5
EC
330
1F
100
AcDbEntity
  8
0
  6
Continuous
 62
     7
370
     0
100
AcDbMText
 10
5.5910431831
 20
57.5558849197
 30
0.0
 40
2.1166666667
 41
0.0
 71
     1
 72
     1
  1
E
  7
SLDTEXTSTYLE0
 73
     1
 44
1.0
  0
MTEXT
  5
ED
330
1F
100
AcDbEntity
  8
0
  6
Continuous
 62
     7
370
     0
100
AcDbMText
 10
5.5910431831
 20
25.5694212252
 30
0.0
 40
2.1166666667
 41
0.0
 71
     1
 72
     1
  1
F
  7
SLDTEXTSTYLE0
 73
     1
 44
1.0
  0
MTEXT
  5
EE
330
1F
100
AcDbEntity
  8
0
  6
Continuous
 62
     7
370
     0
100
AcDbMText
 10
266.1858616964
 20
6.6236223963
 30
0.0
 40
2.1166666667
 41
0.0
 71
     1
 72
     1
  1
8
  7
SLDTEXTSTYLE0
 73
     1
 44
1.0
  0
MTEXT
  5
EF
330
1F
100
AcDbEntity
  8
0
  6
Continuous
 62
     7
370
     0
100
AcDbMText
 10
234.2701453876
 20
6.6236223963
 30
0.0
 40
2.1166666667
 41
0.0
 71
     1
 72
     1
  1
7
  7
SLDTEXTSTYLE0
 73
     1
 44
1.0
  0
MTEXT
  5
F0
330
1F
100
AcDbEntity
  8
0
  6
Continuous
 62
     7
370
     0
100
AcDbMText
 10
198.5452966885
 20
6.6236223963
 30
0.0
 40
2.1166666667
 41
0.0
 71
     1
 72
     1
  1
6
  7
SLDTEXTSTYLE0
 73
     1
 44
1.0
  0
MTEXT
  5
F1
330
1F
100
AcDbEntity
  8
0
  6
Continuous
 62
     7
370
     0
100
AcDbMText
 10
163.6094031109
 20
6.6236223963
 30
0.0
 40
2.1166666667
 41
0.0
 71
     1
 72
     1
  1
5
  7
SLDTEXTSTYLE0
 73
     1
 44
1.0
  0
MTEXT
  5
F2
330
1F
100
AcDbEntity
  8
0
  6
Continuous
 62
     7
370
     0
100
AcDbMText
 10
129.1604159321
 20
6.4695291758
 30
0.0
 40
2.1166666667
 41
0.0
 71
     1
 72
     1
  1
4
  7
SLDTEXTSTYLE0
 73
     1
 44
1.0
  0
MTEXT
  5
F3
330
1F
100
AcDbEntity
  8
0
  6
Continuous
 62
     7
370
     0
100
AcDbMText
 10
94.8080740376
 20
6.6236223963
 30
0.0
 40
2.1166666667
 41
0.0
 71
     1
 72
     1
  1
3
  7
SLDTEXTSTYLE0
 73
     1
 44
1.0
  0
MTEXT
  5
F4
330
1F
100
AcDbEntity
  8
0
  6
Continuous
 62
     7
370
     0
100
AcDbMText
 10
60.6241792194
 20
6.6236223963
 30
0.0
 40
2.1166666667
 41
0.0
 71
     1
 72
     1
  1
2
  7
SLDTEXTSTYLE0
 73
     1
 44
1.0
  0
MTEXT
  5
F5
330
1F
100
AcDbEntity
  8
0
  6
Continuous
 62
     7
370
     0
100
AcDbMText
 10
26.5100728003
 20
6.6236223963
 30
0.0
 40
2.1166666667
 41
0.0
 71
     1
 72
     1
  1
1
  7
SLDTEXTSTYLE0
 73
     1
 44
1.0
  0
MTEXT
  5
F6
330
1F
100
AcDbEntity
  8
0
  6
Continuous
 62
     7
370
     0
100
AcDbMText
 10
287.1023846145
 20
186.6424909092
 30
0.0
 40
2.1166666667
 41
0.0
 71
     1
 72
     1
  1
A
  7
SLDTEXTSTYLE0
 73
     1
 44
1.0
  0
MTEXT
  5
F7
330
1F
100
AcDbEntity
  8
0
  6
Continuous
 62
     7
370
     0
100
AcDbMText
 10
287.3366041421
 20
155.1304934451
 30
0.0
 40
2.1166666667
 41
0.0
 71
     1
 72
     1
  1
B
  7
SLDTEXTSTYLE0
 73
     1
 44
1.0
  0
MTEXT
  5
F8
330
1F
100
AcDbEntity
  8
0
  6
Continuous
 62
     7
370
     0
100
AcDbMText
 10
287.3366041421
 20
122.1055400442
 30
0.0
 40
2.1166666667
 41
0.0
 71
     1
 72
     1
  1
C
  7
SLDTEXTSTYLE0
 73
     1
 44
1.0
  0
MTEXT
  5
F9
330
1F
100
AcDbEntity
  8
0
  6
Continuous
 62
     7
370
     0
100
AcDbMText
 10
287.3366041421
 20
89.5765106433
 30
0.0
 40
2.1166666667
 41
0.0
 71
     1
 72
     1
  1
D
  7
SLDTEXTSTYLE0
 73
     1
 44
1.0
  0
MTEXT
  5
FA
330
1F
100
AcDbEntity
  8
0
  6
Continuous
 62
     7
370
     0
100
AcDbMText
 10
287.3366041421
 20
58.3870735409
 30
0.0
 40
2.1166666667
 41
0.0
 71
     1
 72
     1
  1
E
  7
SLDTEXTSTYLE0
 73
     1
 44
1.0
  0
MTEXT
  5
FB
330
1F
100
AcDbEntity
  8
0
  6
Continuous
 62
     7
370
     0
100
AcDbMText
 10
287.3366041421
 20
26.4006098464
 30
0.0
 40
2.1166666667
 41
0.0
 71
     1
 72
     1
  1
F
  7
SLDTEXTSTYLE0
 73
     1
 44
1.0
  0
MTEXT
  5
FC
330
1F
100
AcDbEntity
  8
0
  6
Continuous
 62
     7
370
     0
100
AcDbMText
 10
203.1553128802
 20
21.5867148511
 30
0.0
 40
1.8520833333
 41
0.0
 71
     1
 72
     1
  1
Miki
  7
SLDTEXTSTYLE0
 73
     1
 44
1.0
  0
MTEXT
  5
FD
330
1F
100
AcDbEntity
  8
0
  6
Continuous
 62
     7
370
     0
100
AcDbMText
 10
252.8482239645
 20
12.0500370959
 30
0.0
 40
2.5
 41
0.0
 71
     1
 72
     1
  1
0
  7
SLDTEXTSTYLE0
 73
     1
 44
1.0
  0
INSERT
  5
103
330
1F
100
AcDbEntity
  8
SLD-0
 62
     7
100
AcDbBlockReference
  2
SW_NOTE_1
 10
198.7251893935
 20
32.9569198246
 30
0.0
  0
ARC
  5
104
330
1F
100
AcDbEntity
  8
0
  6
Continuous
 62
     7
370
    30
100
AcDbCircle
 10
86.2749946218
 20
126.8379302442
 30
0.0
 40
16.65000000000012
100
AcDbArc
 50
191.2561265749
 51
347.8653286195
  0
SPLINE
  5
105
330
1F
100
AcDbEntity
  8
0
  6
Continuous
 62
     7
370
    30
100
AcDbSpline
210
0.0
220
0.0
230
1.0
 70
     8
 71
     3
 72
    12
 73
     8
 74
     0
 42
0.000000001
 43
0.00000001
 40
0.0
 40
0.0
 40
0.0
 40
0.0
 40
0.2499999999999964
 40
0.2499999999999964
 40
0.4999999999999929
 40
0.4999999999999929
 40
1.0
 40
1.0
 40
1.0
 40
1.0
 10
70.25282248446354
 20
123.3379302441685
 30
0.0
 10
70.25282248446352
 20
123.3379302441685
 30
0.0
 10
70.2382434753543
 20
123.3496617849707
 30
0.0
 10
70.1947918627406
 20
123.384725439228
 30
0.0
 10
70.16702938558636
 20
123.4071682069928
 30
0.0
 10
70.07838295279404
 20
123.4790542901295
 30
0.0
 10
70.01123427497974
 20
123.5338023998587
 30
0.0
 10
69.94526712871513
 20
123.5879302441686
 30
0.0
  0
ARC
  5
106
330
1F
100
AcDbEntity
  8
0
  6
Continuous
 62
     7
370
    30
100
AcDbCircle
 10
86.2749946218
 20
126.8379302442
 30
0.0
 40
16.40000000000012
100
AcDbArc
 50
192.3225339804
 51
347.6774660196
  0
ARC
  5
107
330
1F
100
AcDbEntity
  8
0
  6
Continuous
 62
     7
370
    30
100
AcDbCircle
 10
-70.2557873061
 20
57.7088614827
 30
0.0
 40
150.25
100
AcDbArc
 50
4.430812697
 51
25.9242369902
  0
LWPOLYLINE
  5
108
330
1F
100
AcDbEntity
  8
0
  6
Continuous
 62
     7
370
    30
100
AcDbPolyline
 90
        9
 70
   128
 43
0.0
 10
79.5451678251
 20
69.3164575307
 10
79.4965411451
 20
69.3126896324
 10
79.4497831639
 20
69.3090664966
 10
79.4066904028
 20
69.3057273559
 10
79.3689196844
 20
69.3028006165
 10
79.3379220095
 20
69.3003986774
 10
79.3148885396
 20
69.2986139141
 10
79.3007044968
 20
69.297514837
 10
79.2959151704
 20
69.2971437632
  0
ARC
  5
109
330
1F
100
AcDbEntity
  8
0
  6
Continuous
 62
     7
370
    30
100
AcDbCircle
 10
-70.2557873061
 20
57.7088614827
 30
0.0
 40
150.0
100
AcDbArc
 50
4.430812697
 51
25.946208122
  0
SPLINE
  5
10A
330
1F
100
AcDbEntity
  8
0
  6
Continuous
 62
     7
370
    30
100
AcDbSpline
210
0.0
220
0.0
230
1.0
 70
     8
 71
     3
 72
    10
 73
     6
 74
     0
 42
0.000000001
 43
0.00000001
 40
0.0
 40
0.0
 40
0.0
 40
0.0
 40
0.5
 40
0.5
 40
1.0
 40
1.0
 40
1.0
 40
1.0
 10
64.62499462184861
 20
123.337930244168
 30
0.0
 10
64.62499462184863
 20
123.3379302441679
 30
0.0
 10
64.65295907912697
 20
123.3443730741885
 30
0.0
 10
64.74564553634107
 20
123.3657200383324
 30
0.0
 10
64.8107273427888
 20
123.3807058039443
 30
0.0
 10
64.87499462184861
 20
123.3954984458868
 30
0.0
  0
LINE
  5
10B
330
1F
100
AcDbEntity
  8
0
  6
Continuous
 62
     7
370
    30
100
AcDbLine
 10
72.4063246426
 20
129.0879311084
 30
0.0
 11
67.6249937069
 21
129.0879311084
 31
0.0
  0
LINE
  5
10C
330
1F
100
AcDbEntity
  8
0
  6
Continuous
 62
     7
370
    30
100
AcDbLine
 10
67.6249937069
 20
129.0879311084
 30
0.0
 11
67.6249937069
 21
129.3379316151
 31
0.0
  0
LINE
  5
10D
330
1F
100
AcDbEntity
  8
0
  6
Continuous
 62
     7
370
    30
100
AcDbLine
 10
67.6249937069
 20
129.3379316151
 30
0.0
 11
72.7033327249
 21
129.3379316151
 31
0.0
  0
SPLINE
  5
10E
330
1F
100
AcDbEntity
  8
0
  6
Continuous
 62
     7
370
    30
100
AcDbSpline
210
0.0
220
0.0
230
1.0
 70
     8
 71
     3
 72
    12
 73
     8
 74
     0
 42
0.000000001
 43
0.00000001
 40
0.0
 40
0.0
 40
0.0
 40
0.0
 40
0.249999999999993
 40
0.249999999999993
 40
0.4999999999999859
 40
0.4999999999999859
 40
1.0
 40
1.0
 40
1.0
 40
1.0
 10
72.70333296971458
 20
129.3379302441678
 30
0.0
 10
72.70333296971458
 20
129.3379302441678
 30
0.0
 10
72.68969076094234
 20
129.3265790496533
 30
0.0
 10
72.6481190410708
 20
129.2918779115906
 30
0.0
 10
72.62144182998789
 20
129.269565621011
 30
0.0
 10
72.53568562409146
 20
129.1975822921733
 30
0.0
 10
72.47042866661431
 20
129.1424674428748
 30
0.0
 10
72.40632489472604
 20
129.0879302441678
 30
0.0
  0
ARC
  5
10F
330
1F
100
AcDbEntity
  8
0
  6
Continuous
 62
     7
370
    30
100
AcDbCircle
 10
67.6249946218
 20
126.3379302442
 30
0.0
 40
2.750000000000028
100
AcDbArc
 50
90.0
 51
180.0
  0
LINE
  5
110
330
1F
100
AcDbEntity
  8
0
  6
Continuous
 62
     7
370
    30
100
AcDbLine
 10
64.8749937218
 20
126.3379292607
 30
0.0
 11
64.6249950778
 21
126.3379292607
 31
0.0
  0
ARC
  5
111
330
1F
100
AcDbEntity
  8
0
  6
Continuous
 62
     7
370
    30
100
AcDbCircle
 10
67.6249946218
 20
126.3379302442
 30
0.0
 40
3.000000000000028
100
AcDbArc
 50
90.0
 51
180.0
  0
LINE
  5
112
330
1F
100
AcDbEntity
  8
0
  6
Continuous
 62
     7
370
    30
100
AcDbLine
 10
64.8749937218
 20
126.3379292607
 30
0.0
 11
64.8749937218
 21
123.3954975426
 31
0.0
  0
LINE
  5
113
330
1F
100
AcDbEntity
  8
0
  6
Continuous
 62
     7
370
    30
100
AcDbLine
 10
64.6249950778
 20
123.3379306316
 30
0.0
 11
64.6249950778
 21
126.3379292607
 31
0.0
  0
LINE
  5
114
330
1F
100
AcDbEntity
  8
0
  6
Continuous
 62
     7
370
    30
100
AcDbLine
 10
107.6749955219
 20
123.3954975426
 30
0.0
 11
107.6749955219
 21
126.3379292607
 31
0.0
  0
LINE
  5
115
330
1F
100
AcDbEntity
  8
0
  6
Continuous
 62
     7
370
    30
100
AcDbLine
 10
107.6749955219
 20
126.3379292607
 30
0.0
 11
107.9249941659
 21
126.3379292607
 31
0.0
  0
LINE
  5
116
330
1F
100
AcDbEntity
  8
0
  6
Continuous
 62
     7
370
    30
100
AcDbLine
 10
107.9249941659
 20
126.3379292607
 30
0.0
 11
107.9249941659
 21
123.3379306316
 31
0.0
  0
SPLINE
  5
117
330
1F
100
AcDbEntity
  8
0
  6
Continuous
 62
     7
370
    30
100
AcDbSpline
210
0.0
220
0.0
230
1.0
 70
     8
 71
     3
 72
    10
 73
     6
 74
     0
 42
0.000000001
 43
0.00000001
 40
0.0
 40
0.0
 40
0.0
 40
0.0
 40
0.5
 40
0.5
 40
1.0
 40
1.0
 40
1.0
 40
1.0
 10
107.9249946218486
 20
123.337930244168
 30
0.0
 10
107.9249946218486
 20
123.3379302441679
 30
0.0
 10
107.8970301645703
 20
123.3443730741884
 30
0.0
 10
107.8043437073562
 20
123.3657200383322
 30
0.0
 10
107.7392619009083
 20
123.3807058039437
 30
0.0
 10
107.6749946218486
 20
123.3954984458868
 30
0.0
  0
ARC
  5
118
330
1F
100
AcDbEntity
  8
0
  6
Continuous
 62
     7
370
    30
100
AcDbCircle
 10
86.2749946218
 20
69.8379302442
 30
0.0
 40
6.750000000000038
100
AcDbArc
 50
184.430812697
 51
355.569187303
  0
LWPOLYLINE
  5
119
330
1F
100
AcDbEntity
  8
0
  6
Continuous
 62
     7
370
    30
100
AcDbPolyline
 90
        9
 70
   128
 43
0.0
 10
93.0048214187
 20
69.3164575307
 10
93.0534480986
 20
69.3126896324
 10
93.1002060798
 20
69.3090664966
 10
93.143298841
 20
69.3057273559
 10
93.1810695593
 20
69.3028006165
 10
93.2120672342
 20
69.3003986774
 10
93.2351007041
 20
69.2986139141
 10
93.2492847469
 20
69.297514837
 10
93.2540740733
 20
69.2971437632
  0
ARC
  5
11A
330
1F
100
AcDbEntity
  8
0
  6
Continuous
 62
     7
370
    30
100
AcDbCircle
 10
86.2749946218
 20
69.8379302442
 30
0.0
 40
7.00000000000004
100
AcDbArc
 50
184.430812697
 51
355.569187303
  0
ARC
  5
11B
330
1F
100
AcDbEntity
  8
0
  6
Continuous
 62
     7
370
    30
100
AcDbCircle
 10
242.8057765498
 20
57.7088614827
 30
0.0
 40
150.25
100
AcDbArc
 50
154.0757630098
 51
175.569187303
  0
ARC
  5
11C
330
1F
100
AcDbEntity
  8
0
  6
Continuous
 62
     7
370
    30
100
AcDbCircle
 10
242.8057765498
 20
57.7088614827
 30
0.0
 40
150.0
100
AcDbArc
 50
154.053791878
 51
175.569187303
  0
ARC
  5
11D
330
1F
100
AcDbEntity
  8
0
  6
Continuous
 62
     7
370
    30
100
AcDbCircle
 10
104.9249946218
 20
126.3379302442
 30
0.0
 40
2.750000000000028
100
AcDbArc
 50
0.0
 51
90.0
  0
LINE
  5
11E
330
1F
100
AcDbEntity
  8
0
  6
Continuous
 62
     7
370
    30
100
AcDbLine
 10
104.9249955368
 20
129.0879311084
 30
0.0
 11
104.9249955368
 21
129.3379316151
 31
0.0
  0
ARC
  5
11F
330
1F
100
AcDbEntity
  8
0
  6
Continuous
 62
     7
370
    30
100
AcDbCircle
 10
104.9249946218
 20
126.3379302442
 30
0.0
 40
3.000000000000028
100
AcDbArc
 50
0.0
 51
90.0
  0
LINE
  5
120
330
1F
100
AcDbEntity
  8
0
  6
Continuous
 62
     7
370
    30
100
AcDbLine
 10
99.8466565189
 20
129.3379316151
 30
0.0
 11
104.9249955368
 21
129.3379316151
 31
0.0
  0
LINE
  5
121
330
1F
100
AcDbEntity
  8
0
  6
Continuous
 62
     7
370
    30
100
AcDbLine
 10
104.9249955368
 20
129.0879311084
 30
0.0
 11
99.8903355476
 21
129.0879311084
 31
0.0
  0
SPLINE
  5
122
330
1F
100
AcDbEntity
  8
0
  6
Continuous
 62
     7
370
    30
100
AcDbSpline
210
0.0
220
0.0
230
1.0
 70
     8
 71
     3
 72
    10
 73
     6
 74
     0
 42
0.000000001
 43
0.00000001
 40
0.0
 40
0.0
 40
0.0
 40
0.0
 40
0.5
 40
0.5
 40
1.0
 40
1.0
 40
1.0
 40
1.0
 10
99.89033523455481
 20
129.0879302441678
 30
0.0
 10
99.87948994933667
 20
129.153557911851
 30
0.0
 10
99.86832960767251
 20
129.2177317280901
 30
0.0
 10
99.8517960527324
 20
129.3103125054808
 30
0.0
 10
99.84665627398283
 20
129.3379302441683
 30
0.0
 10
99.84665627398283
 20
129.3379302441683
 30
0.0
  0
LINE
  5
123
330
1F
100
AcDbEntity
  8
0
  6
Continuous
 62
     7
370
    30
100
AcDbLine
 10
69.9452665549
 20
123.5879311382
 30
0.0
 11
72.6060514253
 21
123.5879311382
 31
0.0
  0
SPLINE
  5
124
330
1F
100
AcDbEntity
  8
0
  6
Continuous
 62
     7
370
    30
100
AcDbSpline
210
0.0
220
0.0
230
1.0
 70
     8
 71
     3
 72
    12
 73
     8
 74
     0
 42
0.000000001
 43
0.00000001
 40
0.0
 40
0.0
 40
0.0
 40
0.0
 40
0.2500000000000011
 40
0.2500000000000011
 40
0.5000000000000022
 40
0.5000000000000022
 40
1.0
 40
1.0
 40
1.0
 40
1.0
 10
72.92621190581066
 20
123.337930244168
 30
0.0
 10
72.92621190581066
 20
123.337930244168
 30
0.0
 10
72.91040986950888
 20
123.3501152497455
 30
0.0
 10
72.86460989144615
 20
123.3855572443969
 30
0.0
 10
72.83553910203761
 20
123.4081042962932
 30
0.0
 10
72.74344030135092
 20
123.4798144195082
 30
0.0
 10
72.67411097990187
 20
123.5341607353292
 30
0.0
 10
72.60605172197546
 20
123.587930244168
 30
0.0
  0
LINE
  5
125
330
1F
100
AcDbEntity
  8
0
  6
Continuous
 62
     7
370
    30
100
AcDbLine
 10
72.9262121868
 20
123.3379306316
 30
0.0
 11
70.2528227967
 21
123.3379306316
 31
0.0
  0
ARC
  5
126
330
1F
100
AcDbEntity
  8
0
  6
Continuous
 62
     7
370
    30
100
AcDbCircle
 10
86.2749946218
 20
126.8379302442
 30
0.0
 40
14.05000000000001
100
AcDbArc
 50
170.7848412545
 51
193.3746053032
  0
ARC
  5
127
330
1F
100
AcDbEntity
  8
0
  6
Continuous
 62
     7
370
    30
100
AcDbCircle
 10
86.2749946219
 20
103.3379302442
 30
0.0
 40
5.800000000000054
100
AcDbArc
 50
0.0
 51
180.0
  0
LINE
  5
128
330
1F
100
AcDbEntity
  8
0
  6
Continuous
 62
     7
370
    30
100
AcDbLine
 10
80.4749946956
 20
103.3379310786
 30
0.0
 11
80.4749946956
 21
82.8379305124
 31
0.0
  0
LINE
  5
129
330
1F
100
AcDbEntity
  8
0
  6
Continuous
 62
     7
370
    30
100
AcDbLine
 10
92.0749945481
 20
82.8379305124
 30
0.0
 11
92.0749945481
 21
103.3379310786
 31
0.0
  0
ARC
  5
12A
330
1F
100
AcDbEntity
  8
0
  6
Continuous
 62
     7
370
    30
100
AcDbCircle
 10
86.2749946219
 20
82.8379302442
 30
0.0
 40
5.800000000000011
100
AcDbArc
 50
180.0
 51
0.0
  0
ARC
  5
12B
330
1F
100
AcDbEntity
  8
0
  6
Continuous
 62
     7
370
    30
100
AcDbCircle
 10
86.2749946218
 20
126.8379302442
 30
0.0
 40
13.80000000000014
100
AcDbArc
 50
345.307982091
 51
9.3835949592
  0
LINE
  5
12C
330
1F
100
AcDbEntity
  8
0
  6
Continuous
 62
     7
370
    30
100
AcDbLine
 10
99.6237770569
 20
123.3379306316
 30
0.0
 11
102.552970956
 21
123.3379306316
 31
0.0
  0
ARC
  5
12D
330
1F
100
AcDbEntity
  8
0
  6
Continuous
 62
     7
370
    30
100
AcDbCircle
 10
86.2749946218
 20
126.8379302442
 30
0.0
 40
13.80000000000013
100
AcDbArc
 50
169.5626999635
 51
194.692017909
  0
ARC
  5
12E
330
1F
100
AcDbEntity
  8
0
  6
Continuous
 62
     7
370
    30
100
AcDbCircle
 10
86.2749946219
 20
82.8379302442
 30
0.0
 40
3.25
100
AcDbArc
 50
180.0
 51
0.0
  0
LINE
  5
12F
330
1F
100
AcDbEntity
  8
0
  6
Continuous
 62
     7
370
    30
100
AcDbLine
 10
89.5249946889
 20
82.8379305124
 30
0.0
 11
89.5249946889
 21
103.3379310786
 31
0.0
  0
ARC
  5
130
330
1F
100
AcDbEntity
  8
0
  6
Continuous
 62
     7
370
    30
100
AcDbCircle
 10
86.2749946219
 20
103.3379302442
 30
0.0
 40
3.250000000000014
100
AcDbArc
 50
0.0
 51
180.0
  0
LINE
  5
131
330
1F
100
AcDbEntity
  8
0
  6
Continuous
 62
     7
370
    30
100
AcDbLine
 10
83.0249945548
 20
103.3379310786
 30
0.0
 11
83.0249945548
 21
82.8379305124
 31
0.0
  0
ARC
  5
132
330
1F
100
AcDbEntity
  8
0
  6
HIDDEN
 62
     7
370
     0
100
AcDbCircle
 10
86.2749946218
 20
126.8379302442
 30
0.0
 40
16.40000000000012
100
AcDbArc
 50
171.2317018557
 51
192.3225339804
  0
ARC
  5
133
330
1F
100
AcDbEntity
  8
0
  6
HIDDEN
 62
     7
370
     0
100
AcDbCircle
 10
86.2749946218
 20
126.8379302442
 30
0.0
 40
16.40000000001835
100
AcDbArc
 50
347.6774660196
 51
8.7682981443
  0
LINE
  5
134
330
1F
100
AcDbEntity
  8
0
  6
HIDDEN
 62
     7
370
     0
100
AcDbLine
 10
102.77226762
 20
129.0879311084
 30
0.0
 11
104.9249955368
 21
129.0879311084
 31
0.0
  0
LINE
  5
135
330
1F
100
AcDbEntity
  8
0
  6
HIDDEN
 62
     7
370
     0
100
AcDbLine
 10
104.9249955368
 20
129.3379316151
 30
0.0
 11
104.9249955368
 21
129.0879311084
 31
0.0
  0
SPLINE
  5
136
330
1F
100
AcDbEntity
  8
0
  6
HIDDEN
 62
     7
370
     0
100
AcDbSpline
210
0.0
220
0.0
230
1.0
 70
     8
 71
     3
 72
    12
 73
     8
 74
     0
 42
0.000000001
 43
0.00000001
 40
0.0
 40
0.0
 40
0.0
 40
0.0
 40
0.2500000000000095
 40
0.2500000000000095
 40
0.500000000000019
 40
0.500000000000019
 40
1.0
 40
1.0
 40
1.0
 40
1.0
 10
102.4833258129464
 20
129.3379302441667
 30
0.0
 10
102.4833258129464
 20
129.3379302441667
 30
0.0
 10
102.4962767839648
 20
129.3268298520921
 30
0.0
 10
102.5362849088353
 20
129.2924497776302
 30
0.0
 10
102.5621495169324
 20
129.2701884615037
 30
0.0
 10
102.6456763128234
 20
129.1980858457483
 30
0.0
 10
102.7095124753529
 20
129.1427030184822
 30
0.0
 10
102.7722671236899
 20
129.0879302441679
 30
0.0
  0
ARC
  5
137
330
1F
100
AcDbEntity
  8
0
  6
HIDDEN
 62
     7
370
     0
100
AcDbCircle
 10
86.2749946218
 20
126.8379302442
 30
0.0
 40
16.65000000000012
100
AcDbArc
 50
172.2335658315
 51
7.7664341685
  0
SPLINE
  5
138
330
1F
100
AcDbEntity
  8
0
  6
HIDDEN
 62
     7
370
     0
100
AcDbSpline
210
0.0
220
0.0
230
1.0
 70
     8
 71
     3
 72
    12
 73
     8
 74
     0
 42
0.000000001
 43
0.00000001
 40
0.0
 40
0.0
 40
0.0
 40
0.0
 40
0.249999999999994
 40
0.249999999999994
 40
0.499999999999988
 40
0.499999999999988
 40
1.0
 40
1.0
 40
1.0
 40
1.0
 10
70.06666343076029
 20
129.3379302441682
 30
0.0
 10
70.06666343076029
 20
129.3379302441682
 30
0.0
 10
70.0537124597328
 20
129.3268298520924
 30
0.0
 10
70.01370433486244
 20
129.2924497776306
 30
0.0
 10
69.98783972676527
 20
129.2701884615041
 30
0.0
 10
69.90431293087413
 20
129.1980858457486
 30
0.0
 10
69.84047676834608
 20
129.1427030184834
 30
0.0
 10
69.7777221200073
 20
129.0879302441679
 30
0.0
  0
LINE
  5
139
330
1F
100
AcDbEntity
  8
0
  6
HIDDEN
 62
     7
370
     0
100
AcDbLine
 10
67.6249937069
 20
129.0879311084
 30
0.0
 11
69.7777216238
 21
129.0879311084
 31
0.0
  0
LINE
  5
13A
330
1F
100
AcDbEntity
  8
0
  6
HIDDEN
 62
     7
370
     0
100
AcDbLine
 10
67.6249937069
 20
129.0879311084
 30
0.0
 11
67.6249937069
 21
129.3379316151
 31
0.0
  0
ARC
  5
13B
330
1F
100
AcDbEntity
  8
0
  6
HIDDEN
 62
     7
370
     0
100
AcDbCircle
 10
242.8057765498
 20
57.7088614827
 30
0.0
 40
150.25
100
AcDbArc
 50
154.0757630098
 51
175.1783887356
  0
SPLINE
  5
13C
330
1F
100
AcDbEntity
  8
0
  6
HIDDEN
 62
     7
370
     0
100
AcDbSpline
210
0.0
220
0.0
230
1.0
 70
    24
 71
     3
 72
    10
 73
     6
 74
     0
 42
0.000000001
 43
0.00000001
 40
0.0
 40
0.0
 40
0.0
 40
0.0
 40
0.5
 40
0.5
 40
1.0
 40
1.0
 40
1.0
 40
1.0
 10
93.08747732684436
 20
70.33793024416859
 30
0.0
 10
93.15362068285053
 20
70.33793024416859
 30
0.0
 10
93.2183288372476
 20
70.33793024416859
 30
0.0
 10
93.31099399158154
 20
70.33793024416859
 30
0.0
 10
93.33836664980136
 20
70.33793024416859
 30
0.0
 10
93.33836664980142
 20
70.33793024416859
 30
0.0
  0
ARC
  5
13D
330
1F
100
AcDbEntity
  8
0
  6
HIDDEN
 62
     7
370
     0
100
AcDbCircle
 10
-70.2557873061
 20
57.7088614827
 30
0.0
 40
150.25
100
AcDbArc
 50
4.8216112644
 51
25.9242369902
  0
SPLINE
  5
13E
330
1F
100
AcDbEntity
  8
0
  6
HIDDEN
 62
     7
370
     0
100
AcDbSpline
210
0.0
220
0.0
230
1.0
 70
    24
 71
     3
 72
    10
 73
     6
 74
     0
 42
0.000000001
 43
0.00000001
 40
0.0
 40
0.0
 40
0.0
 40
0.0
 40
0.5
 40
0.5
 40
1.0
 40
1.0
 40
1.0
 40
1.0
 10
79.2116225938968
 20
70.33793024416862
 30
0.0
 10
79.2116225938968
 20
70.33793024416862
 30
0.0
 10
79.23891472007084
 20
70.33793024416859
 30
0.0
 10
79.3314870639237
 20
70.33793024416859
 30
0.0
 10
79.39637261335845
 20
70.33793024416859
 30
0.0
 10
79.46251191685258
 20
70.33793024416859
 30
0.0
  0
LINE
  5
13F
330
1F
100
AcDbEntity
  8
0
  6
HIDDEN
 62
     7
370
     0
100
AcDbLine
 10
64.8749937218
 20
123.3954975426
 30
0.0
 11
64.8749937218
 21
126.3379292607
 31
0.0
  0
LINE
  5
140
330
1F
100
AcDbEntity
  8
0
  6
HIDDEN
 62
     7
370
     0
100
AcDbLine
 10
64.8749937218
 20
126.3379292607
 30
0.0
 11
64.6249950778
 21
126.3379292607
 31
0.0
  0
LINE
  5
141
330
1F
100
AcDbEntity
  8
0
  6
HIDDEN
 62
     7
370
     0
100
AcDbLine
 10
107.9249941659
 20
126.3379292607
 30
0.0
 11
107.6749955219
 21
126.3379292607
 31
0.0
  0
LINE
  5
142
330
1F
100
AcDbEntity
  8
0
  6
HIDDEN
 62
     7
370
     0
100
AcDbLine
 10
107.6749955219
 20
126.3379292607
 30
0.0
 11
107.6749955219
 21
123.3954975426
 31
0.0
  0
ARC
  5
143
330
1F
100
AcDbEntity
  8
0
  6
HIDDEN
 62
     7
370
     0
100
AcDbCircle
 10
67.6249946218
 20
126.3379302442
 30
0.0
 40
2.750000000000028
100
AcDbArc
 50
90.0
 51
180.0
  0
ARC
  5
144
330
1F
100
AcDbEntity
  8
0
  6
HIDDEN
 62
     7
370
     0
100
AcDbCircle
 10
104.9249946218
 20
126.3379302442
 30
0.0
 40
2.750000000000028
100
AcDbArc
 50
0.0
 51
90.0
  0
LINE
  5
145
330
1F
100
AcDbEntity
  8
0
  6
HIDDEN
 62
     7
370
     0
100
AcDbLine
 10
79.4625120152
 20
70.3379302679
 30
0.0
 11
93.0874772285
 21
70.3379302679
 31
0.0
  0
LWPOLYLINE
  5
146
330
1F
100
AcDbEntity
  8
0
  6
HIDDEN
 62
     7
370
     0
100
AcDbPolyline
 90
        9
 70
   128
 43
0.0
 10
79.2959151704
 20
69.2971437632
 10
79.3007044968
 20
69.297514837
 10
79.3148885396
 20
69.2986139141
 10
79.3379220095
 20
69.3003986774
 10
79.3689196844
 20
69.3028006165
 10
79.4066904028
 20
69.3057273559
 10
79.4497831639
 20
69.3090664966
 10
79.4965411451
 20
69.3126896324
 10
79.5451678251
 20
69.3164575307
  0
ARC
  5
147
330
1F
100
AcDbEntity
  8
0
  6
HIDDEN
 62
     7
370
     0
100
AcDbCircle
 10
-70.2557873061
 20
57.7088614827
 30
0.0
 40
150.25
100
AcDbArc
 50
4.430812697
 51
4.8216112644
  0
ARC
  5
148
330
1F
100
AcDbEntity
  8
0
  6
HIDDEN
 62
     7
370
     0
100
AcDbCircle
 10
242.8057765498
 20
57.7088614827
 30
0.0
 40
150.25
100
AcDbArc
 50
175.1783887356
 51
175.569187303
  0
LWPOLYLINE
  5
149
330
1F
100
AcDbEntity
  8
0
  6
HIDDEN
 62
     7
370
     0
100
AcDbPolyline
 90
        9
 70
   128
 43
0.0
 10
93.2540740733
 20
69.2971437632
 10
93.2492847469
 20
69.297514837
 10
93.2351007041
 20
69.2986139141
 10
93.2120672342
 20
69.3003986774
 10
93.1810695593
 20
69.3028006165
 10
93.143298841
 20
69.3057273559
 10
93.1002060798
 20
69.3090664966
 10
93.0534480986
 20
69.3126896324
 10
93.0048214187
 20
69.3164575307
  0
ARC
  5
14A
330
1F
100
AcDbEntity
  8
0
  6
HIDDEN
 62
     7
370
     0
100
AcDbCircle
 10
86.2749946218
 20
69.8379302442
 30
0.0
 40
6.750000000000038
100
AcDbArc
 50
184.430812697
 51
355.569187303
  0
DIMENSION
  5
14B
330
1F
100
AcDbEntity
  8
SLD-0
 62
     7
100
AcDbDimension
  2
_D
 10
64.6249946218
 20
136.3379302442
 30
0.0
 11
86.2749946218
 21
136.3379302442
 31
0.0
 70
   160
  1
<>
 71
     2
 42
-1.0
  3
SLDDIMSTYLE0
100
AcDbAlignedDimension
 13
107.9249946218
 23
126.3379302442
 33
0.0
 14
64.6249946218
 24
126.3379302442
 34
0.0
 50
0.0
100
AcDbRotatedDimension
  0
DIMENSION
  5
156
330
1F
100
AcDbEntity
  8
SLD-0
 62
     7
100
AcDbDimension
  2
_D_1
 10
114.9249946218
 20
103.3379302442
 30
0.0
 11
114.9249946218
 21
116.3379302442
 31
0.0
 70
   160
  1
<>
 71
     2
 42
-1.0
  3
SLDDIMSTYLE0
100
AcDbAlignedDimension
 13
104.9249946218
 23
129.3379302442
 33
0.0
 14
93.0749946219
 24
103.3379302442
 34
0.0
 50
90.0
100
AcDbRotatedDimension
  0
DIMENSION
  5
160
330
1F
100
AcDbEntity
  8
SLD-0
 62
     7
100
AcDbDimension
  2
_D_2
 10
121.9249946218
 20
82.8379302442
 30
0.0
 11
121.9249946218
 21
106.0879302442
 31
0.0
 70
   160
  1
<>
 71
     2
 42
-1.0
  3
SLDDIMSTYLE0
100
AcDbAlignedDimension
 13
104.9249946218
 23
129.3379302442
 33
0.0
 14
93.0749946219
 24
82.8379302442
 34
0.0
 50
90.0
100
AcDbRotatedDimension
  0
DIMENSION
  5
16A
330
1F
100
AcDbEntity
  8
SLD-0
 62
     7
100
AcDbDimension
  2
_D_3
 10
130.0660203114
 20
129.3379302442
 30
0.0
 11
130.0660203114
 21
96.0879302442
 31
0.0
 70
   160
  1
<>
 71
     2
 42
-1.0
  3
SLDDIMSTYLE0
100
AcDbAlignedDimension
 13
86.2749946218
 23
62.8379302442
 33
0.0
 14
104.9249946218
 24
129.3379302442
 34
0.0
 50
90.0
100
AcDbRotatedDimension
  0
DIMENSION
  5
174
330
1F
100
AcDbEntity
  8
SLD-0
100
AcDbDimension
  2
_D_4
 10
86.2749946219
 20
82.8379302442
 30
0.0
 11
46.9200459747
 21
66.267740584
 31
0.0
 70
   164
  1
Both of M6 and 1/4"-20 SLOT CLR
 71
     1
 42
-1.0
  3
SLDDIMSTYLE1
100
AcDbRadialDimension
 15
83.1869045712
 25
77.9283783462
 35
0.0
 40
0.0
  0
INSERT
  5
188
330
1F
100
AcDbEntity
  8
SLD-0
 62
     7
100
AcDbBlockReference
  2
SW_CENTERMARKSYMBOL_0
 10
86.2749946219
 20
82.8379302442
 30
0.0
  0
INSERT
  5
194
330
1F
100
AcDbEntity
  8
SLD-0
 62
     7
100
AcDbBlockReference
  2
SW_CENTERMARKSYMBOL_1
 10
86.2749946219
 20
103.3379302442
 30
0.0
  0
SPLINE
  5
195
330
1F
100
AcDbEntity
  8
0
  6
Continuous
 62
     7
370
    30
100
AcDbSpline
210
0.0
220
0.0
230
1.0
 70
     8
 71
     3
 72
    21
 73
    17
 74
     0
 42
0.000000001
 43
0.00000001
 40
0.0
 40
0.0
 40
0.0
 40
0.0
 40
0.0203889099785261
 40
0.102166366032158
 40
0.1837205985434061
 40
0.2650599865851814
 40
0.3462137578212299
 40
0.4272204456177807
 40
0.5081193122697631
 40
0.5889453523210798
 40
0.6697271641399756
 40
0.7504866545458384
 40
0.831239681655059
 40
0.9119940013970292
 40
0.9927578119773642
 40
1.0
 40
1.0
 40
1.0
 40
1.0
 10
230.0746655676833
 20
142.4484076212204
 30
0.0
 10
230.0610768325102
 20
142.4024637903078
 30
0.0
 10
229.9929853213374
 20
142.1722448011185
 30
0.0
 10
229.8123484466507
 20
141.7634198060661
 30
0.0
 10
229.5316359337706
 20
141.2249600400373
 30
0.0
 10
229.190202842496
 20
140.6976679110574
 30
0.0
 10
228.795307522476
 20
140.1828458155279
 30
0.0
 10
228.3467691044714
 20
139.6823634007653
 30
0.0
 10
227.8465663015669
 20
139.1978873975027
 30
0.0
 10
227.2962795792716
 20
138.7311210750122
 30
0.0
 10
226.6978647690699
 20
138.2836876427022
 30
0.0
 10
226.0532047673528
 20
137.8573492558301
 30
0.0
 10
225.3651942619713
 20
137.4531923545351
 30
0.0
 10
224.6338861000528
 20
137.0745947956409
 30
0.0
 10
224.1023695216576
 20
136.8248704772303
 30
0.0
 10
223.8129070329623
 20
136.7040150908785
 30
0.0
 10
223.7890865911526
 20
136.6940696616418
 30
0.0
  0
SPLINE
  5
196
330
1F
100
AcDbEntity
  8
0
  6
Continuous
 62
     7
370
    30
100
AcDbSpline
210
0.0
220
0.0
230
1.0
 70
     8
 71
     3
 72
    19
 73
    15
 74
     0
 42
0.000000001
 43
0.00000001
 40
0.0
 40
0.0
 40
0.0
 40
0.0
 40
0.0495078272413113
 40
0.1426418642929301
 40
0.235625358245769
 40
0.3284180459273257
 40
0.4210506164284794
 40
0.5135968960311719
 40
0.6061469155515107
 40
0.6987765420483304
 40
0.7915743224638806
 40
0.884639157084127
 40
0.9730947757204687
 40
1.0
 40
1.0
 40
1.0
 40
1.0
 10
225.43799206175
 20
127.0242174631786
 30
0.0
 10
225.4939203691424
 20
126.9934004035839
 30
0.0
 10
225.6550609094921
 20
126.9046103459796
 30
0.0
 10
225.9505740805855
 20
126.7804168991529
 30
0.0
 10
226.3289139546462
 20
126.6636671535781
 30
0.0
 10
226.7304901042092
 20
126.5808764202976
 30
0.0
 10
227.1467140171897
 20
126.5327831172951
 30
0.0
 10
227.5697898323385
 20
126.520196413724
 30
0.0
 10
227.9916182001592
 20
126.5432441798605
 30
0.0
 10
228.4041733597578
 20
126.6016143541906
 30
0.0
 10
228.7997834408326
 20
126.6944003056539
 30
0.0
 10
229.1639118158393
 20
126.8184420872172
 30
0.0
 10
229.4178112938787
 20
126.9346566423567
 30
0.0
 10
229.5469422578022
 20
127.0072798053213
 30
0.0
 10
229.577059041435
 20
127.0242174631786
 30
0.0
  0
LINE
  5
197
330
1F
100
AcDbEntity
  8
0
  6
Continuous
 62
     7
370
    30
100
AcDbLine
 10
221.8567323583
 20
129.0916346838
 30
0.0
 11
225.4379920617
 21
127.0242174632
 31
0.0
  0
LINE
  5
198
330
1F
100
AcDbEntity
  8
0
  6
Continuous
 62
     7
370
    30
100
AcDbLine
 10
229.5770590414
 20
127.0242174632
 30
0.0
 11
231.6860967073
 21
128.241738992
 31
0.0
  0
SPLINE
  5
199
330
1F
100
AcDbEntity
  8
0
  6
Continuous
 62
     7
370
    30
100
AcDbSpline
210
0.0
220
0.0
230
1.0
 70
     8
 71
     3
 72
    27
 73
    23
 74
     0
 42
0.000000001
 43
0.00000001
 40
0.0
 40
0.0
 40
0.0
 40
0.0
 40
0.0217866502478989
 40
0.0748395868629776
 40
0.127889808973068
 40
0.1809360723273181
 40
0.2339786679805118
 40
0.2870178954493857
 40
0.3400540566453761
 40
0.3930874508105344
 40
0.4461183703359184
 40
0.4991470974143997
 40
0.5521739014603656
 40
0.605199037216732
 40
0.6582227434638657
 40
0.711245242244043
 40
0.7642667385179821
 40
0.8172874201753506
 40
0.8703074583279792
 40
0.9233270078227251
 40
0.9763462079184203
 40
1.0
 40
1.0
 40
1.0
 40
1.0
 10
231.7316189780709
 20
128.2849533270931
 30
0.0
 10
231.8653563025032
 20
128.5076126687285
 30
0.0
 10
232.3247590098853
 20
129.2724724773533
 30
0.0
 10
233.1510554410275
 20
130.5712677570223
 30
0.0
 10
234.2305520550294
 20
132.1764395911894
 30
0.0
 10
235.3664469136163
 20
133.7686872533623
 30
0.0
 10
236.5567635144558
 20
135.3476640463042
 30
0.0
 10
237.8014389222376
 20
136.9126707389677
 30
0.0
 10
239.0998737891804
 20
138.4631130202327
 30
0.0
 10
240.4515860942446
 20
139.9983750380943
 30
0.0
 10
241.8560360934353
 20
141.5178535232456
 30
0.0
 10
243.312673372166
 20
143.0209488962796
 30
0.0
 10
244.8209242788848
 20
144.5070679870506
 30
0.0
 10
246.3801958398371
 20
145.9756234171564
 30
0.0
 10
247.9898734653337
 20
147.4260347995915
 30
0.0
 10
249.6493271183108
 20
148.8577260696379
 30
0.0
 10
251.3578899548465
 20
150.2701365192033
 30
0.0
 10
253.1149387243529
 20
151.6626809175236
 30
0.0
 10
254.9195947774499
 20
153.0348995947803
 30
0.0
 10
256.7718409664882
 20
154.3858996028448
 30
0.0
 10
258.3182208454069
 20
155.4707973593606
 30
0.0
 10
259.2509689846152
 20
156.1031771536531
 30
0.0
 10
259.5387239022568
 20
156.2982677552589
 30
0.0
  0
SPLINE
  5
19A
330
1F
100
AcDbEntity
  8
0
  6
Continuous
 62
     7
370
    30
100
AcDbSpline
210
0.0
220
0.0
230
1.0
 70
     8
 71
     3
 72
    33
 73
    29
 74
     0
 42
0.000000001
 43
0.00000001
 40
0.0
 40
0.0
 40
0.0
 40
0.0
 40
0.0271710101909296
 40
0.066207730703698
 40
0.1052514317831861
 40
0.1443011172609976
 40
0.1833556928937862
 40
0.2224140048036163
 40
0.2614748637892901
 40
0.3005370599317622
 40
0.339599370860979
 40
0.3786601927818617
 40
0.4177182560175177
 40
0.4567723271061803
 40
0.4958211809265055
 40
0.5348636144986563
 40
0.5738984701911941
 40
0.612924672694711
 40
0.6519412855634265
 40
0.6909475949635685
 40
0.7299432304660657
 40
0.7689283350588519
 40
0.8079037984577023
 40
0.8468715680354685
 40
0.8858350479143343
 40
0.9247981921401769
 40
0.9637673585194387
 40
1.0
 40
1.0
 40
1.0
 40
1.0
 10
207.0022896469267
 20
144.2401074433005
 30
0.0
 10
207.2098709759146
 20
144.2957610810553
 30
0.0
 10
207.7156853947446
 20
144.4313725667992
 30
0.0
 10
208.5471416013521
 20
144.6109083478623
 30
0.0
 10
209.4886391841677
 20
144.7827827046411
 30
0.0
 10
210.4474434511477
 20
144.9207172060544
 30
0.0
 10
211.4188796800157
 20
145.0256288475829
 30
0.0
 10
212.3997122420905
 20
145.0967282303497
 30
0.0
 10
213.3862714559771
 20
145.1338463330659
 30
0.0
 10
214.3749726705121
 20
145.136812159664
 30
0.0
 10
215.3621910129083
 20
145.1056203327651
 30
0.0
 10
216.3443139716819
 20
145.0403868424505
 30
0.0
 10
217.3177454626608
 20
144.9413607862588
 30
0.0
 10
218.2789248605686
 20
144.8089199231235
 30
0.0
 10
219.2243367153956
 20
144.6435705634587
 30
0.0
 10
220.1505239015142
 20
144.445945977181
 30
0.0
 10
221.0541008705597
 20
144.2168046777848
 30
0.0
 10
221.9317669340111
 20
143.9570281554679
 30
0.0
 10
222.7803199249393
 20
143.6676181865611
 30
0.0
 10
223.5966688334041
 20
143.3496931774708
 30
0.0
 10
224.3778509114298
 20
143.0044848388829
 30
0.0
 10
225.1210328372539
 20
142.6333294435926
 30
0.0
 10
225.8235720099551
 20
142.2376737682754
 30
0.0
 10
226.482853693466
 20
141.819018932058
 30
0.0
 10
227.0969561333903
 20
141.379091589219
 30
0.0
 10
227.6622053360739
 20
140.9191704800483
 30
0.0
 10
228.170125718261
 20
140.4537552753071
 30
0.0
 10
228.462299793073
 20
140.1344885034509
 30
0.0
 10
228.6030708570122
 20
139.9806640302031
 30
0.0
  0
SPLINE
  5
19B
330
1F
100
AcDbEntity
  8
0
  6
Continuous
 62
     7
370
    30
100
AcDbSpline
210
0.0
220
0.0
230
1.0
 70
     8
 71
     3
 72
    27
 73
    23
 74
     0
 42
0.000000001
 43
0.00000001
 40
0.0
 40
0.0
 40
0.0
 40
0.0
 40
0.0221635593208939
 40
0.0761783880828031
 40
0.1301942666435157
 40
0.1842105699047391
 40
0.2382273146112309
 40
0.2922445127787152
 40
0.3462621721966271
 40
0.4002802969048985
 40
0.4542988876263442
 40
0.508317942157284
 40
0.5623374557196771
 40
0.6163574212769488
 40
0.6703778298172549
 40
0.7243986706059578
 40
0.7784199314107082
 40
0.8324415987013103
 40
0.8864636578266262
 40
0.9404860931707529
 40
0.991666175005136
 40
1.0
 40
1.0
 40
1.0
 40
1.0
 10
248.9795207774486
 20
170.2470414275383
 30
0.0
 10
248.6671775727037
 20
170.0951711209615
 30
0.0
 10
247.5936224852022
 20
169.5731775645494
 30
0.0
 10
245.7307992827122
 20
168.7003770623044
 30
0.0
 10
243.3781775559011
 20
167.6387592105503
 30
0.0
 10
240.9885203824127
 20
166.6049033005551
 30
0.0
 10
238.5638273232228
 20
165.598521073654
 30
0.0
 10
236.1047802157005
 20
164.6202033429671
 30
0.0
 10
233.6124290314334
 20
163.6702901195008
 30
0.0
 10
231.0877421572679
 20
162.7491742928217
 30
0.0
 10
228.5317263914176
 20
161.8572200487184
 30
0.0
 10
225.9453942547527
 20
160.9947845645224
 30
0.0
 10
223.3297722920621
 20
160.1622118970431
 30
0.0
 10
220.685898074024
 20
159.3598348564507
 30
0.0
 10
218.0148213810466
 20
158.5879727787517
 30
0.0
 10
215.3175999352684
 20
157.8469377521346
 30
0.0
 10
212.5953127354773
 20
157.1370111626526
 30
0.0
 10
209.8490084097671
 20
156.458530543184
 30
0.0
 10
207.079895876025
 20
155.8115649186264
 30
0.0
 10
204.3375904284013
 20
155.207903372193
 30
0.0
 10
202.36895491296
 20
154.7978969324195
 30
0.0
 10
201.33205477772
 20
154.5912504706221
 30
0.0
 10
201.1868560380535
 20
154.5623134449725
 30
0.0
  0
SPLINE
  5
19C
330
1F
100
AcDbEntity
  8
0
  6
Continuous
 62
     7
370
    30
100
AcDbSpline
210
0.0
220
0.0
230
1.0
 70
     8
 71
     3
 72
    14
 73
    10
 74
     0
 42
0.000000001
 43
0.00000001
 40
0.0
 40
0.0
 40
0.0
 40
0.0
 40
0.0946102133548283
 40
0.2735535555744842
 40
0.4524543208980478
 40
0.6293531287125486
 40
0.8022812647167816
 40
0.9704821917874453
 40
1.0
 40
1.0
 40
1.0
 40
1.0
 10
199.0629091234917
 20
153.3387458497982
 30
0.0
 10
199.0091426970087
 20
153.3062278930333
 30
0.0
 10
198.8536838240873
 20
153.2122063029997
 30
0.0
 10
198.6297451683882
 20
153.0351353861498
 30
0.0
 10
198.4132189314451
 20
152.8019302264714
 30
0.0
 10
198.2526552847913
 20
152.5482926546106
 30
0.0
 10
198.1596925900038
 20
152.2824354027221
 30
0.0
 10
198.1229883581554
 20
152.084061187292
 30
0.0
 10
198.135517604253
 20
151.9790600666923
 30
0.0
 10
198.1373881193704
 20
151.9633842485382
 30
0.0
  0
LINE
  5
19D
330
1F
100
AcDbEntity
  8
0
  6
Continuous
 62
     7
370
    30
100
AcDbLine
 10
198.1324426133
 20
151.9996724804
 30
0.0
 11
198.1324426133
 21
143.589302118
 31
0.0
  0
SPLINE
  5
19E
330
1F
100
AcDbEntity
  8
0
  6
Continuous
 62
     7
370
    30
100
AcDbSpline
210
0.0
220
0.0
230
1.0
 70
     8
 71
     3
 72
    15
 73
    11
 74
     0
 42
0.000000001
 43
0.00000001
 40
0.0
 40
0.0
 40
0.0
 40
0.0
 40
0.0629668530245463
 40
0.2162891136569553
 40
0.3696126737740187
 40
0.5229249072172603
 40
0.6762468735820704
 40
0.829597284708442
 40
0.9829864314011045
 40
1.0
 40
1.0
 40
1.0
 40
1.0
 10
202.5952461963348
 20
140.2126666302985
 30
0.0
 10
202.6655741155302
 20
140.2705174919193
 30
0.0
 10
202.9071482545805
 20
140.4692333397537
 30
0.0
 10
203.3555845867198
 20
140.7950052491988
 30
0.0
 10
203.9555672772942
 20
141.1807941317479
 30
0.0
 10
204.5998914152215
 20
141.5432954164368
 30
0.0
 10
205.284233524292
 20
141.8815430544572
 30
0.0
 10
206.006909035137
 20
142.1930159702995
 30
0.0
 10
206.5378389303613
 20
142.3945906137117
 30
0.0
 10
206.8256096631657
 20
142.492811368834
 30
0.0
 10
206.8543416413795
 20
142.5026180526785
 30
0.0
  0
LINE
  5
19F
330
1F
100
AcDbEntity
  8
0
  6
Continuous
 62
     7
370
    30
100
AcDbLine
 10
199.0629091235
 20
142.2502287487
 30
0.0
 11
202.5917995111
 21
140.2130436906
 31
0.0
  0
LINE
  5
1A0
330
1F
100
AcDbEntity
  8
0
  6
Continuous
 62
     7
370
    30
100
AcDbLine
 10
201.1722223691
 20
154.5564264674
 30
0.0
 11
199.0629091235
 21
153.3387458498
 31
0.0
  0
SPLINE
  5
1A1
330
1F
100
AcDbEntity
  8
0
  6
Continuous
 62
     7
370
    30
100
AcDbSpline
210
0.0
220
0.0
230
1.0
 70
     8
 71
     3
 72
    14
 73
    10
 74
     0
 42
0.000000001
 43
0.00000001
 40
0.0
 40
0.0
 40
0.0
 40
0.0
 40
0.0125473914376055
 40
0.1781096303660689
 40
0.3429816962120617
 40
0.5097283310943905
 40
0.6802839078112953
 40
0.8546936621390969
 40
1.0
 40
1.0
 40
1.0
 40
1.0
 10
198.1349751459016
 20
143.6199550559595
 30
0.0
 10
198.1340990113559
 20
143.6133251328148
 30
0.0
 10
198.1216623227521
 20
143.5192136861033
 30
0.0
 10
198.1541605012108
 20
143.3357861831163
 30
0.0
 10
198.2350107157779
 20
143.0800940401425
 30
0.0
 10
198.3775449152633
 20
142.8367346614828
 30
0.0
 10
198.5724903057426
 20
142.6092797103894
 30
0.0
 10
198.8022306685439
 20
142.4114743707921
 30
0.0
 10
198.9814544899085
 20
142.3006134383824
 30
0.0
 10
199.0629091234918
 20
142.2502287486722
 30
0.0
  0
SPLINE
  5
1A2
330
1F
100
AcDbEntity
  8
0
  6
Continuous
 62
     7
370
    30
100
AcDbSpline
210
0.0
220
0.0
230
1.0
 70
     8
 71
     3
 72
    30
 73
    26
 74
     0
 42
0.000000001
 43
0.00000001
 40
0.0
 40
0.0
 40
0.0
 40
0.0
 40
0.0285802820624577
 40
0.072217053409499
 40
0.1162043230828814
 40
0.1605268288308292
 40
0.205109815284296
 40
0.2498603400636838
 40
0.294696928970572
 40
0.3395592550769818
 40
0.3844068879915942
 40
0.4292264190178697
 40
0.4740141244738355
 40
0.5187719607031328
 40
0.563505008772224
 40
0.6082199733956127
 40
0.652924362610039
 40
0.6976260747937916
 40
0.742332366634075
 40
0.7870495897487775
 40
0.8317860151281221
 40
0.8765498281732947
 40
0.921348807009049
 40
0.9661896566391792
 40
1.0
 40
1.0
 40
1.0
 40
1.0
 10
261.126243151076
 20
168.8492295744967
 30
0.0
 10
261.0983596646088
 20
168.9319100685106
 30
0.0
 10
261.0279032839809
 20
169.1408282883895
 30
0.0
 10
260.8495861630052
 20
169.4644258283153
 30
0.0
 10
260.6010130347626
 20
169.8183692038009
 30
0.0
 10
260.2956419281396
 20
170.1568023833013
 30
0.0
 10
259.9387952490186
 20
170.4771657090979
 30
0.0
 10
259.5328198414081
 20
170.776345020015
 30
0.0
 10
259.081688502454
 20
171.0516494989858
 30
0.0
 10
258.5895433839235
 20
171.3006769234177
 30
0.0
 10
258.0608756666396
 20
171.5213939418576
 30
0.0
 10
257.5003476129362
 20
171.7120838555923
 30
0.0
 10
256.912769322507
 20
171.8713139197753
 30
0.0
 10
256.3031176852389
 20
171.9978995726806
 30
0.0
 10
255.6765171863901
 20
172.0909024260558
 30
0.0
 10
255.038211503491
 20
172.1496336003821
 30
0.0
 10
254.3935299426351
 20
172.173658316533
 30
0.0
 10
253.7478506732144
 20
172.1628011295383
 30
0.0
 10
253.1065702962434
 20
172.117144060712
 30
0.0
 10
252.4750253731101
 20
172.0370438922908
 30
0.0
 10
251.8585387598959
 20
171.9230587265477
 30
0.0
 10
251.2620222768431
 20
171.7761840053823
 30
0.0
 10
250.6912647186024
 20
171.5969128512918
 30
0.0
 10
250.1927185597261
 20
171.4058326513345
 30
0.0
 10
249.8976281306665
 20
171.2660101166145
 30
0.0
 10
249.7707755255173
 20
171.2059036169074
 30
0.0
  0
LINE
  5
1A3
330
1F
100
AcDbEntity
  8
0
  6
Continuous
 62
     7
370
    30
100
AcDbLine
 10
261.2715172195
 20
159.0398256343
 30
0.0
 11
261.2715172195
 21
168.021774565
 31
0.0
  0
SPLINE
  5
1A4
330
1F
100
AcDbEntity
  8
0
  6
Continuous
 62
     7
370
    30
100
AcDbSpline
210
0.0
220
0.0
230
1.0
 70
     8
 71
     3
 72
    16
 73
    12
 74
     0
 42
0.000000001
 43
0.00000001
 40
0.0
 40
0.0
 40
0.0
 40
0.0
 40
0.0684365208601019
 40
0.1980752399592338
 40
0.3276743158262295
 40
0.4569259525247213
 40
0.585538711736599
 40
0.7132184748481702
 40
0.839792209919264
 40
0.9653380041974394
 40
1.0
 40
1.0
 40
1.0
 40
1.0
 10
259.5387239022568
 20
156.2982677552589
 30
0.0
 10
259.6129174271352
 20
156.3498278857818
 30
0.0
 10
259.8276551148347
 20
156.4990579327989
 30
0.0
 10
260.1475850497947
 20
156.7641823024127
 30
0.0
 10
260.4791378028872
 20
157.0986582254217
 30
0.0
 10
260.7564464193957
 20
157.451731235196
 30
0.0
 10
260.9768066130392
 20
157.819480344298
 30
0.0
 10
261.1393931754317
 20
158.198172791271
 30
0.0
 10
261.2370270468064
 20
158.5835128432392
 30
0.0
 10
261.2782758662377
 20
158.8788914481506
 30
0.0
 10
261.2675474224463
 20
159.0438100490762
 30
0.0
 10
261.2652262539597
 20
159.0794912593979
 30
0.0
  0
LINE
  5
1A5
330
1F
100
AcDbEntity
  8
0
  6
Continuous
 62
     7
370
    30
100
AcDbLine
 10
249.7707755255
 20
171.2059036169
 30
0.0
 11
248.9703627433
 21
170.8130894814
 31
0.0
  0
ARC
  5
1A6
330
1F
100
AcDbEntity
  8
0
  6
Continuous
 62
     7
370
    30
100
AcDbCircle
 10
227.5075255516
 20
139.6052155752
 30
0.0
 40
4.577388673179033
100
AcDbArc
 50
242.3910402158
 51
297.6089597842
  0
ARC
  5
1A7
330
1F
100
AcDbEntity
  8
0
  6
Continuous
 62
     7
370
    30
100
AcDbCircle
 10
225.7700092334
 20
135.5315838142
 30
0.0
 40
0.3842012018930178
100
AcDbArc
 50
122.60547834
 51
177.3945215143
  0
ARC
  5
1A8
330
1F
100
AcDbEntity
  8
0
  6
Continuous
 62
     7
370
    30
100
AcDbCircle
 10
227.5075255516
 20
139.5733879132
 30
0.0
 40
4.195939617080749
100
AcDbArc
 50
242.3910402158
 51
297.6089597842
  0
ARC
  5
1A9
330
1F
100
AcDbEntity
  8
0
  6
Continuous
 62
     7
370
    30
100
AcDbCircle
 10
229.2450418698
 20
135.5315838142
 30
0.0
 40
0.3842012018931815
100
AcDbArc
 50
2.6054784857
 51
57.39452166
  0
ARC
  5
1AA
330
1F
100
AcDbEntity
  8
0
  6
Continuous
 62
     7
370
    30
100
AcDbCircle
 10
227.5075255516
 20
131.1948452128
 30
0.0
 40
4.577388673178932
100
AcDbArc
 50
242.3910402158
 51
297.6089597842
  0
LINE
  5
1AB
330
1F
100
AcDbEntity
  8
0
  6
Continuous
 62
     7
370
    30
100
AcDbLine
 10
225.386205208
 20
127.1386786648
 30
0.0
 11
225.386205208
 21
135.5490490272
 31
0.0
  0
LINE
  5
1AC
330
1F
100
AcDbEntity
  8
0
  6
Continuous
 62
     7
370
    30
100
AcDbLine
 10
229.6288458952
 20
127.1386786648
 30
0.0
 11
229.6288458952
 21
135.5490490272
 31
0.0
  0
LINE
  5
1AD
330
1F
100
AcDbEntity
  8
0
  6
Continuous
 62
     7
370
    30
100
AcDbLine
 10
224.0407736913
 20
136.7339873402
 30
0.0
 11
225.5629819033
 21
135.8552352442
 31
0.0
  0
LWPOLYLINE
  5
1AE
330
1F
100
AcDbEntity
  8
0
  6
Continuous
 62
     7
370
    30
100
AcDbPolyline
 90
       55
 70
   128
 43
0.0
 10
200.7101071771
 20
150.2024944336
 10
201.3728258301
 20
150.6741985017
 10
202.0858264512
 20
151.1207987331
 10
202.8462622722
 20
151.5405120055
 10
203.6510971323
 20
151.9316625471
 10
204.4971176004
 20
152.2926886271
 10
205.3809458053
 20
152.6221487915
 10
206.2990529227
 20
152.9187276184
 10
207.2477732638
 20
153.1812409695
 10
208.2233189122
 20
153.4086407187
 10
209.2217948467
 20
153.6000189364
 10
210.2392144936
 20
153.7546115145
 10
211.2715156433
 20
153.8718012177
 10
212.3145766695
 20
153.9511201475
 10
213.3642329853
 20
153.9922516104
 10
214.4162936711
 20
153.9950313825
 10
215.4665582075
 20
153.9594483652
 10
216.5108332464
 20
153.8856446293
 10
217.5449493539
 20
153.7739148479
 10
218.5647776572
 20
153.62470512
 10
219.5662463297
 20
153.4386111891
 10
220.5453568486
 20
153.2163760647
 10
221.4981999596
 20
152.9588870559
 10
222.4209712853
 20
152.6671722285
 10
223.3099865145
 20
152.3423963003
 10
224.1616961127
 20
151.9858559908
 10
224.9726994941
 20
151.5989748437
 10
225.7397585986
 20
151.1832975436
 10
226.4598108211
 20
150.7404837481
 10
227.1299812387
 20
150.2723014616
 10
227.7475940894
 20
149.7806199763
 10
228.3101834558
 20
149.2674024087
 10
228.8155031106
 20
148.7346978613
 10
229.2615354847
 20
148.1846332417
 10
229.646499723
 20
147.6194047704
 10
229.9688587947
 20
147.0412692117
 10
230.2273256299
 20
146.4525348638
 10
230.4208682587
 20
145.8555523421
 10
230.5487139314
 20
145.252705194
 10
230.6103522039
 20
144.6464003827
 10
230.6055369756
 20
144.0390586764
 10
230.5342874721
 20
143.4331049834
 10
230.3968881682
 20
142.8309586701
 10
230.1938876526
 20
142.2350239012
 10
229.926096437
 20
141.647680041
 10
229.5945837205
 20
141.0712721532
 10
229.2006731202
 20
140.5081016378
 10
228.7459373868
 20
139.9604170426
 10
228.2321921249
 20
139.4304050854
 10
227.6614885441
 20
138.9201819231
 10
227.0361052691
 20
138.4317847027
 10
226.358539242
 20
137.9671634277
 10
225.6314957528
 20
137.5281731724
 10
224.8578776382
 20
137.1165666751
 10
224.0407736913
 20
136.7339873402
  0
LINE
  5
1AF
330
1F
100
AcDbEntity
  8
0
  6
Continuous
 62
     7
370
    30
100
AcDbLine
 10
199.1878989651
 20
151.0812465297
 30
0.0
 11
200.7101071771
 21
150.2024944336
 31
0.0
  0
LWPOLYLINE
  5
1B0
330
1F
100
AcDbEntity
  8
0
  6
Continuous
 62
     7
370
    30
100
AcDbPolyline
 90
       11
 70
   128
 43
0.0
 10
199.1878989651
 20
153.3263688372
 10
198.9076458788
 20
153.136940993
 10
198.6821746718
 20
152.9245363099
 10
198.5170371935
 20
152.694384896
 10
198.4162996767
 20
152.4521538431
 10
198.3824426133
 20
152.2038076834
 10
198.4162996767
 20
151.9554615238
 10
198.5170371935
 20
151.7132304708
 10
198.6821746718
 20
151.4830790569
 10
198.9076458788
 20
151.2706743738
 10
199.1878989651
 20
151.0812465297
  0
LINE
  5
1B1
330
1F
100
AcDbEntity
  8
0
  6
Continuous
 62
     7
370
    30
100
AcDbLine
 10
201.2685124428
 20
154.5274814315
 30
0.0
 11
199.1878989651
 21
153.3263688372
 31
0.0
  0
ARC
  5
1B2
330
1F
100
AcDbEntity
  8
0
  6
Continuous
 62
     7
370
    30
100
AcDbCircle
 10
163.8115481203
 20
349.318046095
 30
0.0
 40
198.3592404154301
100
AcDbArc
 50
280.8847442764
 51
295.4658931572
  0
LINE
  5
1B3
330
1F
100
AcDbEntity
  8
0
  6
Continuous
 62
     7
370
    30
100
AcDbLine
 10
249.1008111115
 20
170.2311122427
 30
0.0
 11
258.7351165463
 21
164.6693461007
 31
0.0
  0
ARC
  5
1B4
330
1F
100
AcDbEntity
  8
0
  6
Continuous
 62
     7
370
    30
100
AcDbCircle
 10
308.6749407639
 20
88.2665670049
 30
0.0
 40
91.27634247955893
100
AcDbArc
 50
123.1701901352
 51
147.6880779174
  0
LINE
  5
1B5
330
1F
100
AcDbEntity
  8
0
  6
Continuous
 62
     7
370
    30
100
AcDbLine
 10
229.4520691999
 20
135.8552352442
 30
0.0
 11
231.5326826776
 21
137.0563478385
 31
0.0
  0
LINE
  5
1B6
330
1F
100
AcDbEntity
  8
0
  6
Continuous
 62
     7
370
    30
100
AcDbLine
 10
226.4822207189
 20
156.3470788509
 30
0.0
 11
240.9779097332
 21
164.7152619971
 31
0.0
  0
LWPOLYLINE
  5
1B7
330
1F
100
AcDbEntity
  8
0
  6
Continuous
 62
     7
370
    30
100
AcDbPolyline
 90
       30
 70
   128
 43
0.0
 10
234.6846593806
 20
151.6119118023
 10
234.2171980488
 20
151.3698098717
 10
233.7071342268
 20
151.158304117
 10
233.1604479466
 20
150.9798742498
 10
232.583548605
 20
150.8366121971
 10
231.9831998193
 20
150.7301975755
 10
231.3664401301
 20
150.6618779993
 10
230.7405004809
 20
150.6324544528
 10
230.1127194417
 20
150.6422719004
 10
229.4904571713
 20
150.6912152414
 10
228.8810091258
 20
150.7787106599
 10
228.2915205263
 20
150.9037323521
 10
227.7289025877
 20
151.0648145529
 10
227.1997514909
 20
151.260068721
 10
226.7102710488
 20
151.4872056796
 10
226.2661999719
 20
151.7435624555
 10
225.8727445876
 20
152.0261335001
 10
225.5345178006
 20
152.3316059261
 10
225.2554850107
 20
152.6563983486
 10
225.0389176223
 20
152.9967028735
 10
224.8873546899
 20
153.3485297414
 10
224.8025731503
 20
153.7077541038
 10
224.7855669897
 20
154.0701643836
 10
224.8365355896
 20
154.4315116516
 10
224.9548813899
 20
154.7875594415
 10
225.1392168942
 20
155.1341334184
 10
225.3873809374
 20
155.4671703194
 10
225.6964640228
 20
155.7827655914
 10
226.0628424339
 20
156.0772191682
 10
226.4822207189
 20
156.3470788509
  0
LINE
  5
1B8
330
1F
100
AcDbEntity
  8
0
  6
Continuous
 62
     7
370
    30
100
AcDbLine
 10
249.180348395
 20
159.9800949485
 30
0.0
 11
234.6846593806
 21
151.6119118023
 31
0.0
  0
LWPOLYLINE
  5
1B9
330
1F
100
AcDbEntity
  8
0
  6
Continuous
 62
     7
370
    30
100
AcDbPolyline
 90
       30
 70
   128
 43
0.0
 10
240.9779097332
 20
164.7152619971
 10
241.445371065
 20
164.9573639277
 10
241.955434887
 20
165.1688696824
 10
242.5021211672
 20
165.3472995497
 10
243.0790205088
 20
165.4905616024
 10
243.6793692945
 20
165.5969762239
 10
244.2961289837
 20
165.6652958002
 10
244.922068633
 20
165.6947193466
 10
245.5498496721
 20
165.6849018991
 10
246.1721119426
 20
165.6359585581
 10
246.7815599881
 20
165.5484631396
 10
247.3710485876
 20
165.4234414474
 10
247.9336665261
 20
165.2623592465
 10
248.4628176229
 20
165.0671050785
 10
248.9522980651
 20
164.8399681199
 10
249.3963691419
 20
164.5836113439
 10
249.7898245262
 20
164.3010402993
 10
250.1280513132
 20
163.9955678733
 10
250.4070841031
 20
163.6707754508
 10
250.6236514916
 20
163.3304709259
 10
250.775214424
 20
162.9786440581
 10
250.8599959635
 20
162.6194196957
 10
250.8770021242
 20
162.2570094159
 10
250.8260335242
 20
161.8956621479
 10
250.707687724
 20
161.539614358
 10
250.5233522196
 20
161.193040381
 10
250.2751881765
 20
160.86000348
 10
249.9661050911
 20
160.5444082081
 10
249.5997266799
 20
160.2499546313
 10
249.180348395
 20
159.9800949485
  0
LINE
  5
1BA
330
1F
100
AcDbEntity
  8
0
  6
Continuous
 62
     7
370
    30
100
AcDbLine
 10
225.386205208
 20
135.5490490272
 30
0.0
 11
223.6596846359
 21
136.5457481382
 31
0.0
  0
SPLINE
  5
1BB
330
1F
100
AcDbEntity
  8
0
  6
Continuous
 62
     7
370
    30
100
AcDbSpline
210
0.0
220
0.0
230
1.0
 70
     8
 71
     3
 72
    12
 73
     8
 74
     0
 42
0.000000001
 43
0.00000001
 40
0.0
 40
0.0
 40
0.0
 40
0.0
 40
0.2500000000000095
 40
0.2500000000000095
 40
0.500000000000019
 40
0.500000000000019
 40
1.0
 40
1.0
 40
1.0
 40
1.0
 10
223.6596846358472
 20
136.5457481382058
 30
0.0
 10
223.6596846358472
 20
136.580394335969
 30
0.0
 10
223.676691517787
 20
136.6123804688993
 30
0.0
 10
223.7292919179752
 20
136.6639611467834
 30
0.0
 10
223.7633220853446
 20
136.6832311495436
 30
0.0
 10
223.8733686976719
 20
136.726694610065
 30
0.0
 10
223.9576692538025
 20
136.7372455735386
 30
0.0
 10
224.0407736913347
 20
136.7339873401887
 30
0.0
  0
LINE
  5
1BC
330
1F
100
AcDbEntity
  8
0
  6
Continuous
 62
     7
370
    30
100
AcDbLine
 10
231.7501662387
 20
136.773661195
 30
0.0
 11
229.6288458952
 21
135.5490490272
 31
0.0
  0
SPLINE
  5
1BD
330
1F
100
AcDbEntity
  8
0
  6
Continuous
 62
     7
370
    30
100
AcDbSpline
210
0.0
220
0.0
230
1.0
 70
     8
 71
     3
 72
    10
 73
     6
 74
     0
 42
0.000000001
 43
0.00000001
 40
0.0
 40
0.0
 40
0.0
 40
0.0
 40
0.5
 40
0.5
 40
1.0
 40
1.0
 40
1.0
 40
1.0
 10
231.7501662387116
 20
136.7736611949532
 30
0.0
 10
231.7501662387116
 20
136.8282917423929
 30
0.0
 10
231.7258366125404
 20
136.8902907315531
 30
0.0
 10
231.6452028070163
 20
136.994174018528
 30
0.0
 10
231.5885864838598
 20
137.0361520909334
 30
0.0
 10
231.5326826775989
 20
137.0563478384693
 30
0.0
  0
LINE
  5
1BE
330
1F
100
AcDbEntity
  8
0
  6
Continuous
 62
     7
370
    30
100
AcDbLine
 10
223.6596846359
 20
133.4020660124
 30
0.0
 11
221.7952777251
 21
134.4783652123
 31
0.0
  0
LINE
  5
1BF
330
1F
100
AcDbEntity
  8
0
  6
Continuous
 62
     7
370
    30
100
AcDbLine
 10
223.6596846359
 20
133.4020660124
 30
0.0
 11
223.6596846359
 21
136.5457481382
 31
0.0
  0
LINE
  5
1C0
330
1F
100
AcDbEntity
  8
0
  6
Continuous
 62
     7
370
    30
100
AcDbLine
 10
221.7952777251
 20
129.2116769757
 30
0.0
 11
225.386205208
 21
127.1386786648
 31
0.0
  0
LINE
  5
1C1
330
1F
100
AcDbEntity
  8
0
  6
Continuous
 62
     7
370
    30
100
AcDbLine
 10
221.7952777251
 20
129.2116769757
 30
0.0
 11
221.7952777251
 21
134.4783652123
 31
0.0
  0
LINE
  5
1C2
330
1F
100
AcDbEntity
  8
0
  6
Continuous
 62
     7
370
    30
100
AcDbLine
 10
231.7501662387
 20
128.3632908325
 30
0.0
 11
231.7501662387
 21
136.773661195
 31
0.0
  0
LINE
  5
1C3
330
1F
100
AcDbEntity
  8
0
  6
Continuous
 62
     7
370
    30
100
AcDbLine
 10
229.6288458952
 20
127.1386786648
 30
0.0
 11
231.7501662387
 21
128.3632908325
 31
0.0
  0
ARC
  5
1C4
330
1F
100
AcDbEntity
  8
0
  6
Continuous
 62
     7
370
    30
100
AcDbCircle
 10
224.7710753002
 20
144.1826690061
 30
0.0
 40
5.593720356688587
100
AcDbArc
 50
341.3771342828
 51
18.7976395997
  0
SPLINE
  5
1C5
330
1F
100
AcDbEntity
  8
0
  6
Continuous
 62
     7
370
    30
100
AcDbSpline
210
0.0
220
0.0
230
1.0
 70
     8
 71
     3
 72
    12
 73
     8
 74
     0
 42
0.000000001
 43
0.00000001
 40
0.0
 40
0.0
 40
0.0
 40
0.0
 40
0.249999999999994
 40
0.249999999999994
 40
0.499999999999988
 40
0.499999999999988
 40
1.0
 40
1.0
 40
1.0
 40
1.0
 10
200.7376428419675
 20
149.7783612017226
 30
0.0
 10
200.7376428419675
 20
149.8130073994876
 30
0.0
 10
200.7363342850416
 20
149.855566810215
 30
0.0
 10
200.7323546524329
 20
149.9398104457824
 30
0.0
 10
200.7298067402458
 20
149.9801965244024
 30
0.0
 10
200.7217286250024
 20
150.0918519386441
 30
0.0
 10
200.7157512143144
 20
150.1545192630334
 30
0.0
 10
200.710107177066
 20
150.2024944336417
 30
0.0
  0
ARC
  5
1C6
330
1F
100
AcDbEntity
  8
0
  6
Continuous
 62
     7
370
    30
100
AcDbCircle
 10
210.516941722
 20
133.8276443387
 30
0.0
 40
16.11380853017729
100
AcDbArc
 50
109.5985713897
 51
127.3649214044
  0
LINE
  5
1C7
330
1F
100
AcDbEntity
  8
0
  6
Continuous
 62
     7
370
    30
100
AcDbLine
 10
200.737642842
 20
146.634679076
 30
0.0
 11
200.737642842
 21
149.7783612017
 31
0.0
  0
ARC
  5
1C8
330
1F
100
AcDbEntity
  8
0
  6
Continuous
 62
     7
370
    30
100
AcDbCircle
 10
309.1762555461
 20
79.3555455032
 30
0.0
 40
91.6327365502552
100
AcDbArc
 50
122.7622075832
 51
147.6677582921
  0
ARC
  5
1C9
330
1F
100
AcDbEntity
  8
0
  6
Continuous
 62
     7
370
    30
100
AcDbCircle
 10
308.4848814361
 20
88.391621776
 30
0.0
 40
90.71404662327832
100
AcDbArc
 50
123.125065745
 51
147.7681404943
  0
LINE
  5
1CA
330
1F
100
AcDbEntity
  8
0
  6
Continuous
 62
     7
370
    30
100
AcDbLine
 10
258.9125220879
 20
164.9343754268
 30
0.0
 11
258.9125220879
 21
164.3627968585
 31
0.0
  0
ARC
  5
1CB
330
1F
100
AcDbEntity
  8
0
  6
Continuous
 62
     7
370
    30
100
AcDbCircle
 10
329.3032676197
 20
61.9993468867
 30
0.0
 40
124.7015523442539
100
AcDbArc
 50
123.990123985
 51
124.3657514564
  0
LINE
  5
1CC
330
1F
100
AcDbEntity
  8
0
  6
Continuous
 62
     7
370
    30
100
AcDbLine
 10
259.5888654294
 20
156.4116883415
 30
0.0
 11
259.5888654294
 21
165.3936372722
 31
0.0
  0
SPLINE
  5
1CD
330
1F
100
AcDbEntity
  8
0
  6
Continuous
 62
     7
370
    30
100
AcDbSpline
210
0.0
220
0.0
230
1.0
 70
     8
 71
     3
 72
    10
 73
     6
 74
     0
 42
0.000000001
 43
0.00000001
 40
0.0
 40
0.0
 40
0.0
 40
0.0
 40
0.5
 40
0.5
 40
1.0
 40
1.0
 40
1.0
 40
1.0
 10
258.7351165463281
 20
164.6693461007019
 30
0.0
 10
258.7818869618905
 20
164.6423461145086
 30
0.0
 10
258.8276425366627
 20
164.5939263103125
 30
0.0
 10
258.893166695672
 20
164.4808911510364
 30
0.0
 10
258.9125220879183
 20
164.4168110414273
 30
0.0
 10
258.9125220879184
 20
164.3627968585147
 30
0.0
  0
ARC
  5
1CE
330
1F
100
AcDbEntity
  8
0
  6
Continuous
 62
     7
370
    30
100
AcDbCircle
 10
216.400479211
 20
148.1755629415
 30
0.0
 40
14.72131368596398
100
AcDbArc
 50
291.4975695946
 51
299.5451021529
  0
SPLINE
  5
1CF
330
1F
100
AcDbEntity
  8
0
  6
Continuous
 62
     7
370
    30
100
AcDbSpline
210
0.0
220
0.0
230
1.0
 70
     8
 71
     3
 72
    10
 73
     6
 74
     0
 42
0.000000001
 43
0.00000001
 40
0.0
 40
0.0
 40
0.0
 40
0.0
 40
0.3071699251621366
 40
0.7375794240172378
 40
1.0
 40
1.0
 40
1.0
 40
1.0
 10
221.8583569383426
 20
129.0942050633367
 30
0.0
 10
221.8466531127991
 20
129.1011970082607
 30
0.0
 10
221.8185497726085
 20
129.117986134693
 30
0.0
 10
221.7987043932076
 20
129.1621441406024
 30
0.0
 10
221.7962190782575
 20
129.1980696202736
 30
0.0
 10
221.7952777250969
 20
129.2116769756847
 30
0.0
  0
SPLINE
  5
1D0
330
1F
100
AcDbEntity
  8
0
  6
Continuous
 62
     7
370
    30
100
AcDbSpline
210
0.0
220
0.0
230
1.0
 70
     8
 71
     3
 72
    10
 73
     6
 74
     0
 42
0.000000001
 43
0.00000001
 40
0.0
 40
0.0
 40
0.0
 40
0.0
 40
0.1616637510870298
 40
0.5807490703631971
 40
0.9999999999999999
 40
0.9999999999999999
 40
0.9999999999999999
 40
0.9999999999999999
 10
231.6845591467435
 20
128.2445463620914
 30
0.0
 10
231.6914711488115
 20
128.2476019376834
 30
0.0
 10
231.716301320995
 20
128.2585785646177
 30
0.0
 10
231.7426570661138
 20
128.2990483674413
 30
0.0
 10
231.747662851554
 20
128.3418738574924
 30
0.0
 10
231.7501662387117
 20
128.36329083253
 30
0.0
  0
SPLINE
  5
1D1
330
1F
100
AcDbEntity
  8
0
  6
Continuous
 62
     7
370
    30
100
AcDbSpline
210
0.0
220
0.0
230
1.0
 70
     8
 71
     3
 72
    14
 73
    10
 74
     0
 42
0.000000001
 43
0.00000001
 40
0.0
 40
0.0
 40
0.0
 40
0.0
 40
0.023874775507394
 40
0.1684980472383522
 40
0.3149155509399075
 40
0.5255606543254511
 40
0.742009142052341
 40
0.9476710641222562
 40
1.0
 40
1.0
 40
1.0
 40
1.0
 10
201.2685124428147
 20
154.5274814314753
 30
0.0
 10
201.2676667386292
 20
154.5282540215245
 30
0.0
 10
201.2616981169027
 20
154.5337066346627
 30
0.0
 10
201.2505448462862
 20
154.5427074505137
 30
0.0
 10
201.2330504582146
 20
154.5538306173715
 30
0.0
 10
201.2136395266906
 20
154.561899751179
 30
0.0
 10
201.1938988400583
 20
154.5636803724146
 30
0.0
 10
201.1799901891066
 20
154.5615052246919
 30
0.0
 10
201.1738150325437
 20
154.5568195290327
 30
0.0
 10
201.1725625099761
 20
154.5558691175738
 30
0.0
  0
SPLINE
  5
1D2
330
1F
100
AcDbEntity
  8
0
  6
Continuous
 62
     7
370
    30
100
AcDbSpline
210
0.0
220
0.0
230
1.0
 70
     8
 71
     3
 72
    10
 73
     6
 74
     0
 42
0.000000001
 43
0.00000001
 40
0.0
 40
0.0
 40
0.0
 40
0.0
 40
0.2513250456706371
 40
0.6999571109621539
 40
1.0
 40
1.0
 40
1.0
 40
1.0
 10
248.981422111597
 20
170.2430357230474
 30
0.0
 10
248.9893669210929
 20
170.247503408399
 30
0.0
 10
249.011493748473
 20
170.2599462117937
 30
0.0
 10
249.0546161210021
 20
170.2539278714088
 30
0.0
 10
249.0875945170627
 20
170.237639896641
 30
0.0
 10
249.1008111114908
 20
170.2311122427136
 30
0.0
  0
LINE
  5
1D3
330
1F
100
AcDbEntity
  8
0
  6
Continuous
 62
     7
370
    30
100
AcDbLine
 10
200.737642842
 20
149.7783612017
 30
0.0
 11
199.0111222698
 21
150.7750603127
 31
0.0
  0
LINE
  5
1D4
330
1F
100
AcDbEntity
  8
0
  6
Continuous
 62
     7
370
    30
100
AcDbLine
 10
202.6020497527
 20
145.5583798761
 30
0.0
 11
200.737642842
 21
146.634679076
 31
0.0
  0
LINE
  5
1D5
330
1F
100
AcDbEntity
  8
0
  6
Continuous
 62
     7
370
    30
100
AcDbLine
 10
202.6020497527
 20
140.2916916394
 30
0.0
 11
202.6020497527
 21
145.5583798761
 31
0.0
  0
LINE
  5
1D6
330
1F
100
AcDbEntity
  8
0
  6
Continuous
 62
     7
370
    30
100
AcDbLine
 10
199.0111222698
 20
142.3646899503
 30
0.0
 11
202.6020497527
 21
140.2916916394
 31
0.0
  0
LINE
  5
1D7
330
1F
100
AcDbEntity
  8
0
  6
Continuous
 62
     7
370
    30
100
AcDbLine
 10
199.0111222698
 20
142.3646899503
 30
0.0
 11
199.0111222698
 21
150.7750603127
 31
0.0
  0
LINE
  5
1D8
330
1F
100
AcDbEntity
  8
0
  6
Continuous
 62
     7
370
    30
100
AcDbLine
 10
226.4822207189
 20
155.6938462014
 30
0.0
 11
226.4822207189
 21
156.3470788509
 31
0.0
  0
ARC
  5
1D9
330
1F
100
AcDbEntity
  8
0
  6
Continuous
 62
     7
370
    30
100
AcDbCircle
 10
227.8706102734
 20
152.8524194953
 30
0.0
 40
3.162488147209634
100
AcDbArc
 50
116.0412491676
 51
165.3383374909
  0
LWPOLYLINE
  5
1DA
330
1F
100
AcDbEntity
  8
0
  6
Continuous
 62
     7
370
    30
100
AcDbPolyline
 90
       23
 70
   128
 43
0.0
 10
232.8815370886
 20
151.9995994954
 10
232.5310924659
 20
151.8242991576
 10
232.1409992566
 20
151.6795744657
 10
231.7191986335
 20
151.5683715971
 10
231.2742772408
 20
151.4929543216
 10
230.8152923952
 20
151.4548579174
 10
230.3515877044
 20
151.4548579174
 10
229.8926028587
 20
151.4929543216
 10
229.4476814661
 20
151.5683715971
 10
229.0258808429
 20
151.6795744657
 10
228.6357876336
 20
151.8242991576
 10
228.2853430109
 20
151.9995994954
 10
227.9816810168
 20
152.2019068699
 10
227.7309833337
 20
152.4271028862
 10
227.5383534435
 20
152.6706032029
 10
227.4077127354
 20
152.9274508557
 10
227.3417206773
 20
153.1924171671
 10
227.3417206773
 20
153.4601081871
 10
227.4077127354
 20
153.7250744986
 10
227.5383534435
 20
153.9819221514
 10
227.7309833337
 20
154.2254224681
 10
227.9816810168
 20
154.4506184844
 10
228.2853430109
 20
154.6529258588
  0
LINE
  5
1DB
330
1F
100
AcDbEntity
  8
0
  6
Continuous
 62
     7
370
    30
100
AcDbLine
 10
247.3772261029
 20
160.3677826416
 30
0.0
 11
232.8815370886
 21
151.9995994954
 31
0.0
  0
LWPOLYLINE
  5
1DC
330
1F
100
AcDbEntity
  8
0
  6
Continuous
 62
     7
370
    30
100
AcDbPolyline
 90
       23
 70
   128
 43
0.0
 10
242.7810320252
 20
163.021109005
 10
243.1314766479
 20
163.1964093429
 10
243.5215698572
 20
163.3411340348
 10
243.9433704804
 20
163.4523369033
 10
244.388291873
 20
163.5277541788
 10
244.8472767187
 20
163.5658505831
 10
245.3109814095
 20
163.5658505831
 10
245.7699662551
 20
163.5277541788
 10
246.2148876478
 20
163.4523369033
 10
246.6366882709
 20
163.3411340348
 10
247.0267814802
 20
163.1964093429
 10
247.3772261029
 20
163.021109005
 10
247.6808880971
 20
162.8188016306
 10
247.9315857802
 20
162.5936056143
 10
248.1242156703
 20
162.3501052976
 10
248.2548563785
 20
162.0932576447
 10
248.3208484366
 20
161.8282913333
 10
248.3208484366
 20
161.5606003133
 10
248.2548563785
 20
161.2956340019
 10
248.1242156703
 20
161.038786349
 10
247.9315857802
 20
160.7952860323
 10
247.6808880971
 20
160.570090016
 10
247.3772261029
 20
160.3677826416
  0
LINE
  5
1DD
330
1F
100
AcDbEntity
  8
0
  6
Continuous
 62
     7
370
    30
100
AcDbLine
 10
228.2853430109
 20
154.6529258588
 30
0.0
 11
242.7810320252
 21
163.021109005
 31
0.0
  0
LINE
  5
1DE
330
1F
100
AcDbEntity
  8
0
  6
Continuous
 62
     7
370
    30
100
AcDbLine
 10
226.4822207189
 20
155.6938462014
 30
0.0
 11
240.9779097332
 21
164.0620293476
 31
0.0
  0
LWPOLYLINE
  5
1DF
330
1F
100
AcDbEntity
  8
0
  6
Continuous
 62
     7
370
    30
100
AcDbPolyline
 90
       22
 70
   128
 43
0.0
 10
240.9779097332
 20
164.0620293476
 10
241.445371065
 20
164.3041312782
 10
241.955434887
 20
164.5156370329
 10
242.5021211672
 20
164.6940669002
 10
243.0790205088
 20
164.8373289528
 10
243.6793692945
 20
164.9437435744
 10
244.2961289837
 20
165.0120631507
 10
244.922068633
 20
165.0414866971
 10
245.5498496721
 20
165.0316692496
 10
246.1721119426
 20
164.9827259086
 10
246.7815599881
 20
164.8952304901
 10
247.3710485876
 20
164.7702087979
 10
247.9336665261
 20
164.609126597
 10
248.4628176229
 20
164.413872429
 10
248.9522980651
 20
164.1867354704
 10
249.3963691419
 20
163.9303786944
 10
249.7898245262
 20
163.6478076498
 10
250.1280513132
 20
163.3423352238
 10
250.4070841031
 20
163.0175428013
 10
250.6236514916
 20
162.6772382764
 10
250.775214424
 20
162.3254114086
 10
250.8514679285
 20
162.0210621481
  0
ARC
  5
1E0
330
1F
100
AcDbEntity
  8
0
  6
Continuous
 62
     7
370
    30
100
AcDbCircle
 10
199.3949262951
 20
150.7575950996
 30
0.0
 40
0.3842012018930483
100
AcDbArc
 50
122.60547834
 51
177.3945215144
  0
LINE
  5
1E1
330
1F
100
AcDbEntity
  8
0
  6
Continuous
 62
     7
370
    30
100
AcDbLine
 10
205.1119178583
 20
149.0079125307
 30
0.0
 11
207.0022896469
 21
147.9166241258
 31
0.0
  0
ARC
  5
1E2
330
1F
100
AcDbEntity
  8
0
  6
Continuous
 62
     7
370
    30
100
AcDbCircle
 10
211.1426363506
 20
134.9068469246
 30
0.0
 40
13.65272037552613
100
AcDbArc
 50
107.6536119957
 51
128.7232525038
  0
LINE
  5
1E3
330
1F
100
AcDbEntity
  8
0
  6
Continuous
 62
     7
370
    30
100
AcDbLine
 10
207.0022896469
 20
142.6499358892
 30
0.0
 11
207.0022896469
 21
147.9166241258
 31
0.0
  0
ARC
  5
1E4
330
1F
100
AcDbEntity
  8
0
  6
Continuous
 62
     7
370
    30
100
AcDbCircle
 10
211.1426363506
 20
129.6401586879
 30
0.0
 40
13.65272037553806
100
AcDbArc
 50
107.6536119957
 51
128.7232525038
  0
LINE
  5
1E5
330
1F
100
AcDbEntity
  8
0
  6
Continuous
 62
     7
370
    30
100
AcDbLine
 10
198.1329274632
 20
151.9685371096
 30
0.0
 11
198.1324426133
 21
151.9996724804
 31
0.0
  0
LINE
  5
1E6
330
1F
100
AcDbEntity
  8
0
  6
Continuous
 62
     7
370
    30
100
AcDbLine
 10
228.2853430109
 20
154.6529258588
 30
0.0
 11
228.2853430109
 21
152.2033034232
 31
0.0
  0
LINE
  5
1E7
330
1F
100
AcDbEntity
  8
0
  6
Continuous
 62
     7
370
    30
100
AcDbLine
 10
228.1215227057
 20
152.1014514593
 30
0.0
 11
228.2853430109
 21
152.2033034232
 31
0.0
  0
SPLINE
  5
1E8
330
1F
100
AcDbEntity
  8
0
  6
Continuous
 62
     7
370
    30
100
AcDbSpline
210
0.0
220
0.0
230
1.0
 70
     8
 71
     3
 72
    13
 73
     9
 74
     0
 42
0.000000001
 43
0.00000001
 40
0.0
 40
0.0
 40
0.0
 40
0.0
 40
0.2075726714473108
 40
0.4253413368679758
 40
0.5668640812273987
 40
0.7115382516967471
 40
0.8532061065416363
 40
1.0
 40
1.0
 40
1.0
 40
1.0
 10
202.5918331893622
 20
140.2130969326799
 30
0.0
 10
202.5929349937172
 20
140.2129652320443
 30
0.0
 10
202.5951927231862
 20
140.2126953616225
 30
0.0
 10
202.5978039828668
 20
140.220297731222
 30
0.0
 10
202.5997384853164
 20
140.2324951088095
 30
0.0
 10
202.6010097166846
 20
140.2473479557794
 30
0.0
 10
202.6018795814342
 20
140.2667316914992
 30
0.0
 10
202.6019923609117
 20
140.2832736717019
 30
0.0
 10
202.6020497527104
 20
140.2916916394005
 30
0.0
  0
SPLINE
  5
1E9
330
1F
100
AcDbEntity
  8
0
  6
Continuous
 62
     7
370
    30
100
AcDbSpline
210
0.0
220
0.0
230
1.0
 70
     8
 71
     3
 72
    13
 73
     9
 74
     0
 42
0.000000001
 43
0.00000001
 40
0.0
 40
0.0
 40
0.0
 40
0.0
 40
0.1514945119047068
 40
0.333816959444162
 40
0.5204162817330708
 40
0.7588068794651203
 40
0.877186170417681
 40
1.0
 40
1.0
 40
1.0
 40
1.0
 10
206.853759933091
 20
142.5043008598932
 30
0.0
 10
206.8653955985353
 20
142.5079821920912
 30
0.0
 10
206.8910346953637
 20
142.5160939784892
 30
0.0
 10
206.926417412288
 20
142.5355520902506
 30
0.0
 10
206.9632900951184
 20
142.5625613176247
 30
0.0
 10
206.9879435832975
 20
142.5934637627686
 30
0.0
 10
207.000426976113
 20
142.6246465795204
 30
0.0
 10
207.0016611926189
 20
142.641403423065
 30
0.0
 10
207.0022896469267
 20
142.649935889177
 30
0.0
  0
LINE
  5
1EA
330
1F
100
AcDbEntity
  8
0
  6
Continuous
 62
     7
370
    30
100
AcDbLine
 10
242.7810320252
 20
163.021109005
 30
0.0
 11
242.7810320252
 21
160.5714865694
 31
0.0
  0
LINE
  5
1EB
330
1F
100
AcDbEntity
  8
0
  6
Continuous
 62
     7
370
    30
100
AcDbLine
 10
228.2853430109
 20
152.2033034232
 30
0.0
 11
242.7810320252
 21
160.5714865694
 31
0.0
  0
LINE
  5
1EC
330
1F
100
AcDbEntity
  8
0
  6
Continuous
 62
     7
370
    30
100
AcDbLine
 10
240.9779097332
 20
164.0620293476
 30
0.0
 11
240.9779097332
 21
164.7152619971
 31
0.0
  0
ARC
  5
1ED
330
1F
100
AcDbEntity
  8
0
  6
Continuous
 62
     7
370
    30
100
AcDbCircle
 10
245.0689436785
 20
156.216509201
 30
0.0
 40
4.919386914261848
100
AcDbArc
 50
59.8329703421
 51
117.7154415661
  0
SPLINE
  5
1EE
330
1F
100
AcDbEntity
  8
0
  6
Continuous
 62
     7
370
    30
100
AcDbSpline
210
0.0
220
0.0
230
1.0
 70
     8
 71
     3
 72
    10
 73
     6
 74
     0
 42
0.000000001
 43
0.00000001
 40
0.0
 40
0.0
 40
0.0
 40
0.0
 40
0.5
 40
0.5
 40
1.0
 40
1.0
 40
1.0
 40
1.0
 10
249.100811111491
 20
170.8026908110324
 30
0.0
 10
249.0540406959286
 20
170.8296907972257
 30
0.0
 10
249.0082851211564
 20
170.8340992551804
 30
0.0
 10
248.9427609621472
 20
170.7967166795859
 30
0.0
 10
248.9234055699008
 20
170.7549838301895
 30
0.0
 10
248.9234055699008
 20
170.700969647277
 30
0.0
  0
LINE
  5
1EF
330
1F
100
AcDbEntity
  8
0
  6
Continuous
 62
     7
370
    30
100
AcDbLine
 10
249.1008111115
 20
170.802690811
 30
0.0
 11
258.7351165463
 21
165.240924669
 31
0.0
  0
SPLINE
  5
1F0
330
1F
100
AcDbEntity
  8
0
  6
Continuous
 62
     7
370
    30
100
AcDbSpline
210
0.0
220
0.0
230
1.0
 70
     8
 71
     3
 72
    10
 73
     6
 74
     0
 42
0.000000001
 43
0.00000001
 40
0.0
 40
0.0
 40
0.0
 40
0.0
 40
0.5
 40
0.5
 40
1.0
 40
1.0
 40
1.0
 40
1.0
 10
258.9125220879176
 20
164.934375426835
 30
0.0
 10
258.9125220879176
 20
164.9883862475742
 30
0.0
 10
258.893223640427
 20
165.0523176607381
 30
0.0
 10
258.8277651083383
 20
165.1653471076571
 30
0.0
 10
258.781884096332
 20
165.2139263370814
 30
0.0
 10
258.7351165463284
 20
165.2409246690229
 30
0.0
  0
LINE
  5
1F1
330
1F
100
AcDbEntity
  8
0
  6
Continuous
 62
     7
370
    30
100
AcDbLine
 10
248.9234055699
 20
170.7009696473
 30
0.0
 11
248.9234055699
 21
170.2198542009
 31
0.0
  0
ARC
  5
1F2
330
1F
100
AcDbEntity
  8
0
  6
Continuous
 62
     7
370
    30
100
AcDbCircle
 10
329.2374860436
 20
62.1133094708
 30
0.0
 40
124.9235330960783
100
AcDbArc
 50
123.9901380238
 51
124.3581516875
  0
ARC
  5
1F3
330
1F
100
AcDbEntity
  8
0
  6
Continuous
 62
     7
370
    30
100
AcDbCircle
 10
259.2287315905
 20
165.3736433567
 30
0.0
 40
0.3606884230926619
100
AcDbArc
 50
3.1776857616
 51
61.8387538364
  0
ARC
  5
1F4
330
1F
100
AcDbEntity
  8
0
  6
Continuous
 62
     7
370
    30
100
AcDbCircle
 10
179.3931519856
 20
313.8022788902
 30
0.0
 40
159.085008506856
100
AcDbArc
 50
295.9877314203
 51
296.3009689801
  0
LWPOLYLINE
  5
1F5
330
1F
100
AcDbEntity
  8
0
  6
Continuous
 62
     7
370
    30
100
AcDbPolyline
 90
       31
 70
   128
 43
0.0
 10
259.3989601362
 20
165.6916345214
 10
259.8099291348
 20
165.9984098815
 10
260.1660409519
 20
166.3272483108
 10
260.4637683507
 20
166.6748927115
 10
260.7001623837
 20
167.0378997153
 10
260.8728816017
 20
167.4126737896
 10
260.9802152454
 20
167.7955028504
 10
261.0211001904
 20
168.1825950305
 10
260.995131477
 20
168.5701162368
 10
260.9025663218
 20
168.9542281271
 10
260.7443215693
 20
169.3311261278
 10
260.5219646113
 20
169.6970771177
 10
260.2376978619
 20
170.0484564046
 10
259.8943369427
 20
170.3817836265
 10
259.4952827947
 20
170.6937572248
 10
259.0444879925
 20
170.9812871454
 10
258.5464175944
 20
171.2415254454
 10
258.0060049167
 20
171.4718945015
 10
257.42860267
 20
171.6701125409
 10
256.8199299416
 20
171.8342162423
 10
256.1860155479
 20
171.9625801818
 10
255.5331383209
 20
172.053932933
 10
254.8677649165
 20
172.1073696596
 10
254.1964857636
 20
172.1223610788
 10
253.5259497865
 20
172.0987587024
 10
252.8627985488
 20
172.0367963088
 10
252.2136004688
 20
171.9370876266
 10
251.5847857613
 20
171.8006202562
 10
250.9825827464
 20
171.6287458873
 10
250.4129561591
 20
171.4231669111
 10
249.8815480697
 20
171.1859195582
  0
ARC
  5
1F6
330
1F
100
AcDbEntity
  8
0
  6
Continuous
 62
     7
370
    30
100
AcDbCircle
 10
258.8777589174
 20
168.0218837375
 30
0.0
 40
2.39277071246931
100
AcDbArc
 50
341.6062625781
 51
18.9239356806
  0
LWPOLYLINE
  5
1F7
330
1F
100
AcDbEntity
  8
0
  6
Continuous
 62
     8
370
    30
100
AcDbPolyline
 90
       38
 70
   128
 43
0.0
 10
230.0664407966
 20
145.9851150354
 10
230.0034404708
 20
146.1634539995
 10
229.7518366937
 20
146.750097411
 10
229.4359092822
 20
147.3262784354
 10
229.0569456026
 20
147.8896492042
 10
228.6164898865
 20
148.4379140491
 10
228.1163369379
 20
148.9688388567
 10
227.5585248201
 20
149.4802601723
 10
226.9453265505
 20
149.9700940152
 10
226.2792408385
 20
150.4363443714
 10
225.5629819033
 20
150.8771113267
 10
224.7994684142
 20
151.2905988086
 10
223.9918115969
 20
151.6751219054
 10
223.1433025559
 20
152.0291137315
 10
222.2573988639
 20
152.3511318127
 10
221.3377104719
 20
152.6398639641
 10
220.3879849997
 20
152.8941336368
 10
219.4120924647
 20
153.1129047123
 10
218.4140095117
 20
153.2952857249
 10
217.397803209
 20
153.4405334937
 10
216.3676144753
 20
153.5480561516
 10
215.3276412058
 20
153.6174155567
 10
214.282121167
 20
153.6483290776
 10
213.2353147274
 20
153.6406707456
 10
212.1914874975
 20
153.5944717673
 10
211.1548929481
 20
153.5099203982
 10
210.1297550774
 20
153.3873611748
 10
209.1202511993
 20
153.2272935113
 10
208.1304949208
 20
153.0303696641
 10
207.1645193799
 20
152.7973920744
 10
206.2262608111
 20
152.5293100979
 10
205.3195425053
 20
152.2272161363
 10
204.4480592307
 20
151.8923411864
 10
203.6153621771
 20
151.5260498234
 10
202.8248444851
 20
151.1298346405
 10
202.0797274192
 20
150.7053101671
 10
201.3830472421
 20
150.2542062895
 10
200.737642842
 20
149.7783612017
  0
LWPOLYLINE
  5
1F8
330
1F
100
AcDbEntity
  8
0
  6
Continuous
 62
     8
370
    30
100
AcDbPolyline
 90
       25
 70
   128
 43
0.0
 10
207.0022896469
 20
144.3437164307
 10
207.9343286996
 20
144.5760449039
 10
208.9307510908
 20
144.7823580467
 10
209.948153869
 20
144.9511317245
 10
210.9822981814
 20
145.0816627676
 10
212.0288754243
 20
145.1734073386
 10
213.0835251941
 20
145.2259831976
 10
214.1418534542
 20
145.2391712954
 10
215.1994508424
 20
145.2129166859
 10
216.2519110411
 20
145.1473287549
 10
217.2948491364
 20
145.0426807643
 10
218.3239198867
 20
144.8994087141
 10
219.3348358264
 20
144.7181095252
 10
220.3233851294
 20
144.499538553
 10
221.2854491564
 20
144.2446064397
 10
222.2170196154
 20
143.9543753211
 10
223.1142152607
 20
143.6300544006
 10
223.9732980644
 20
143.2729949115
 10
224.7906887896
 20
142.8846844874
 10
225.5629819033
 20
142.4667409643
 10
226.2869597646
 20
142.0209056396
 10
226.9596060308
 20
141.5490360179
 10
227.5781182244
 20
141.0530980717
 10
228.139919409
 20
140.5351580503
 10
228.6384174885
 20
140.0022917124
  0
ARC
  5
1F9
330
1F
100
AcDbEntity
  8
0
  6
Continuous
 62
     8
370
    30
100
AcDbCircle
 10
225.5113761979
 20
127.1263622928
 30
0.0
 40
0.1257754734991888
100
AcDbArc
 50
174.3803923242
 51
234.2931099334
  0
ARC
  5
1FA
330
1F
100
AcDbEntity
  8
0
  6
Continuous
 62
     8
370
    30
100
AcDbCircle
 10
229.5036747607
 20
127.1263623189
 30
0.0
 40
0.1257756147423728
100
AcDbArc
 50
305.7070998337
 51
5.6195893964
  0
ARC
  5
1FB
330
1F
100
AcDbEntity
  8
0
  6
Continuous
 62
     8
370
    30
100
AcDbCircle
 10
259.4587895479
 20
156.401399524
 30
0.0
 40
0.1304821624826522
100
AcDbArc
 50
307.7764665697
 51
4.5225984661
  0
ARC
  5
1FC
330
1F
100
AcDbEntity
  8
0
  6
Continuous
 62
     8
370
    30
100
AcDbCircle
 10
199.629230709
 20
152.1497214012
 30
0.0
 40
1.507232945147131
100
AcDbArc
 50
186.9042155065
 51
245.7892079524
  0
ARC
  5
1FD
330
1F
100
AcDbEntity
  8
0
  6
Continuous
 62
     8
370
    30
100
AcDbCircle
 10
199.1153462523
 20
153.2309693623
 30
0.0
 40
0.1198538941295976
100
AcDbArc
 50
52.746473909
 51
115.9577418523
  0
ARC
  5
1FE
330
1F
100
AcDbEntity
  8
0
  6
Continuous
 62
     8
370
    30
100
AcDbCircle
 10
199.6552377621
 20
143.7543932983
 30
0.0
 40
1.531718042835593
100
AcDbArc
 50
186.1874562376
 51
245.13268472
  0
ARC
  5
1FF
330
1F
100
AcDbEntity
  8
0
  6
Continuous
 62
     8
370
    30
100
AcDbCircle
 10
199.1336227454
 20
142.351168266
 30
0.0
 40
0.1232444825761058
100
AcDbArc
 50
173.7011525024
 51
234.9866671043
  0
LINE
  5
200
330
1F
100
AcDbEntity
  8
0
  6
Continuous
 62
     8
370
    30
100
AcDbLine
 10
240.9779097332
 20
159.5305662268
 30
0.0
 11
240.9779097332
 21
156.6735359356
 31
0.0
  0
ARC
  5
201
330
1F
100
AcDbEntity
  8
0
  6
Continuous
 62
     8
370
    30
100
AcDbCircle
 10
257.6624266771
 20
168.5830630946
 30
0.0
 40
3.726070764613848
100
AcDbArc
 50
301.1323125614
 51
339.3142236694
  0
ARC
  5
202
330
1F
100
AcDbEntity
  8
0
  6
Continuous
 62
     8
370
    30
100
AcDbCircle
 10
249.8090605802
 20
171.1011005542
 30
0.0
 40
0.1115737405831377
100
AcDbArc
 50
49.4823435825
 51
110.0828090729
  0
ARC
  5
203
330
1F
100
AcDbEntity
  8
0
  6
Continuous
 62
     8
370
    30
100
AcDbCircle
 10
258.0259348831
 20
159.2650701798
 30
0.0
 40
3.253388972680562
100
AcDbArc
 50
298.7115797763
 51
356.0300184479
  0
ARC
  5
204
330
1F
100
AcDbEntity
  8
0
  6
Continuous
 62
     7
370
    30
100
AcDbCircle
 10
161.1118312354
 20
63.0879302442
 30
0.0
 40
0.25
100
AcDbArc
 50
270.0
 51
0.0
  0
LINE
  5
205
330
1F
100
AcDbEntity
  8
0
  6
Continuous
 62
     7
370
    30
100
AcDbLine
 10
150.1118312354
 20
62.8379302442
 30
0.0
 11
161.1118312354
 21
62.8379302442
 31
0.0
  0
ARC
  5
206
330
1F
100
AcDbEntity
  8
0
  6
Continuous
 62
     7
370
    30
100
AcDbCircle
 10
150.1118312354
 20
63.0879302442
 30
0.0
 40
0.25
100
AcDbArc
 50
180.0
 51
270.0
  0
LINE
  5
207
330
1F
100
AcDbEntity
  8
0
  6
Continuous
 62
     7
370
    30
100
AcDbLine
 10
160.4118312354
 20
126.3379302442
 30
0.0
 11
160.4118312354
 21
129.3379302442
 31
0.0
  0
ARC
  5
208
330
1F
100
AcDbEntity
  8
0
  6
Continuous
 62
     7
370
    30
100
AcDbCircle
 10
160.4118312354
 20
129.0879302442
 30
0.0
 40
0.25
100
AcDbArc
 50
0.0
 51
90.0
  0
LINE
  5
209
330
1F
100
AcDbEntity
  8
0
  6
Continuous
 62
     7
370
    30
100
AcDbLine
 10
160.6618312354
 20
129.0879302442
 30
0.0
 11
160.6618312354
 21
126.3379302442
 31
0.0
  0
LINE
  5
20A
330
1F
100
AcDbEntity
  8
0
  6
Continuous
 62
     7
370
    30
100
AcDbLine
 10
160.4118312354
 20
126.3379302442
 30
0.0
 11
160.6618312354
 21
126.3379302442
 31
0.0
  0
LINE
  5
20B
330
1F
100
AcDbEntity
  8
0
  6
Continuous
 62
     7
370
    30
100
AcDbLine
 10
150.1118312354
 20
129.3379302442
 30
0.0
 11
150.1118312354
 21
126.3379302442
 31
0.0
  0
LINE
  5
20C
330
1F
100
AcDbEntity
  8
0
  6
Continuous
 62
     7
370
    30
100
AcDbLine
 10
150.1118312354
 20
129.3379302442
 30
0.0
 11
160.4118312354
 21
129.3379302442
 31
0.0
  0
LINE
  5
20D
330
1F
100
AcDbEntity
  8
0
  6
Continuous
 62
     7
370
    30
100
AcDbLine
 10
150.1118312354
 20
126.3379302442
 30
0.0
 11
160.4118312354
 21
126.3379302442
 31
0.0
  0
LINE
  5
20E
330
1F
100
AcDbEntity
  8
0
  6
Continuous
 62
     7
370
    30
100
AcDbLine
 10
160.4118312354
 20
123.3379302442
 30
0.0
 11
160.4118312354
 21
126.3379302442
 31
0.0
  0
LINE
  5
20F
330
1F
100
AcDbEntity
  8
0
  6
Continuous
 62
     7
370
    30
100
AcDbLine
 10
160.6618312354
 20
126.3379302442
 30
0.0
 11
160.6618312354
 21
123.3954984459
 31
0.0
  0
SPLINE
  5
210
330
1F
100
AcDbEntity
  8
0
  6
Continuous
 62
     7
370
    30
100
AcDbSpline
210
0.0
220
0.0
230
1.0
 70
     8
 71
     3
 72
    10
 73
     6
 74
     0
 42
0.000000001
 43
0.00000001
 40
0.0
 40
0.0
 40
0.0
 40
0.0
 40
0.5
 40
0.5
 40
1.0
 40
1.0
 40
1.0
 40
1.0
 10
160.4118312353587
 20
123.337930244168
 30
0.0
 10
160.478736093811
 20
123.3379302441679
 30
0.0
 10
160.5439058597909
 20
123.3443730741884
 30
0.0
 10
160.6354655411549
 20
123.3657200383323
 30
0.0
 10
160.6618312353587
 20
123.3807058039441
 30
0.0
 10
160.6618312353587
 20
123.3954984458868
 30
0.0
  0
LINE
  5
211
330
1F
100
AcDbEntity
  8
0
  6
Continuous
 62
     7
370
    30
100
AcDbLine
 10
150.1118312354
 20
123.3379302442
 30
0.0
 11
160.4118312354
 21
123.3379302442
 31
0.0
  0
LINE
  5
212
330
1F
100
AcDbEntity
  8
0
  6
Continuous
 62
     7
370
    30
100
AcDbLine
 10
150.1118312354
 20
126.3379302442
 30
0.0
 11
150.1118312354
 21
123.3379302442
 31
0.0
  0
LINE
  5
213
330
1F
100
AcDbEntity
  8
0
  6
Continuous
 62
     7
370
    30
100
AcDbLine
 10
150.1118312354
 20
123.3379302442
 30
0.0
 11
150.1118312354
 21
69.2971437389
 31
0.0
  0
LINE
  5
214
330
1F
100
AcDbEntity
  8
0
  6
Continuous
 62
     7
370
    30
100
AcDbLine
 10
160.4118312354
 20
70.3379302442
 30
0.0
 11
160.4118312354
 21
123.3379302442
 31
0.0
  0
LINE
  5
215
330
1F
100
AcDbEntity
  8
0
  6
Continuous
 62
     7
370
    30
100
AcDbLine
 10
161.1118312354
 20
70.3379302442
 30
0.0
 11
160.4118312354
 21
70.3379302442
 31
0.0
  0
LINE
  5
216
330
1F
100
AcDbEntity
  8
0
  6
Continuous
 62
     7
370
    30
100
AcDbLine
 10
161.1118312354
 20
69.2971437389
 30
0.0
 11
161.1118312354
 21
70.3379302442
 31
0.0
  0
LINE
  5
217
330
1F
100
AcDbEntity
  8
0
  6
Continuous
 62
     7
370
    30
100
AcDbLine
 10
150.1118312354
 20
69.2971437389
 30
0.0
 11
161.1118312354
 21
69.2971437389
 31
0.0
  0
LINE
  5
218
330
1F
100
AcDbEntity
  8
0
  6
Continuous
 62
     7
370
    30
100
AcDbLine
 10
160.6618312354
 20
123.3954984459
 30
0.0
 11
160.6618312354
 21
70.3379302442
 31
0.0
  0
LINE
  5
219
330
1F
100
AcDbEntity
  8
0
  6
Continuous
 62
     7
370
    30
100
AcDbLine
 10
149.8618312354
 20
126.3379302442
 30
0.0
 11
149.8618312354
 21
129.0879302442
 31
0.0
  0
ARC
  5
21A
330
1F
100
AcDbEntity
  8
0
  6
Continuous
 62
     7
370
    30
100
AcDbCircle
 10
150.1118312354
 20
129.0879302442
 30
0.0
 40
0.25
100
AcDbArc
 50
90.0
 51
180.0
  0
LINE
  5
21B
330
1F
100
AcDbEntity
  8
0
  6
Continuous
 62
     7
370
    30
100
AcDbLine
 10
149.8618312354
 20
126.3379302442
 30
0.0
 11
150.1118312354
 21
126.3379302442
 31
0.0
  0
LINE
  5
21C
330
1F
100
AcDbEntity
  8
0
  6
Continuous
 62
     7
370
    30
100
AcDbLine
 10
149.8618312354
 20
123.3954984459
 30
0.0
 11
149.8618312354
 21
126.3379302442
 31
0.0
  0
SPLINE
  5
21D
330
1F
100
AcDbEntity
  8
0
  6
Continuous
 62
     7
370
    30
100
AcDbSpline
210
0.0
220
0.0
230
1.0
 70
     8
 71
     3
 72
    10
 73
     6
 74
     0
 42
0.000000001
 43
0.00000001
 40
0.0
 40
0.0
 40
0.0
 40
0.0
 40
0.5
 40
0.5
 40
1.0
 40
1.0
 40
1.0
 40
1.0
 10
150.1118312353587
 20
123.337930244168
 30
0.0
 10
150.0449263769064
 20
123.3379302441679
 30
0.0
 10
149.9797566109265
 20
123.3443730741884
 30
0.0
 10
149.8881969295624
 20
123.3657200383322
 30
0.0
 10
149.8618312353587
 20
123.3807058039437
 30
0.0
 10
149.8618312353587
 20
123.3954984458868
 30
0.0
  0
LINE
  5
21E
330
1F
100
AcDbEntity
  8
0
  6
Continuous
 62
     7
370
    30
100
AcDbLine
 10
149.8618312354
 20
69.3164575426
 30
0.0
 11
149.8618312354
 21
123.3954984459
 31
0.0
  0
ARC
  5
21F
330
1F
100
AcDbEntity
  8
0
  6
Continuous
 62
     7
370
    30
100
AcDbCircle
 10
150.0497042584
 20
70.1206359654
 30
0.0
 40
0.8258324336434527
100
AcDbArc
 50
256.850343864
 51
274.3144100472
  0
LINE
  5
220
330
1F
100
AcDbEntity
  8
0
  6
Continuous
 62
     7
370
    30
100
AcDbLine
 10
161.3618312354
 20
70.3379302442
 30
0.0
 11
161.3618312354
 21
69.3164575426
 31
0.0
  0
ARC
  5
221
330
1F
100
AcDbEntity
  8
0
  6
Continuous
 62
     7
370
    30
100
AcDbCircle
 10
161.1739582123
 20
70.1206359654
 30
0.0
 40
0.8258324336432281
100
AcDbArc
 50
265.6855899528
 51
283.149656136
  0
SPLINE
  5
222
330
1F
100
AcDbEntity
  8
0
  6
Continuous
 62
     7
370
    30
100
AcDbSpline
210
0.0
220
0.0
230
1.0
 70
    24
 71
     3
 72
    10
 73
     6
 74
     0
 42
0.000000001
 43
0.00000001
 40
0.0
 40
0.0
 40
0.0
 40
0.0
 40
0.5
 40
0.5
 40
1.0
 40
1.0
 40
1.0
 40
1.0
 10
161.1118312353587
 20
70.33793024416859
 30
0.0
 10
161.1779771278273
 20
70.33793024416859
 30
0.0
 10
161.2426287114307
 20
70.33793024416859
 30
0.0
 10
161.3347747984331
 20
70.33793024416859
 30
0.0
 10
161.36183123536
 20
70.33793024416859
 30
0.0
 10
161.3618312353601
 20
70.33793024416859
 30
0.0
  0
LINE
  5
223
330
1F
100
AcDbEntity
  8
0
  6
Continuous
 62
     7
370
    30
100
AcDbLine
 10
161.3618312354
 20
69.3164575426
 30
0.0
 11
161.3618312354
 21
63.0879302442
 31
0.0
  0
LINE
  5
224
330
1F
100
AcDbEntity
  8
0
  6
Continuous
 62
     7
370
    30
100
AcDbLine
 10
149.8618312354
 20
63.0879302442
 30
0.0
 11
149.8618312354
 21
69.3164575426
 31
0.0
  0
LINE
  5
225
330
1F
100
AcDbEntity
  8
0
  6
Continuous
 62
     8
370
    30
100
AcDbLine
 10
161.1118312354
 20
62.8379302442
 30
0.0
 11
161.1118312354
 21
69.2971437389
 31
0.0
  0
LINE
  5
226
330
1F
100
AcDbEntity
  8
0
  6
Continuous
 62
     8
370
    30
100
AcDbLine
 10
150.1118312354
 20
69.2971437389
 30
0.0
 11
150.1118312354
 21
62.8379302442
 31
0.0
  0
DIMENSION
  5
227
330
1F
100
AcDbEntity
  8
SLD-0
 62
     7
100
AcDbDimension
  2
_D_5
 10
161.3618312354
 20
53.3281667526
 30
0.0
 11
155.6118312354
 21
53.3281667526
 31
0.0
 70
   160
  1
<>
 71
     2
 42
-1.0
  3
SLDDIMSTYLE0
100
AcDbAlignedDimension
 13
149.8618312354
 23
63.0879302442
 33
0.0
 14
161.3618312354
 24
63.0879302442
 34
0.0
 50
0.0
100
AcDbRotatedDimension
  0
DIMENSION
  5
231
330
1F
100
AcDbEntity
  8
SLD-0
 62
     7
100
AcDbDimension
  2
_D_6
 10
160.6618312354
 20
135.4656961543
 30
0.0
 11
155.2618312354
 21
135.4656961543
 31
0.0
 70
   160
  1
<>
 71
     2
 42
-1.0
  3
SLDDIMSTYLE0
100
AcDbAlignedDimension
 13
149.8618312354
 23
129.0879302442
 33
0.0
 14
160.6618312354
 24
129.0879302442
 34
0.0
100
AcDbRotatedDimension
  0
ENDSEC
  0
SECTION
  2
OBJECTS
  0
DICTIONARY
  5
C
330
0
100
AcDbDictionary
281
     1
  3
ACAD_GROUP
350
D
  3
ACAD_LAYOUT
350
1A
  3
ACAD_MLINESTYLE
350
17
  3
ACAD_PLOTSETTINGS
350
19
  3
ACAD_PLOTSTYLENAME
350
E
  3
ACAD_SCALELIST
350
47
  0
DICTIONARY
  5
D
102
{ACAD_REACTORS
330
C
102
}
330
C
100
AcDbDictionary
281
     1
  0
DICTIONARY
  5
1A
102
{ACAD_REACTORS
330
C
102
}
330
C
100
AcDbDictionary
281
     1
  3
Layout1
350
1E
  3
Layout2
350
26
  3
Model
350
22
  0
DICTIONARY
  5
17
102
{ACAD_REACTORS
330
C
102
}
330
C
100
AcDbDictionary
281
     1
  3
Standard
350
18
  0
DICTIONARY
  5
19
102
{ACAD_REACTORS
330
C
102
}
330
C
100
AcDbDictionary
281
     1
  0
ACDBDICTIONARYWDFLT
  5
E
102
{ACAD_REACTORS
330
C
102
}
330
C
100
AcDbDictionary
281
     1
  3
Normal
350
F
100
AcDbDictionaryWithDefault
340
F
  0
DICTIONARY
  5
47
102
{ACAD_REACTORS
330
C
102
}
330
C
100
AcDbDictionary
281
     1
  3
A0
350
48
  3
A1
350
49
  3
A2
350
4A
  3
A3
350
4B
  3
A4
350
4C
  3
A5
350
4D
  3
A6
350
4E
  3
A7
350
4F
  3
A8
350
50
  3
A9
350
51
  3
B0
350
52
  3
B1
350
53
  3
B2
350
54
  3
B3
350
55
  3
B4
350
56
  3
B5
350
57
  3
B6
350
58
  3
B7
350
59
  3
B8
350
5A
  3
B9
350
5B
  3
C0
350
5C
  3
C1
350
5D
  3
C2
350
5E
  3
C3
350
5F
  3
C4
350
60
  3
C5
350
61
  3
C6
350
62
  3
C7
350
63
  3
C8
350
64
  3
C9
350
65
  3
D0
350
66
  3
D1
350
67
  3
D2
350
68
  0
LAYOUT
  5
1E
102
{ACAD_REACTORS
330
1A
102
}
330
1A
100
AcDbPlotSettings
  1

  2
none_device
  4

  6

 40
0.0
 41
0.0
 42
0.0
 43
0.0
 44
0.0
 45
0.0
 46
0.0
 47
0.0
 48
0.0
 49
0.0
140
0.0
141
0.0
142
1.0
143
1.0
 70
   688
 72
     1
 73
     0
 74
     5
  7

 75
    16
147
1.0
148
0.0
149
0.0
100
AcDbLayout
  1
Layout1
 70
     1
 71
     1
 10
0.0
 20
0.0
 11
420.0
 21
297.0
 12
0.0
 22
0.0
 32
0.0
 14
1.0000000000E+20
 24
1.0000000000E+20
 34
1.0000000000E+20
 15
-1.0000000000E+20
 25
-1.0000000000E+20
 35
-1.0000000000E+20
146
0.0
 13
0.0
 23
0.0
 33
0.0
 16
1.0
 26
0.0
 36
0.0
 17
0.0
 27
1.0
 37
0.0
 76
     0
330
1B
  0
LAYOUT
  5
26
102
{ACAD_REACTORS
330
1A
102
}
330
1A
100
AcDbPlotSettings
  1

  2
none_device
  4

  6

 40
0.0
 41
0.0
 42
0.0
 43
0.0
 44
0.0
 45
0.0
 46
0.0
 47
0.0
 48
0.0
 49
0.0
140
0.0
141
0.0
142
1.0
143
1.0
 70
   688
 72
     1
 73
     0
 74
     5
  7

 75
    16
147
1.0
148
0.0
149
0.0
100
AcDbLayout
  1
Layout2
 70
     1
 71
     2
 10
0.0
 20
0.0
 11
0.0
 21
0.0
 12
0.0
 22
0.0
 32
0.0
 14
0.0
 24
0.0
 34
0.0
 15
0.0
 25
0.0
 35
0.0
146
0.0
 13
0.0
 23
0.0
 33
0.0
 16
1.0
 26
0.0
 36
0.0
 17
0.0
 27
1.0
 37
0.0
 76
     0
330
23
  0
LAYOUT
  5
22
102
{ACAD_REACTORS
330
1A
102
}
330
1A
100
AcDbPlotSettings
  1

  2
none_device
  4
Letter_(8.50_x_11.00_Inches)
  6

 40
6.35
 41
6.35
 42
6.35000508
 43
6.35000508
 44
215.9
 45
279.4
 46
0.0
 47
0.0
 48
0.0
 49
0.0
140
0.0
141
0.0
142
1.0
143
1.0
 70
  1712
 72
     1
 73
     0
 74
     0
  7

 75
     0
147
1.0
148
0.0
149
0.0
100
AcDbLayout
  1
Model
 70
     1
 71
     0
 10
0.0
 20
0.0
 11
297.0
 21
210.0
 12
0.0
 22
0.0
 32
0.0
 14
0.0
 24
0.0
 34
0.0
 15
297.0
 25
210.0
 35
0.0
146
0.0
 13
0.0
 23
0.0
 33
0.0
 16
1.0
 26
0.0
 36
0.0
 17
0.0
 27
1.0
 37
0.0
 76
     0
330
1F
331
29
  0
MLINESTYLE
  5
18
102
{ACAD_REACTORS
330
17
102
}
330
17
100
AcDbMlineStyle
  2
Standard
 70
     0
  3

 62
   256
 51
90.0
 52
90.0
 71
     2
 49
0.5
 62
   256
  6
BYLAYER
 49
-0.5
 62
   256
  6
BYLAYER
  0
ACDBPLACEHOLDER
  5
F
102
{ACAD_REACTORS
330
E
102
}
330
E
  0
SCALE
  5
48
102
{ACAD_REACTORS
330
47
102
}
330
47
100
AcDbScale
 70
     0
300
1:1
140
1.0
141
1.0
290
     1
  0
SCALE
  5
49
102
{ACAD_REACTORS
330
47
102
}
330
47
100
AcDbScale
 70
     0
300
1:2
140
1.0
141
2.0
290
     0
  0
SCALE
  5
4A
102
{ACAD_REACTORS
330
47
102
}
330
47
100
AcDbScale
 70
     0
300
1:4
140
1.0
141
4.0
290
     0
  0
SCALE
  5
4B
102
{ACAD_REACTORS
330
47
102
}
330
47
100
AcDbScale
 70
     0
300
1:5
140
1.0
141
5.0
290
     0
  0
SCALE
  5
4C
102
{ACAD_REACTORS
330
47
102
}
330
47
100
AcDbScale
 70
     0
300
1:8
140
1.0
141
8.0
290
     0
  0
SCALE
  5
4D
102
{ACAD_REACTORS
330
47
102
}
330
47
100
AcDbScale
 70
     0
300
1:10
140
1.0
141
10.0
290
     0
  0
SCALE
  5
4E
102
{ACAD_REACTORS
330
47
102
}
330
47
100
AcDbScale
 70
     0
300
1:16
140
1.0
141
16.0
290
     0
  0
SCALE
  5
4F
102
{ACAD_REACTORS
330
47
102
}
330
47
100
AcDbScale
 70
     0
300
1:20
140
1.0
141
20.0
290
     0
  0
SCALE
  5
50
102
{ACAD_REACTORS
330
47
102
}
330
47
100
AcDbScale
 70
     0
300
1:30
140
1.0
141
30.0
290
     0
  0
SCALE
  5
51
102
{ACAD_REACTORS
330
47
102
}
330
47
100
AcDbScale
 70
     0
300
1:40
140
1.0
141
40.0
290
     0
  0
SCALE
  5
52
102
{ACAD_REACTORS
330
47
102
}
330
47
100
AcDbScale
 70
     0
300
1:50
140
1.0
141
50.0
290
     0
  0
SCALE
  5
53
102
{ACAD_REACTORS
330
47
102
}
330
47
100
AcDbScale
 70
     0
300
1:100
140
1.0
141
100.0
290
     0
  0
SCALE
  5
54
102
{ACAD_REACTORS
330
47
102
}
330
47
100
AcDbScale
 70
     0
300
2:1
140
2.0
141
1.0
290
     0
  0
SCALE
  5
55
102
{ACAD_REACTORS
330
47
102
}
330
47
100
AcDbScale
 70
     0
300
4:1
140
4.0
141
1.0
290
     0
  0
SCALE
  5
56
102
{ACAD_REACTORS
330
47
102
}
330
47
100
AcDbScale
 70
     0
300
8:1
140
8.0
141
1.0
290
     0
  0
SCALE
  5
57
102
{ACAD_REACTORS
330
47
102
}
330
47
100
AcDbScale
 70
     0
300
10:1
140
10.0
141
1.0
290
     0
  0
SCALE
  5
58
102
{ACAD_REACTORS
330
47
102
}
330
47
100
AcDbScale
 70
     0
300
100:1
140
100.0
141
1.0
290
     0
  0
SCALE
  5
59
102
{ACAD_REACTORS
330
47
102
}
330
47
100
AcDbScale
 70
     0
300
1/128" = 1'-0"
140
0.0078125
141
12.0
290
     0
  0
SCALE
  5
5A
102
{ACAD_REACTORS
330
47
102
}
330
47
100
AcDbScale
 70
     0
300
1/64" = 1'-0"
140
0.015625
141
12.0
290
     0
  0
SCALE
  5
5B
102
{ACAD_REACTORS
330
47
102
}
330
47
100
AcDbScale
 70
     0
300
1/32" = 1'-0"
140
0.03125
141
12.0
290
     0
  0
SCALE
  5
5C
102
{ACAD_REACTORS
330
47
102
}
330
47
100
AcDbScale
 70
     0
300
1/16" = 1'-0"
140
0.0625
141
12.0
290
     0
  0
SCALE
  5
5D
102
{ACAD_REACTORS
330
47
102
}
330
47
100
AcDbScale
 70
     0
300
3/32" = 1'-0"
140
0.09375
141
12.0
290
     0
  0
SCALE
  5
5E
102
{ACAD_REACTORS
330
47
102
}
330
47
100
AcDbScale
 70
     0
300
1/8" = 1'-0"
140
0.125
141
12.0
290
     0
  0
SCALE
  5
5F
102
{ACAD_REACTORS
330
47
102
}
330
47
100
AcDbScale
 70
     0
300
3/16" = 1'-0"
140
0.1875
141
12.0
290
     0
  0
SCALE
  5
60
102
{ACAD_REACTORS
330
47
102
}
330
47
100
AcDbScale
 70
     0
300
1/4" = 1'-0"
140
0.25
141
12.0
290
     0
  0
SCALE
  5
61
102
{ACAD_REACTORS
330
47
102
}
330
47
100
AcDbScale
 70
     0
300
3/8" = 1'-0"
140
0.375
141
12.0
290
     0
  0
SCALE
  5
62
102
{ACAD_REACTORS
330
47
102
}
330
47
100
AcDbScale
 70
     0
300
1/2" = 1'-0"
140
0.5
141
12.0
290
     0
  0
SCALE
  5
63
102
{ACAD_REACTORS
330
47
102
}
330
47
100
AcDbScale
 70
     0
300
3/4" = 1'-0"
140
0.75
141
12.0
290
     0
  0
SCALE
  5
64
102
{ACAD_REACTORS
330
47
102
}
330
47
100
AcDbScale
 70
     0
300
1" = 1'-0"
140
1.0
141
12.0
290
     0
  0
SCALE
  5
65
102
{ACAD_REACTORS
330
47
102
}
330
47
100
AcDbScale
 70
     0
300
1-1/2" = 1'-0"
140
1.5
141
12.0
290
     0
  0
SCALE
  5
66
102
{ACAD_REACTORS
330
47
102
}
330
47
100
AcDbScale
 70
     0
300
3" = 1'-0"
140
3.0
141
12.0
290
     0
  0
SCALE
  5
67
102
{ACAD_REACTORS
330
47
102
}
330
47
100
AcDbScale
 70
     0
300
6" = 1'-0"
140
6.0
141
12.0
290
     0
  0
SCALE
  5
68
102
{ACAD_REACTORS
330
47
102
}
330
47
100
AcDbScale
 70
     0
300
1'-0" = 1'-0"
140
12.0
141
12.0
290
     0
  0
ENDSEC
  0
EOF
